osu file format v14

[General]
AudioFilename: Lilith ambivalence lovers.mp3
AudioLeadIn: 0
PreviewTime: 12757
Countdown: 0
SampleSet: None
StackLeniency: 0.7
Mode: 1
LetterboxInBreaks: 0
WidescreenStoryboard: 1

[Editor]
Bookmarks: 20,12735,25450,38165,50881,63596,76311,89026,101742,114457,127172,152660
DistanceSpacing: 1.1
BeatDivisor: 16
GridSize: 32
TimelineZoom: 1.8

[Metadata]
Title:Lilith ambivalence lovers
TitleUnicode:Lilith ambivalence lovers
Artist:ikaruga_nex
ArtistUnicode:ikaruga_nex
Creator:GlinT fraulein
Version:TJBC Oni (NO SV)
Source:
Tags:
BeatmapID:1618376
BeatmapSetID:767800

[Difficulty]
HPDrainRate:5
CircleSize:5
OverallDifficulty:5
ApproachRate:5
SliderMultiplier:1.3999999666214
SliderTickRate:1

[Events]
//Background and Video events
0,0,"lilith.png",0,0
//Break Periods
//Storyboard Layer 0 (Background)
//Storyboard Layer 1 (Fail)
//Storyboard Layer 2 (Pass)
//Storyboard Layer 3 (Foreground)
//Storyboard Sound Samples

[TimingPoints]
78.2907101694943,397.350993377483,4,1,0,100,1,0
50939,-100,4,1,0,100,0,1
76369,-100,4,1,0,100,0,0
100209,397.350993377483,4,1,0,100,1,8
100229,479.99616003072,4,1,0,100,1,0
101002,397.350993377483,4,1,0,100,1,8
101800,397.350993377483,4,1,0,100,1,0
101800,-100,4,1,0,100,0,1
114515,-100,4,1,0,100,0,0
116104,-100,4,1,0,100,0,1
127230,-100,4,1,0,100,0,0

[HitObjects]
256,192,78,5,4,0:0:0:0:
256,192,475,1,2,0:0:0:0:
256,192,773,1,2,0:0:0:0:
256,192,971,1,2,0:0:0:0:
256,192,1171,1,2,0:0:0:0:
256,192,1468,1,2,0:0:0:0:
256,192,1766,1,2,0:0:0:0:
256,192,2064,1,2,0:0:0:0:
256,192,2362,1,2,0:0:0:0:
256,192,2561,1,2,0:0:0:0:
256,192,2760,1,2,0:0:0:0:
256,192,3058,1,2,0:0:0:0:
256,192,3257,1,0,0:0:0:0:
256,192,3455,1,2,0:0:0:0:
256,192,3753,1,2,0:0:0:0:
256,192,3952,1,2,0:0:0:0:
256,192,4151,1,2,0:0:0:0:
256,192,4250,1,0,0:0:0:0:
256,192,4548,1,2,0:0:0:0:
256,192,4747,1,2,0:0:0:0:
256,192,5045,1,2,0:0:0:0:
256,192,5343,1,2,0:0:0:0:
256,192,5541,1,2,0:0:0:0:
256,192,5640,1,2,0:0:0:0:
256,192,5739,1,2,0:0:0:0:
256,192,5839,1,0,0:0:0:0:
256,192,6435,5,4,0:0:0:0:
256,192,6833,1,2,0:0:0:0:
256,192,7131,1,2,0:0:0:0:
256,192,7329,1,2,0:0:0:0:
256,192,7528,1,2,0:0:0:0:
256,192,7826,1,2,0:0:0:0:
256,192,8124,1,2,0:0:0:0:
256,192,8422,1,2,0:0:0:0:
256,192,8720,1,2,0:0:0:0:
256,192,8919,1,2,0:0:0:0:
256,192,9118,1,2,0:0:0:0:
256,192,9416,1,2,0:0:0:0:
256,192,9614,1,0,0:0:0:0:
256,192,9813,1,2,0:0:0:0:
256,192,10012,1,0,0:0:0:0:
256,192,10210,1,2,0:0:0:0:
256,192,10409,1,0,0:0:0:0:
256,192,10608,1,2,0:0:0:0:
256,192,10707,1,2,0:0:0:0:
256,192,10806,1,0,0:0:0:0:
256,192,11005,1,2,0:0:0:0:
256,192,11204,1,0,0:0:0:0:
256,192,11402,1,2,0:0:0:0:
256,192,11502,1,2,0:0:0:0:
256,192,11601,1,0,0:0:0:0:
256,192,11800,1,2,0:0:0:0:
256,192,11998,1,4,0:0:0:0:
256,192,12793,1,0,0:0:0:0:
256,192,12992,1,0,0:0:0:0:
256,192,13190,1,2,0:0:0:0:
256,192,13389,1,0,0:0:0:0:
256,192,13488,1,0,0:0:0:0:
256,192,13687,1,0,0:0:0:0:
256,192,13786,1,2,0:0:0:0:
256,192,13985,1,2,0:0:0:0:
256,192,14184,1,0,0:0:0:0:
256,192,14382,1,0,0:0:0:0:
256,192,14581,1,0,0:0:0:0:
256,192,14780,1,2,0:0:0:0:
256,192,14978,1,0,0:0:0:0:
256,192,15078,1,0,0:0:0:0:
256,192,15177,1,2,0:0:0:0:
256,192,15276,1,2,0:0:0:0:
256,192,15475,1,0,0:0:0:0:
256,192,15574,1,0,0:0:0:0:
256,192,15773,1,2,0:0:0:0:
256,192,15972,1,0,0:0:0:0:
256,192,16171,1,0,0:0:0:0:
256,192,16369,1,2,0:0:0:0:
256,192,16568,1,0,0:0:0:0:
256,192,16667,1,0,0:0:0:0:
256,192,16866,1,2,0:0:0:0:
256,192,16965,1,0,0:0:0:0:
256,192,17164,1,2,0:0:0:0:
256,192,17363,1,0,0:0:0:0:
256,192,17561,1,2,0:0:0:0:
256,192,17760,1,0,0:0:0:0:
256,192,17859,1,2,0:0:0:0:
256,192,18058,1,0,0:0:0:0:
256,192,18157,1,2,0:0:0:0:
256,192,18356,1,2,0:0:0:0:
256,192,18455,1,0,0:0:0:0:
256,192,18555,1,2,0:0:0:0:
256,192,18753,1,2,0:0:0:0:
256,192,18952,1,0,0:0:0:0:
256,192,19051,1,0,0:0:0:0:
256,192,19151,1,0,0:0:0:0:
256,192,19349,1,0,0:0:0:0:
256,192,19548,1,2,0:0:0:0:
256,192,19747,1,0,0:0:0:0:
256,192,19846,1,0,0:0:0:0:
256,192,20045,1,0,0:0:0:0:
256,192,20144,1,2,0:0:0:0:
256,192,20343,1,2,0:0:0:0:
256,192,20442,1,2,0:0:0:0:
256,192,20541,1,0,0:0:0:0:
256,192,20740,1,4,0:0:0:0:
256,192,20939,1,0,0:0:0:0:
256,192,21137,1,2,0:0:0:0:
256,192,21336,1,0,0:0:0:0:
256,192,21435,1,0,0:0:0:0:
256,192,21535,1,2,0:0:0:0:
256,192,21634,1,2,0:0:0:0:
256,192,21833,1,2,0:0:0:0:
256,192,21932,1,0,0:0:0:0:
256,192,22131,1,2,0:0:0:0:
256,192,22329,1,4,0:0:0:0:
256,192,22627,1,4,0:0:0:0:
256,192,22925,1,6,0:0:0:0:
256,192,23223,1,6,0:0:0:0:
256,192,23521,1,4,0:0:0:0:
256,192,23720,1,6,0:0:0:0:
256,192,23919,1,6,0:0:0:0:
256,192,24118,1,0,0:0:0:0:
256,192,24217,1,2,0:0:0:0:
256,192,24316,1,2,0:0:0:0:
256,192,24515,1,0,0:0:0:0:
256,192,24614,1,2,0:0:0:0:
256,192,24714,1,2,0:0:0:0:
256,192,24912,1,2,0:0:0:0:
256,192,25012,1,2,0:0:0:0:
256,192,25111,1,0,0:0:0:0:
256,192,25508,5,0,0:0:0:0:
256,192,25906,1,0,0:0:0:0:
256,192,26104,1,2,0:0:0:0:
256,192,26303,1,0,0:0:0:0:
256,192,26502,1,2,0:0:0:0:
256,192,26601,1,0,0:0:0:0:
256,192,26899,1,2,0:0:0:0:
256,192,26998,1,2,0:0:0:0:
256,192,27098,1,0,0:0:0:0:
256,192,27197,1,2,0:0:0:0:
256,192,27495,1,0,0:0:0:0:
256,192,27694,1,2,0:0:0:0:
256,192,27892,1,0,0:0:0:0:
256,192,28091,1,2,0:0:0:0:
256,192,28190,1,0,0:0:0:0:
256,192,28290,1,0,0:0:0:0:
256,192,28389,1,2,0:0:0:0:
256,192,28488,1,0,0:0:0:0:
256,192,28687,1,0,0:0:0:0:
256,192,28786,1,2,0:0:0:0:
256,192,28985,1,2,0:0:0:0:
256,192,29084,1,0,0:0:0:0:
256,192,29184,1,2,0:0:0:0:
256,192,29283,1,0,0:0:0:0:
256,192,29482,1,0,0:0:0:0:
256,192,29680,1,2,0:0:0:0:
256,192,29780,1,0,0:0:0:0:
256,192,29879,1,0,0:0:0:0:
256,192,30078,1,2,0:0:0:0:
256,192,30177,1,2,0:0:0:0:
256,192,30276,1,0,0:0:0:0:
256,192,30475,1,2,0:0:0:0:
256,192,30674,1,0,0:0:0:0:
256,192,30773,1,0,0:0:0:0:
256,192,30872,1,2,0:0:0:0:
256,192,30972,1,0,0:0:0:0:
256,192,31071,1,0,0:0:0:0:
256,192,31171,1,2,0:0:0:0:
256,192,31270,1,2,0:0:0:0:
256,192,31469,1,4,0:0:0:0:
256,192,31667,1,4,0:0:0:0:
256,192,31866,1,0,0:0:0:0:
256,192,32263,1,0,0:0:0:0:
256,192,32462,1,2,0:0:0:0:
256,192,32561,1,2,0:0:0:0:
256,192,32760,1,0,0:0:0:0:
256,192,32859,1,2,0:0:0:0:
256,192,32959,1,2,0:0:0:0:
256,192,33058,1,0,0:0:0:0:
256,192,33257,1,2,0:0:0:0:
256,192,33323,1,2,0:0:0:0:
256,192,33389,1,2,0:0:0:0:
256,192,33455,1,0,0:0:0:0:
256,192,33654,1,0,0:0:0:0:
256,192,33753,1,2,0:0:0:0:
256,192,33853,1,0,0:0:0:0:
256,192,33952,1,2,0:0:0:0:
256,192,34051,1,2,0:0:0:0:
256,192,34151,1,2,0:0:0:0:
256,192,34250,1,0,0:0:0:0:
256,192,34449,1,0,0:0:0:0:
256,192,34647,1,2,0:0:0:0:
256,192,34747,1,0,0:0:0:0:
256,192,34846,1,2,0:0:0:0:
256,192,34945,1,0,0:0:0:0:
256,192,35045,1,0,0:0:0:0:
256,192,35243,1,0,0:0:0:0:
256,192,35442,1,0,0:0:0:0:
256,192,35541,1,2,0:0:0:0:
256,192,35641,1,0,0:0:0:0:
256,192,35740,1,2,0:0:0:0:
256,192,35839,1,0,0:0:0:0:
256,192,36038,1,0,0:0:0:0:
256,192,36237,1,2,0:0:0:0:
256,192,36435,1,0,0:0:0:0:
256,192,36634,1,2,0:0:0:0:
256,192,36833,1,0,0:0:0:0:
256,192,36932,1,2,0:0:0:0:
256,192,37230,1,0,0:0:0:0:
256,192,37329,1,0,0:0:0:0:
256,192,37429,1,2,0:0:0:0:
256,192,37627,1,0,0:0:0:0:
256,192,37826,1,4,0:0:0:0:
256,192,38025,1,4,0:0:0:0:
256,192,38223,5,0,0:0:0:0:
256,192,38422,1,2,0:0:0:0:
256,192,38521,1,0,0:0:0:0:
256,192,38621,1,0,0:0:0:0:
256,192,38720,1,2,0:0:0:0:
256,192,38919,1,2,0:0:0:0:
256,192,39018,1,0,0:0:0:0:
256,192,39217,1,0,0:0:0:0:
256,192,39416,1,2,0:0:0:0:
256,192,39614,1,2,0:0:0:0:
256,192,39714,1,2,0:0:0:0:
256,192,39813,1,0,0:0:0:0:
256,192,40012,1,2,0:0:0:0:
256,192,40111,1,0,0:0:0:0:
256,192,40210,1,0,0:0:0:0:
256,192,40310,1,2,0:0:0:0:
256,192,40508,1,2,0:0:0:0:
256,192,40608,1,0,0:0:0:0:
256,192,40806,1,2,0:0:0:0:
256,192,41005,1,6,0:0:0:0:
256,192,41204,1,6,0:0:0:0:
256,192,41402,1,2,0:0:0:0:
256,192,41601,1,0,0:0:0:0:
256,192,41700,1,2,0:0:0:0:
256,192,41800,1,2,0:0:0:0:
256,192,41998,1,0,0:0:0:0:
256,192,42098,1,2,0:0:0:0:
256,192,42197,1,2,0:0:0:0:
256,192,42396,1,2,0:0:0:0:
256,192,42594,1,2,0:0:0:0:
256,192,42694,1,0,0:0:0:0:
256,192,42793,1,2,0:0:0:0:
256,192,42892,1,0,0:0:0:0:
256,192,42992,1,2,0:0:0:0:
256,192,43190,1,0,0:0:0:0:
256,192,43290,1,0,0:0:0:0:
256,192,43389,1,2,0:0:0:0:
256,192,43588,1,0,0:0:0:0:
256,192,43687,1,2,0:0:0:0:
256,192,43886,1,0,0:0:0:0:
256,192,43985,1,2,0:0:0:0:
256,192,44184,1,4,0:0:0:0:
256,192,44581,1,4,0:0:0:0:
256,192,44780,1,2,0:0:0:0:
256,192,44879,1,0,0:0:0:0:
256,192,44978,1,0,0:0:0:0:
256,192,45078,1,0,0:0:0:0:
256,192,45177,1,2,0:0:0:0:
256,192,45276,1,0,0:0:0:0:
256,192,45376,1,0,0:0:0:0:
256,192,45475,1,0,0:0:0:0:
256,192,45574,1,2,0:0:0:0:
256,192,45773,1,0,0:0:0:0:
256,192,45972,1,2,0:0:0:0:
256,192,46071,1,2,0:0:0:0:
256,192,46171,1,0,0:0:0:0:
256,192,46369,1,2,0:0:0:0:
256,192,46469,1,0,0:0:0:0:
256,192,46568,1,0,0:0:0:0:
256,192,46667,1,0,0:0:0:0:
256,192,46767,1,2,0:0:0:0:
256,192,46866,1,0,0:0:0:0:
256,192,46965,1,0,0:0:0:0:
256,192,47065,1,2,0:0:0:0:
256,192,47164,1,2,0:0:0:0:
256,192,47363,1,2,0:0:0:0:
256,192,47561,1,2,0:0:0:0:
256,192,47760,1,2,0:0:0:0:
256,192,47859,1,0,0:0:0:0:
256,192,47959,1,0,0:0:0:0:
256,192,48058,1,0,0:0:0:0:
256,192,48157,1,2,0:0:0:0:
256,192,48257,1,2,0:0:0:0:
256,192,48356,1,0,0:0:0:0:
256,192,48422,1,0,0:0:0:0:
256,192,48488,1,0,0:0:0:0:
256,192,48555,1,2,0:0:0:0:
256,192,48654,1,0,0:0:0:0:
256,192,48753,1,2,0:0:0:0:
256,192,48853,1,0,0:0:0:0:
256,192,48952,1,2,0:0:0:0:
256,192,49151,1,2,0:0:0:0:
256,192,49349,1,0,0:0:0:0:
256,192,49449,1,2,0:0:0:0:
256,192,49747,1,0,0:0:0:0:
256,192,49945,1,2,0:0:0:0:
256,192,50045,1,2,0:0:0:0:
256,192,50144,1,0,0:0:0:0:
256,192,50243,1,2,0:0:0:0:
256,192,50442,1,2,0:0:0:0:
256,192,50541,1,0,0:0:0:0:
256,192,50641,1,0,0:0:0:0:
256,192,50740,1,2,0:0:0:0:
256,192,50939,5,0,0:0:0:0:
256,192,51038,1,0,0:0:0:0:
256,192,51237,1,2,0:0:0:0:
256,192,51336,1,0,0:0:0:0:
256,192,51535,1,2,0:0:0:0:
256,192,51634,1,2,0:0:0:0:
256,192,51733,1,0,0:0:0:0:
256,192,51833,1,2,0:0:0:0:
256,192,52031,1,2,0:0:0:0:
256,192,52131,1,0,0:0:0:0:
256,192,52230,1,0,0:0:0:0:
256,192,52329,1,2,0:0:0:0:
256,192,52528,1,0,0:0:0:0:
256,192,52627,1,0,0:0:0:0:
256,192,52826,1,2,0:0:0:0:
256,192,52925,1,0,0:0:0:0:
256,192,53025,1,2,0:0:0:0:
256,192,53124,1,2,0:0:0:0:
256,192,53323,1,0,0:0:0:0:
256,192,53422,1,2,0:0:0:0:
256,192,53521,1,0,0:0:0:0:
256,192,53621,1,0,0:0:0:0:
256,192,53720,1,2,0:0:0:0:
256,192,53919,1,2,0:0:0:0:
256,192,54018,1,0,0:0:0:0:
256,192,54118,1,2,0:0:0:0:
256,192,54217,1,0,0:0:0:0:
256,192,54316,1,0,0:0:0:0:
256,192,54416,1,2,0:0:0:0:
256,192,54614,1,0,0:0:0:0:
256,192,54714,1,2,0:0:0:0:
256,192,54912,1,0,0:0:0:0:
256,192,55012,1,0,0:0:0:0:
256,192,55111,1,2,0:0:0:0:
256,192,55210,1,0,0:0:0:0:
256,192,55310,1,0,0:0:0:0:
256,192,55508,1,2,0:0:0:0:
256,192,55608,1,0,0:0:0:0:
256,192,55707,1,2,0:0:0:0:
256,192,55906,1,0,0:0:0:0:
256,192,56104,1,2,0:0:0:0:
256,192,56204,1,2,0:0:0:0:
256,192,56402,1,2,0:0:0:0:
256,192,56502,1,0,0:0:0:0:
256,192,56601,1,2,0:0:0:0:
256,192,56800,1,0,0:0:0:0:
256,192,56899,1,2,0:0:0:0:
256,192,57098,1,0,0:0:0:0:
256,192,57296,1,0,0:0:0:0:
256,192,57396,1,0,0:0:0:0:
256,192,57594,1,2,0:0:0:0:
256,192,57694,1,0,0:0:0:0:
256,192,57892,1,2,0:0:0:0:
256,192,57992,1,2,0:0:0:0:
256,192,58091,1,0,0:0:0:0:
256,192,58190,1,0,0:0:0:0:
256,192,58389,1,2,0:0:0:0:
256,192,58488,1,0,0:0:0:0:
256,192,58588,1,0,0:0:0:0:
256,192,58687,1,2,0:0:0:0:
256,192,58886,1,0,0:0:0:0:
256,192,58985,1,0,0:0:0:0:
256,192,59184,1,2,0:0:0:0:
256,192,59283,1,0,0:0:0:0:
256,192,59382,1,0,0:0:0:0:
256,192,59482,1,2,0:0:0:0:
256,192,59680,1,0,0:0:0:0:
256,192,59780,1,0,0:0:0:0:
256,192,59879,1,2,0:0:0:0:
256,192,59978,1,0,0:0:0:0:
256,192,60078,1,2,0:0:0:0:
256,192,60276,1,0,0:0:0:0:
256,192,60376,1,0,0:0:0:0:
256,192,60475,1,2,0:0:0:0:
256,192,60574,1,0,0:0:0:0:
256,192,60674,1,0,0:0:0:0:
256,192,60773,1,2,0:0:0:0:
256,192,60972,1,0,0:0:0:0:
256,192,61071,1,2,0:0:0:0:
256,192,61270,1,0,0:0:0:0:
256,192,61469,1,2,0:0:0:0:
256,192,61568,1,0,0:0:0:0:
256,192,61667,1,0,0:0:0:0:
256,192,61866,1,2,0:0:0:0:
256,192,61965,1,2,0:0:0:0:
256,192,62065,1,0,0:0:0:0:
256,192,62164,1,2,0:0:0:0:
256,192,62363,1,2,0:0:0:0:
256,192,62462,1,0,0:0:0:0:
256,192,62661,1,0,0:0:0:0:
256,192,62859,1,0,0:0:0:0:
256,192,62959,1,2,0:0:0:0:
256,192,63058,1,0,0:0:0:0:
256,192,63257,1,2,0:0:0:0:
256,192,63455,1,0,0:0:0:0:
256,192,63654,1,0,0:0:0:0:
256,192,63753,1,0,0:0:0:0:
256,192,63952,1,2,0:0:0:0:
256,192,64051,1,0,0:0:0:0:
256,192,64151,1,0,0:0:0:0:
256,192,64250,1,2,0:0:0:0:
256,192,64449,1,0,0:0:0:0:
256,192,64548,1,2,0:0:0:0:
256,192,64747,1,0,0:0:0:0:
256,192,64846,1,0,0:0:0:0:
256,192,64912,1,2,0:0:0:0:
256,192,64978,1,2,0:0:0:0:
256,192,65045,1,0,0:0:0:0:
256,192,65144,1,0,0:0:0:0:
256,192,65243,1,0,0:0:0:0:
256,192,65343,1,0,0:0:0:0:
256,192,65541,1,2,0:0:0:0:
256,192,65641,1,0,0:0:0:0:
256,192,65740,1,2,0:0:0:0:
256,192,65839,1,2,0:0:0:0:
256,192,66038,1,0,0:0:0:0:
256,192,66137,1,0,0:0:0:0:
256,192,66336,1,2,0:0:0:0:
256,192,66435,1,0,0:0:0:0:
256,192,66535,1,2,0:0:0:0:
256,192,66634,1,0,0:0:0:0:
256,192,66733,1,2,0:0:0:0:
256,192,66833,1,0,0:0:0:0:
256,192,67031,1,2,0:0:0:0:
256,192,67230,1,0,0:0:0:0:
256,192,67329,1,2,0:0:0:0:
256,192,67528,1,2,0:0:0:0:
256,192,67627,1,0,0:0:0:0:
256,192,67727,1,2,0:0:0:0:
256,192,67925,1,2,0:0:0:0:
256,192,68025,1,0,0:0:0:0:
256,192,68124,1,2,0:0:0:0:
256,192,68323,1,2,0:0:0:0:
256,192,68422,1,0,0:0:0:0:
256,192,68621,1,2,0:0:0:0:
256,192,68820,1,0,0:0:0:0:
256,192,68919,1,2,0:0:0:0:
256,192,69118,1,2,0:0:0:0:
256,192,69217,1,0,0:0:0:0:
256,192,69316,1,0,0:0:0:0:
256,192,69416,1,0,0:0:0:0:
256,192,69614,1,0,0:0:0:0:
256,192,69813,1,0,0:0:0:0:
256,192,70012,1,0,0:0:0:0:
256,192,70409,1,2,0:0:0:0:
256,192,70508,1,2,0:0:0:0:
256,192,70608,1,0,0:0:0:0:
256,192,70707,1,0,0:0:0:0:
256,192,70806,1,0,0:0:0:0:
256,192,71204,1,0,0:0:0:0:
256,192,71270,1,2,0:0:0:0:
256,192,71336,1,2,0:0:0:0:
256,192,71402,1,0,0:0:0:0:
256,192,71502,1,0,0:0:0:0:
256,192,71601,1,0,0:0:0:0:
256,192,71700,1,0,0:0:0:0:
256,192,71800,1,0,0:0:0:0:
256,192,71998,1,0,0:0:0:0:
256,192,72098,1,0,0:0:0:0:
256,192,72197,1,0,0:0:0:0:
256,192,72396,1,0,0:0:0:0:
256,192,72495,1,2,0:0:0:0:
256,192,72594,1,0,0:0:0:0:
256,192,72694,1,2,0:0:0:0:
256,192,72793,1,0,0:0:0:0:
256,192,72892,1,2,0:0:0:0:
256,192,72992,1,0,0:0:0:0:
256,192,73091,1,0,0:0:0:0:
256,192,73190,1,0,0:0:0:0:
256,192,73290,1,0,0:0:0:0:
256,192,73389,1,2,0:0:0:0:
256,192,73455,1,2,0:0:0:0:
256,192,73521,1,2,0:0:0:0:
256,192,73588,1,0,0:0:0:0:
256,192,73687,1,0,0:0:0:0:
256,192,73786,1,2,0:0:0:0:
256,192,73853,1,2,0:0:0:0:
256,192,73919,1,2,0:0:0:0:
256,192,73985,1,0,0:0:0:0:
256,192,74084,1,0,0:0:0:0:
256,192,74184,1,2,0:0:0:0:
256,192,74250,1,2,0:0:0:0:
256,192,74316,1,2,0:0:0:0:
256,192,74382,1,0,0:0:0:0:
256,192,74482,1,0,0:0:0:0:
256,192,74581,1,2,0:0:0:0:
256,192,74647,1,2,0:0:0:0:
256,192,74714,1,2,0:0:0:0:
256,192,74780,1,0,0:0:0:0:
256,192,74978,1,2,0:0:0:0:
256,192,75177,1,2,0:0:0:0:
256,192,75376,1,0,0:0:0:0:
256,192,75574,1,6,0:0:0:0:
256,192,75872,1,6,0:0:0:0:
256,192,76171,1,6,0:0:0:0:
256,192,76369,1,4,0:0:0:0:
256,192,76667,1,2,0:0:0:0:
256,192,76866,1,0,0:0:0:0:
256,192,76965,1,2,0:0:0:0:
256,192,77164,1,0,0:0:0:0:
256,192,77263,1,0,0:0:0:0:
256,192,77462,1,2,0:0:0:0:
256,192,77661,1,0,0:0:0:0:
256,192,77760,1,2,0:0:0:0:
256,192,77959,1,2,0:0:0:0:
256,192,78058,1,0,0:0:0:0:
256,192,78257,1,0,0:0:0:0:
256,192,78455,1,0,0:0:0:0:
256,192,78555,1,2,0:0:0:0:
256,192,78753,1,2,0:0:0:0:
256,192,78853,1,0,0:0:0:0:
256,192,78952,1,0,0:0:0:0:
256,192,79051,1,2,0:0:0:0:
256,192,79250,1,0,0:0:0:0:
256,192,79349,1,2,0:0:0:0:
256,192,79548,1,2,0:0:0:0:
256,192,79647,1,0,0:0:0:0:
256,192,79846,1,2,0:0:0:0:
256,192,80045,1,0,0:0:0:0:
256,192,80144,1,2,0:0:0:0:
256,192,80343,1,0,0:0:0:0:
256,192,80442,1,0,0:0:0:0:
256,192,80641,1,2,0:0:0:0:
256,192,80839,1,0,0:0:0:0:
256,192,80939,1,2,0:0:0:0:
256,192,81137,1,0,0:0:0:0:
256,192,81336,1,2,0:0:0:0:
256,192,81535,1,2,0:0:0:0:
256,192,81733,1,0,0:0:0:0:
256,192,81932,1,0,0:0:0:0:
256,192,82131,1,2,0:0:0:0:
256,192,82329,1,2,0:0:0:0:
256,192,82528,1,0,0:0:0:0:
256,192,82727,1,2,0:0:0:0:
256,192,82826,1,0,0:0:0:0:
256,192,83025,1,2,0:0:0:0:
256,192,83124,1,0,0:0:0:0:
256,192,83323,1,2,0:0:0:0:
256,192,83521,1,0,0:0:0:0:
256,192,83621,1,0,0:0:0:0:
256,192,83820,1,2,0:0:0:0:
256,192,83919,1,0,0:0:0:0:
256,192,84118,1,2,0:0:0:0:
256,192,84316,1,0,0:0:0:0:
256,192,84416,1,0,0:0:0:0:
256,192,84614,1,2,0:0:0:0:
256,192,84714,1,0,0:0:0:0:
256,192,84813,1,2,0:0:0:0:
256,192,84912,1,2,0:0:0:0:
256,192,85111,1,2,0:0:0:0:
256,192,85210,1,0,0:0:0:0:
256,192,85310,1,0,0:0:0:0:
256,192,85409,1,2,0:0:0:0:
256,192,85608,1,0,0:0:0:0:
256,192,85707,1,2,0:0:0:0:
256,192,85906,1,2,0:0:0:0:
256,192,86005,1,0,0:0:0:0:
256,192,86104,1,0,0:0:0:0:
256,192,86204,1,2,0:0:0:0:
256,192,86402,1,0,0:0:0:0:
256,192,86502,1,2,0:0:0:0:
256,192,86700,1,0,0:0:0:0:
256,192,86800,1,2,0:0:0:0:
256,192,86899,1,2,0:0:0:0:
256,192,86998,1,2,0:0:0:0:
256,192,87197,1,0,0:0:0:0:
256,192,87296,1,2,0:0:0:0:
256,192,87495,5,0,0:0:0:0:
256,192,87694,1,2,0:0:0:0:
256,192,87892,1,2,0:0:0:0:
256,192,88091,1,0,0:0:0:0:
256,192,88290,1,2,0:0:0:0:
256,192,88488,1,0,0:0:0:0:
256,192,88687,1,2,0:0:0:0:
256,192,88886,1,2,0:0:0:0:
256,192,89084,5,0,0:0:0:0:
256,192,89482,1,0,0:0:0:0:
256,192,89879,1,0,0:0:0:0:
256,192,90276,1,0,0:0:0:0:
256,192,90674,1,0,0:0:0:0:
256,192,91071,1,0,0:0:0:0:
256,192,91469,1,2,0:0:0:0:
256,192,91568,1,2,0:0:0:0:
256,192,91767,1,2,0:0:0:0:
256,192,91965,1,2,0:0:0:0:
256,192,92164,1,2,0:0:0:0:
256,192,92263,1,0,0:0:0:0:
256,192,92661,1,0,0:0:0:0:
256,192,93058,1,0,0:0:0:0:
256,192,93455,1,0,0:0:0:0:
256,192,93853,1,0,0:0:0:0:
256,192,93902,1,2,0:0:0:0:
256,192,94051,1,2,0:0:0:0:
256,192,94151,1,2,0:0:0:0:
256,192,94250,1,2,0:0:0:0:
256,192,94449,1,2,0:0:0:0:
256,192,94548,1,2,0:0:0:0:
256,192,94647,1,0,0:0:0:0:
256,192,94846,1,0,0:0:0:0:
256,192,94945,1,0,0:0:0:0:
256,192,95045,1,0,0:0:0:0:
256,192,95442,1,2,0:0:0:0:
256,192,95541,1,2,0:0:0:0:
256,192,95641,1,0,0:0:0:0:
256,192,95740,1,0,0:0:0:0:
256,192,95839,1,0,0:0:0:0:
256,192,95939,1,0,0:0:0:0:
256,192,96038,1,2,0:0:0:0:
256,192,96137,1,2,0:0:0:0:
256,192,96237,1,2,0:0:0:0:
256,192,96336,1,2,0:0:0:0:
256,192,96435,1,0,0:0:0:0:
256,192,96535,1,0,0:0:0:0:
256,192,96634,1,0,0:0:0:0:
256,192,96733,1,0,0:0:0:0:
256,192,96833,1,2,0:0:0:0:
256,192,96932,1,2,0:0:0:0:
256,192,97031,1,2,0:0:0:0:
256,192,97131,1,2,0:0:0:0:
256,192,97230,1,0,0:0:0:0:
256,192,97329,1,0,0:0:0:0:
256,192,97429,1,0,0:0:0:0:
256,192,97528,1,2,0:0:0:0:
256,192,97627,1,2,0:0:0:0:
256,192,97727,1,2,0:0:0:0:
256,192,97826,1,2,0:0:0:0:
256,192,97925,1,2,0:0:0:0:
256,192,98025,1,0,0:0:0:0:
256,192,98124,1,0,0:0:0:0:
256,192,98223,1,0,0:0:0:0:
256,192,98323,1,2,0:0:0:0:
256,192,98422,1,2,0:0:0:0:
256,192,98521,1,2,0:0:0:0:
256,192,98621,1,2,0:0:0:0:
256,192,98687,1,2,0:0:0:0:
256,192,98753,1,2,0:0:0:0:
256,192,98820,1,0,0:0:0:0:
256,192,98886,1,0,0:0:0:0:
256,192,98952,1,0,0:0:0:0:
256,192,99018,1,2,0:0:0:0:
256,192,99084,1,2,0:0:0:0:
256,192,99151,1,2,0:0:0:0:
256,192,99217,1,0,0:0:0:0:
256,192,99283,1,0,0:0:0:0:
256,192,99349,1,0,0:0:0:0:
256,192,99416,1,2,0:0:0:0:
256,192,99482,1,0,0:0:0:0:
256,192,99548,1,0,0:0:0:0:
256,192,99614,1,2,0:0:0:0:
256,192,99680,1,0,0:0:0:0:
256,192,99747,1,0,0:0:0:0:
256,192,99813,1,2,0:0:0:0:
256,192,99879,1,2,0:0:0:0:
256,192,99945,1,0,0:0:0:0:
256,192,100012,1,2,0:0:0:0:
256,192,100078,1,2,0:0:0:0:
256,192,100144,1,0,0:0:0:0:
256,192,100229,2,0,L|384:192,1,104.999997496605
256,192,101005,1,4,0:0:0:0:
256,192,101800,5,0,0:0:0:0:
256,192,102098,1,0,0:0:0:0:
256,192,102197,1,2,0:0:0:0:
256,192,102396,1,0,0:0:0:0:
256,192,102594,1,2,0:0:0:0:
256,192,102694,1,0,0:0:0:0:
256,192,102793,1,0,0:0:0:0:
256,192,102992,1,0,0:0:0:0:
256,192,103190,1,2,0:0:0:0:
256,192,103389,1,2,0:0:0:0:
256,192,103488,1,2,0:0:0:0:
256,192,103588,1,0,0:0:0:0:
256,192,103786,1,0,0:0:0:0:
256,192,103985,1,2,0:0:0:0:
256,192,104084,1,2,0:0:0:0:
256,192,104184,1,0,0:0:0:0:
256,192,104283,1,0,0:0:0:0:
256,192,104482,1,0,0:0:0:0:
256,192,104581,1,2,0:0:0:0:
256,192,104780,1,2,0:0:0:0:
256,192,104879,1,0,0:0:0:0:
256,192,104978,1,0,0:0:0:0:
256,192,105177,1,0,0:0:0:0:
256,192,105376,1,2,0:0:0:0:
256,192,105475,1,2,0:0:0:0:
256,192,105674,1,2,0:0:0:0:
256,192,105773,1,0,0:0:0:0:
256,192,105972,1,0,0:0:0:0:
256,192,106071,1,0,0:0:0:0:
256,192,106171,1,2,0:0:0:0:
256,192,106369,1,0,0:0:0:0:
256,192,106469,1,2,0:0:0:0:
256,192,106568,1,2,0:0:0:0:
256,192,106667,1,2,0:0:0:0:
256,192,106766,1,0,0:0:0:0:
256,192,106965,1,0,0:0:0:0:
256,192,107164,1,2,0:0:0:0:
256,192,107263,1,2,0:0:0:0:
256,192,107362,1,0,0:0:0:0:
256,192,107561,1,0,0:0:0:0:
256,192,107760,1,2,0:0:0:0:
256,192,108157,1,2,0:0:0:0:
256,192,108356,1,0,0:0:0:0:
256,192,108555,1,2,0:0:0:0:
256,192,108654,1,0,0:0:0:0:
256,192,108853,1,0,0:0:0:0:
256,192,108952,1,2,0:0:0:0:
256,192,109051,1,0,0:0:0:0:
256,192,109250,1,0,0:0:0:0:
256,192,109349,1,2,0:0:0:0:
256,192,109548,1,0,0:0:0:0:
256,192,109747,1,0,0:0:0:0:
256,192,109846,1,0,0:0:0:0:
256,192,109945,1,2,0:0:0:0:
256,192,110045,1,0,0:0:0:0:
256,192,110144,1,0,0:0:0:0:
256,192,110343,1,0,0:0:0:0:
256,192,110541,1,2,0:0:0:0:
256,192,110641,1,0,0:0:0:0:
256,192,110839,1,0,0:0:0:0:
256,192,110939,1,2,0:0:0:0:
256,192,111336,1,2,0:0:0:0:
256,192,111535,1,0,0:0:0:0:
256,192,111733,1,2,0:0:0:0:
256,192,111833,1,2,0:0:0:0:
256,192,112031,1,0,0:0:0:0:
256,192,112131,1,2,0:0:0:0:
256,192,112329,1,0,0:0:0:0:
256,192,112528,1,0,0:0:0:0:
256,192,112727,1,0,0:0:0:0:
256,192,112925,1,2,0:0:0:0:
256,192,113025,1,0,0:0:0:0:
256,192,113124,1,2,0:0:0:0:
256,192,113223,1,0,0:0:0:0:
256,192,113323,1,0,0:0:0:0:
256,192,113521,1,0,0:0:0:0:
256,192,113720,1,2,0:0:0:0:
256,192,113819,1,2,0:0:0:0:
256,192,113919,1,0,0:0:0:0:
256,192,113985,1,0,0:0:0:0:
256,192,114051,1,0,0:0:0:0:
256,192,114117,1,2,0:0:0:0:
256,192,114515,1,0,0:0:0:0:
256,192,114714,1,0,0:0:0:0:
256,192,114912,1,0,0:0:0:0:
256,192,115111,1,0,0:0:0:0:
256,192,115310,1,0,0:0:0:0:
256,192,115409,1,0,0:0:0:0:
256,192,115508,1,0,0:0:0:0:
256,192,115608,1,0,0:0:0:0:
256,192,115707,1,0,0:0:0:0:
256,192,115906,1,0,0:0:0:0:
256,192,116104,1,2,0:0:0:0:
256,192,116204,1,2,0:0:0:0:
256,192,116303,1,0,0:0:0:0:
256,192,116502,1,0,0:0:0:0:
256,192,116700,1,2,0:0:0:0:
256,192,116800,1,2,0:0:0:0:
256,192,116899,1,0,0:0:0:0:
256,192,116998,1,0,0:0:0:0:
256,192,117197,1,0,0:0:0:0:
256,192,117296,1,2,0:0:0:0:
256,192,117396,1,0,0:0:0:0:
256,192,117495,1,2,0:0:0:0:
256,192,117594,1,0,0:0:0:0:
256,192,117694,1,0,0:0:0:0:
256,192,117892,1,0,0:0:0:0:
256,192,118091,1,2,0:0:0:0:
256,192,118190,1,2,0:0:0:0:
256,192,118389,1,2,0:0:0:0:
256,192,118488,1,0,0:0:0:0:
256,192,118687,1,2,0:0:0:0:
256,192,118786,1,0,0:0:0:0:
256,192,118886,1,0,0:0:0:0:
256,192,119084,1,2,0:0:0:0:
256,192,119184,1,0,0:0:0:0:
256,192,119283,1,2,0:0:0:0:
256,192,119382,1,2,0:0:0:0:
256,192,119482,1,0,0:0:0:0:
256,192,119581,1,0,0:0:0:0:
256,192,119680,1,2,0:0:0:0:
256,192,119879,1,2,0:0:0:0:
256,192,119978,1,2,0:0:0:0:
256,192,120078,1,0,0:0:0:0:
256,192,120177,1,0,0:0:0:0:
256,192,120276,1,2,0:0:0:0:
256,192,120475,1,2,0:0:0:0:
256,192,120574,1,2,0:0:0:0:
256,192,120674,1,2,0:0:0:0:
256,192,120773,1,0,0:0:0:0:
256,192,120872,1,2,0:0:0:0:
256,192,121071,1,0,0:0:0:0:
256,192,121270,1,2,0:0:0:0:
256,192,121469,1,0,0:0:0:0:
256,192,121568,1,0,0:0:0:0:
256,192,121667,1,2,0:0:0:0:
256,192,121767,1,0,0:0:0:0:
256,192,121965,1,0,0:0:0:0:
256,192,122065,1,2,0:0:0:0:
256,192,122263,1,0,0:0:0:0:
256,192,122363,1,0,0:0:0:0:
256,192,122462,1,2,0:0:0:0:
256,192,122661,1,0,0:0:0:0:
256,192,122760,1,0,0:0:0:0:
256,192,122859,1,0,0:0:0:0:
256,192,122959,1,2,0:0:0:0:
256,192,123157,1,2,0:0:0:0:
256,192,123257,1,0,0:0:0:0:
256,192,123356,1,0,0:0:0:0:
256,192,123555,1,0,0:0:0:0:
256,192,123654,1,2,0:0:0:0:
256,192,123853,1,2,0:0:0:0:
256,192,123952,1,0,0:0:0:0:
256,192,124051,1,0,0:0:0:0:
256,192,124250,1,0,0:0:0:0:
256,192,124449,1,2,0:0:0:0:
256,192,124548,1,2,0:0:0:0:
256,192,124747,1,2,0:0:0:0:
256,192,124846,1,0,0:0:0:0:
256,192,125045,1,2,0:0:0:0:
256,192,125144,1,0,0:0:0:0:
256,192,125243,1,2,0:0:0:0:
256,192,125343,1,0,0:0:0:0:
256,192,125442,1,2,0:0:0:0:
256,192,125641,1,2,0:0:0:0:
256,192,125740,1,2,0:0:0:0:
256,192,125839,1,0,0:0:0:0:
256,192,125939,1,0,0:0:0:0:
256,192,126038,1,0,0:0:0:0:
256,192,126237,1,2,0:0:0:0:
256,192,126336,1,0,0:0:0:0:
256,192,126435,1,0,0:0:0:0:
256,192,126634,1,2,0:0:0:0:
256,192,126833,1,2,0:0:0:0:
256,192,126932,1,0,0:0:0:0:
256,192,127031,1,2,0:0:0:0:
256,192,127131,1,0,0:0:0:0:
256,192,127230,1,2,0:0:0:0:
256,192,127329,1,0,0:0:0:0:
256,192,127429,1,2,0:0:0:0:
256,192,127495,1,2,0:0:0:0:
256,192,127561,1,2,0:0:0:0:
256,192,127627,1,0,0:0:0:0:
256,192,127727,1,0,0:0:0:0:
256,192,127826,1,0,0:0:0:0:
256,192,128025,1,2,0:0:0:0:
256,192,128124,1,0,0:0:0:0:
256,192,128223,1,2,0:0:0:0:
256,192,128290,1,2,0:0:0:0:
256,192,128356,1,2,0:0:0:0:
256,192,128422,1,0,0:0:0:0:
256,192,128521,1,0,0:0:0:0:
256,192,128621,1,2,0:0:0:0:
256,192,128820,1,6,0:0:0:0:
256,192,128919,1,4,0:0:0:0:
256,192,129018,1,4,0:0:0:0:
256,192,129217,1,4,0:0:0:0:
256,192,129416,1,6,0:0:0:0:
256,192,129515,1,4,0:0:0:0:
256,192,129614,1,4,0:0:0:0:
256,192,129813,1,4,0:0:0:0:
256,192,130012,1,4,0:0:0:0:
256,192,130111,1,4,0:0:0:0:
256,192,130210,1,6,0:0:0:0:
256,192,130310,1,4,0:0:0:0:
256,192,130409,1,2,0:0:0:0:
256,192,130607,1,0,0:0:0:0:
256,192,130806,1,2,0:0:0:0:
256,192,130905,1,0,0:0:0:0:
256,192,131104,1,0,0:0:0:0:
256,192,131203,1,2,0:0:0:0:
256,192,131303,1,0,0:0:0:0:
256,192,131501,1,0,0:0:0:0:
256,192,131601,1,2,0:0:0:0:
256,192,131700,1,0,0:0:0:0:
256,192,131799,1,0,0:0:0:0:
256,192,131899,1,0,0:0:0:0:
256,192,131998,1,2,0:0:0:0:
256,192,132197,1,0,0:0:0:0:
256,192,132396,1,2,0:0:0:0:
256,192,132495,1,0,0:0:0:0:
256,192,132594,1,0,0:0:0:0:
256,192,132694,1,2,0:0:0:0:
256,192,132793,1,2,0:0:0:0:
256,192,132992,1,2,0:0:0:0:
256,192,133190,1,2,0:0:0:0:
256,192,133588,1,2,0:0:0:0:
256,192,133687,1,0,0:0:0:0:
256,192,133786,1,0,0:0:0:0:
256,192,133886,1,0,0:0:0:0:
256,192,133985,1,2,0:0:0:0:
256,192,134084,1,0,0:0:0:0:
256,192,134184,1,0,0:0:0:0:
256,192,134382,1,2,0:0:0:0:
256,192,134482,1,2,0:0:0:0:
256,192,134581,1,0,0:0:0:0:
256,192,134680,1,0,0:0:0:0:
256,192,134780,1,2,0:0:0:0:
256,192,134879,1,0,0:0:0:0:
256,192,134978,1,0,0:0:0:0:
256,192,135177,1,2,0:0:0:0:
256,192,135276,1,2,0:0:0:0:
256,192,135376,1,0,0:0:0:0:
256,192,135574,1,0,0:0:0:0:
256,192,135773,1,2,0:0:0:0:
256,192,135872,1,2,0:0:0:0:
256,192,135972,1,0,0:0:0:0:
256,192,136170,1,0,0:0:0:0:
256,192,136369,1,0,0:0:0:0:
256,192,136468,1,2,0:0:0:0:
256,192,136568,1,2,0:0:0:0:
256,192,136667,1,0,0:0:0:0:
256,192,136766,1,2,0:0:0:0:
256,192,136965,1,0,0:0:0:0:
256,192,137164,1,2,0:0:0:0:
256,192,137263,1,2,0:0:0:0:
256,192,137462,1,2,0:0:0:0:
256,192,137561,1,2,0:0:0:0:
256,192,137760,1,2,0:0:0:0:
256,192,137859,1,0,0:0:0:0:
256,192,137958,1,2,0:0:0:0:
256,192,138058,1,2,0:0:0:0:
256,192,138157,1,2,0:0:0:0:
256,192,138256,1,0,0:0:0:0:
256,192,138356,1,2,0:0:0:0:
256,192,138554,1,0,0:0:0:0:
256,192,138753,1,2,0:0:0:0:
256,192,138852,1,0,0:0:0:0:
256,192,139051,1,2,0:0:0:0:
256,192,139150,1,0,0:0:0:0:
256,192,139250,1,2,0:0:0:0:
256,192,139349,1,0,0:0:0:0:
256,192,139449,1,2,0:0:0:0:
256,192,139548,1,2,0:0:0:0:
256,192,139747,1,0,0:0:0:0:
256,192,139945,1,2,0:0:0:0:
256,192,140045,1,2,0:0:0:0:
256,192,140144,1,2,0:0:0:0:
256,192,140243,1,0,0:0:0:0:
256,192,140343,1,2,0:0:0:0:
256,192,140541,1,0,0:0:0:0:
256,192,140641,1,0,0:0:0:0:
256,192,140740,1,2,0:0:0:0:
256,192,140839,1,2,0:0:0:0:
256,192,140939,1,0,0:0:0:0:
256,192,141137,1,0,0:0:0:0:
256,192,141237,1,2,0:0:0:0:
256,192,141336,1,0,0:0:0:0:
256,192,141435,1,0,0:0:0:0:
256,192,141535,1,2,0:0:0:0:
256,192,141634,1,0,0:0:0:0:
256,192,141733,1,0,0:0:0:0:
256,192,141932,1,0,0:0:0:0:
256,192,142131,1,2,0:0:0:0:
256,192,142230,1,0,0:0:0:0:
256,192,142329,1,0,0:0:0:0:
256,192,142528,1,0,0:0:0:0:
256,192,142727,1,0,0:0:0:0:
256,192,142826,1,2,0:0:0:0:
256,192,142925,1,2,0:0:0:0:
256,192,143025,1,0,0:0:0:0:
256,192,143124,1,2,0:0:0:0:
256,192,143323,1,0,0:0:0:0:
256,192,143521,1,2,0:0:0:0:
256,192,143621,1,0,0:0:0:0:
256,192,143819,1,0,0:0:0:0:
256,192,143919,1,2,0:0:0:0:
256,192,144018,1,2,0:0:0:0:
256,192,144117,1,0,0:0:0:0:
256,192,144217,1,0,0:0:0:0:
256,192,144316,1,2,0:0:0:0:
256,192,144415,1,0,0:0:0:0:
256,192,144515,1,0,0:0:0:0:
256,192,144713,1,2,0:0:0:0:
256,192,144912,1,0,0:0:0:0:
256,192,145111,1,2,0:0:0:0:
256,192,145210,1,0,0:0:0:0:
256,192,145309,1,0,0:0:0:0:
256,192,145409,1,2,0:0:0:0:
256,192,145508,1,2,0:0:0:0:
256,192,145707,1,2,0:0:0:0:
256,192,145905,1,2,0:0:0:0:
256,192,146005,1,0,0:0:0:0:
256,192,146104,1,2,0:0:0:0:
256,192,146203,1,0,0:0:0:0:
256,192,146303,1,2,0:0:0:0:
256,192,146402,1,0,0:0:0:0:
256,192,146501,1,0,0:0:0:0:
256,192,146601,1,0,0:0:0:0:
256,192,146700,1,2,0:0:0:0:
256,192,146799,1,0,0:0:0:0:
256,192,146899,1,0,0:0:0:0:
256,192,147098,1,2,0:0:0:0:
256,192,147197,1,2,0:0:0:0:
256,192,147296,1,0,0:0:0:0:
256,192,147396,1,0,0:0:0:0:
256,192,147495,1,2,0:0:0:0:
256,192,147594,1,0,0:0:0:0:
256,192,147694,1,0,0:0:0:0:
256,192,147892,1,2,0:0:0:0:
256,192,147992,1,2,0:0:0:0:
256,192,148091,1,0,0:0:0:0:
256,192,148290,1,0,0:0:0:0:
256,192,148488,1,2,0:0:0:0:
256,192,148588,1,2,0:0:0:0:
256,192,148687,1,0,0:0:0:0:
256,192,148886,1,0,0:0:0:0:
256,192,149084,1,0,0:0:0:0:
256,192,149184,1,0,0:0:0:0:
256,192,149283,1,2,0:0:0:0:
256,192,149382,1,0,0:0:0:0:
256,192,149482,1,2,0:0:0:0:
256,192,149680,1,0,0:0:0:0:
256,192,149879,1,2,0:0:0:0:
256,192,149978,1,2,0:0:0:0:
256,192,150177,1,2,0:0:0:0:
256,192,150276,1,2,0:0:0:0:
256,192,150376,1,2,0:0:0:0:
256,192,150475,1,0,0:0:0:0:
256,192,150574,1,0,0:0:0:0:
256,192,150674,1,0,0:0:0:0:
256,192,150773,1,2,0:0:0:0:
256,192,150872,1,0,0:0:0:0:
256,192,151071,1,2,0:0:0:0:
256,192,151170,1,2,0:0:0:0:
256,192,151270,1,0,0:0:0:0:
256,192,151369,1,0,0:0:0:0:
256,192,151468,1,0,0:0:0:0:
256,192,151667,1,2,0:0:0:0:
256,192,151766,1,0,0:0:0:0:
256,192,151866,1,0,0:0:0:0:
256,192,152064,1,2,0:0:0:0:
256,192,152164,1,0,0:0:0:0:
256,192,152263,1,0,0:0:0:0:
256,192,152362,1,2,0:0:0:0:
256,192,152462,1,2,0:0:0:0:
256,192,152561,1,0,0:0:0:0:
256,192,152660,1,0,0:0:0:0:
