osu file format v14

[General]
AudioFilename: audio.mp3
AudioLeadIn: 0
PreviewTime: 2299
Countdown: 1
SampleSet: None
StackLeniency: 0.7
Mode: 0
LetterboxInBreaks: 0
WidescreenStoryboard: 1

[Editor]
DistanceSpacing: 0.7
BeatDivisor: 4
GridSize: 8
TimelineZoom: 1.7

[Metadata]
Title:emilia 94%
TitleUnicode:emilia 94%
Artist:ikaNyai
ArtistUnicode:ikaNyai
Creator:ikaNyai
Version:ok lets do this
Source:
Tags:emilia 94%
BeatmapID:1447964
BeatmapSetID:644392

[Difficulty]
HPDrainRate:4
CircleSize:4
OverallDifficulty:8
ApproachRate:10
SliderMultiplier:2.9
SliderTickRate:1

[Events]
//Background and Video events
0,0,"94.jpg",0,0
//Break Periods
//Storyboard Layer 0 (Background)
//Storyboard Layer 1 (Fail)
//Storyboard Layer 2 (Pass)
//Storyboard Layer 3 (Foreground)
//Storyboard Sound Samples

[TimingPoints]
424,234.375,4,1,0,100,1,0
1361,-133.333333333333,4,1,0,100,0,0
30424,-133.333333333333,4,1,0,100,0,0
31361,-66.6666666666667,4,1,0,100,0,0
34877,-133.333333333333,4,1,0,100,0,0
51283,-200,4,1,0,100,0,0
51693,-133.333333333333,4,1,0,100,0,0
79460,234.375,4,1,0,100,1,0
79460,-133.333333333333,4,1,0,100,0,0
93053,-100,4,1,0,100,0,0
94225,-66.6666666666667,4,1,0,100,0,0
95397,-133.333333333333,4,1,0,100,0,0
108053,-100,4,1,0,100,0,0
108522,-66.6666666666667,4,1,0,100,0,0
108991,-56.8181818181818,4,1,0,100,0,0

[HitObjects]
86,173,1361,5,0,0:0:0:0:
138,255,1595,1,0,0:0:0:0:
331,104,1830,1,0,0:0:0:0:
186,170,1947,1,0,0:0:0:0:
416,146,2299,6,0,P|420:77|388:19,1,108.750004148483
186,170,2533,1,0,0:0:0:0:
312,217,2650,1,0,0:0:0:0:
170,52,2767,2,0,P|119:76|83:127,1,108.750004148483
211,295,3002,1,0,0:0:0:0:
297,56,3119,1,0,0:0:0:0:
417,296,3236,6,0,L|459:170,1,108.750004148483
312,217,3470,2,0,P|330:291|323:354,1,108.750004148483
95,296,3705,2,0,L|53:170,1,108.750004148483
216,188,3939,2,0,P|204:255|227:330,1,108.750004148483
451,192,4174,5,0,0:0:0:0:
291,126,4291,1,0,0:0:0:0:
495,99,4408,2,0,L|369:117,1,108.750004148483
61,192,4642,1,0,0:0:0:0:
221,126,4759,1,0,0:0:0:0:
17,99,4876,2,0,L|124:114,1,108.750004148483
254,304,5111,5,0,0:0:0:0:
256,28,5228,1,0,0:0:0:0:
256,28,5463,1,0,0:0:0:0:
254,304,5580,1,0,0:0:0:0:
427,28,5814,1,0,0:0:0:0:
165,229,6049,6,0,P|144:298|150:355,1,108.750004148483
81,121,6283,2,0,L|59:249,1,108.750004148483
347,229,6517,2,0,P|368:298|362:355,1,108.750004148483
431,121,6751,2,0,L|453:249,1,108.750004148483
188,149,6986,6,0,P|247:111|340:184,1,163.125006222725
257,215,7220,1,0,0:0:0:0:
255,19,7338,1,0,0:0:0:0:
254,302,7455,2,0,P|322:275|342:226,1,108.750004148483
153,56,7689,2,0,P|106:99|92:148,1,108.750004148483
337,329,7924,6,0,P|405:302|425:253,1,108.750004148483
60,54,8158,2,0,P|13:97|-1:146,1,108.750004148483
163,276,8392,2,0,L|250:176,1,108.750004148483
366,75,8627,2,0,L|352:183,1,108.750004148483
258,91,8861,5,0,0:0:0:0:
467,99,8978,1,0,0:0:0:0:
234,193,9095,1,0,0:0:0:0:
303,8,9213,1,0,0:0:0:0:
305,264,9330,1,0,0:0:0:0:
152,116,9447,1,0,0:0:0:0:
366,75,9564,1,0,0:0:0:0:
163,276,9681,1,0,0:0:0:0:
58,110,9799,6,0,P|84:53|150:25,1,108.750004148483
296,140,10033,2,0,L|305:266,1,108.750004148483
152,116,10267,2,0,P|213:74|281:70,1,108.750004148483
408,266,10502,2,0,L|382:383,1,108.750004148483
445,126,10736,5,0,0:0:0:0:
303,248,10853,1,0,0:0:0:0:
245,67,10970,1,0,0:0:0:0:
499,215,11205,5,0,0:0:0:0:
68,229,11322,1,0,0:0:0:0:
330,140,11439,1,0,0:0:0:0:
163,16,11674,6,0,P|151:76|172:136,1,108.750004148483
241,197,11908,1,0,0:0:0:0:
432,100,12142,2,0,P|444:160|423:220,1,108.750004148483
354,281,12376,1,0,0:0:0:0:
354,281,12494,1,0,0:0:0:0:
215,110,12611,6,0,P|167:148|215:291,1,217.500008296967
309,112,13080,2,0,P|276:44|130:69,1,217.500008296967
49,185,13549,5,0,0:0:0:0:
241,197,13666,1,0,0:0:0:0:
235,205,13900,5,0,0:0:0:0:
35,312,14017,1,0,0:0:0:0:
47,314,14252,5,0,0:0:0:0:
246,361,14369,1,0,0:0:0:0:
152,196,14486,2,0,P|199:134|317:188,1,217.500008296967
141,286,14838,1,0,0:0:0:0:
212,48,14955,1,0,0:0:0:0:
235,205,15072,1,0,0:0:0:0:
82,139,15189,1,0,0:0:0:0:
310,76,15306,1,0,0:0:0:0:
99,40,15424,6,0,P|20:59|-7:99,1,108.750004148483
141,286,15658,1,0,0:0:0:0:
212,48,15775,1,0,0:0:0:0:
331,239,15892,2,0,P|285:288|234:301,1,108.750004148483
401,326,16127,1,0,0:0:0:0:
235,205,16244,1,0,0:0:0:0:
316,356,16361,5,0,0:0:0:0:
447,237,16478,1,0,0:0:0:0:
246,300,16595,1,0,0:0:0:0:
351,86,16713,1,0,0:0:0:0:
401,326,16830,1,0,0:0:0:0:
249,106,16947,1,0,0:0:0:0:
447,237,17064,1,0,0:0:0:0:
141,286,17181,1,0,0:0:0:0:
444,135,17299,6,0,P|451:65|427:8,1,108.750004148483
249,106,17533,2,0,L|233:223,1,108.750004148483
62,135,17767,2,0,P|55:65|79:8,1,108.750004148483
249,106,18001,2,0,L|265:223,1,108.750004148483
288,351,18236,5,0,0:0:0:0:
351,86,18353,1,0,0:0:0:0:
146,97,18470,2,0,P|181:33|236:8,1,108.750004148483
363,272,18705,2,0,L|272:367,1,108.750004148483
133,199,18939,2,0,P|202:177|235:143,1,108.750004148483
66,29,19174,5,0,0:0:0:0:
143,320,19291,1,0,0:0:0:0:
318,180,19408,2,0,P|307:114|269:74,1,108.750004148483
287,350,19642,1,0,0:0:0:0:
414,132,19759,2,0,P|423:203|398:247,1,108.750004148483
227,153,19994,1,0,0:0:0:0:
383,30,20111,5,0,0:0:0:0:
270,261,20228,1,0,0:0:0:0:
484,59,20345,2,0,P|508:120|504:176,1,108.750004148483
