osu file format v14

[General]
AudioFilename: audio.mp3
AudioLeadIn: 0
PreviewTime: -1
Countdown: 1
SampleSet: Normal
StackLeniency: 0.7
Mode: 1
LetterboxInBreaks: 0
WidescreenStoryboard: 0

[Editor]
DistanceSpacing: 0.8
BeatDivisor: 4
GridSize: 8
TimelineZoom: 1

[Metadata]
Title:iakesnihS
TitleUnicode:iakesnihS
Artist:ihsiarihS
ArtistUnicode:ihsiarihS
Creator:magnomizer
Version:okiaT
Source:
Tags:
BeatmapID:1261100
BeatmapSetID:596395

[Difficulty]
HPDrainRate:5
CircleSize:6
OverallDifficulty:5
ApproachRate:9
SliderMultiplier:1.4
SliderTickRate:1

[Events]
//Background and Video events
0,0,"146214573933338.jpg",0,0
//Break Periods
//Storyboard Layer 0 (Background)
//Storyboard Layer 1 (Fail)
//Storyboard Layer 2 (Pass)
//Storyboard Layer 3 (Foreground)
//Storyboard Sound Samples

[TimingPoints]
470,310.880829015544,4,1,0,100,1,0
1558,-100,4,1,0,100,0,1
37775,-100,4,1,0,100,0,0
85495,-111.111111111111,4,1,0,100,0,0
85962,-120.481927710843,4,1,0,100,0,0
87516,-133.333333333333,4,1,0,100,0,0

[HitObjects]
256,192,1558,12,0,5444,0:0:0:0:
256,192,5599,5,4,0:0:0:0:
256,192,5754,1,4,0:0:0:0:
256,192,5910,1,4,0:0:0:0:
256,192,6065,1,4,0:0:0:0:
256,192,6221,1,4,0:0:0:0:
256,192,6376,1,4,0:0:0:0:
256,192,6532,1,4,0:0:0:0:
256,192,6687,5,4,0:0:0:0:
256,192,6998,5,4,0:0:0:0:
256,192,7309,5,4,0:0:0:0:
256,192,7620,5,4,0:0:0:0:
256,192,7931,5,8,0:0:0:0:
256,192,8008,5,8,0:0:0:0:
256,192,8086,5,0,0:0:0:0:
256,192,8164,5,0,0:0:0:0:
256,192,8242,5,8,0:0:0:0:
256,192,8319,5,8,0:0:0:0:
256,192,8397,5,0,0:0:0:0:
256,192,8475,5,0,0:0:0:0:
256,192,8552,5,0,0:0:0:0:
256,192,8630,5,8,0:0:0:0:
256,192,8708,5,0,0:0:0:0:
256,192,8786,5,8,0:0:0:0:
256,192,8863,5,0,0:0:0:0:
256,192,8941,5,8,0:0:0:0:
256,192,9019,5,0,0:0:0:0:
256,192,9096,5,8,0:0:0:0:
256,192,9174,5,0,0:0:0:0:
256,192,9252,5,8,0:0:0:0:
256,192,9330,5,0,0:0:0:0:
256,192,9407,5,8,0:0:0:0:
256,192,9485,5,8,0:0:0:0:
256,192,9563,5,8,0:0:0:0:
256,192,9640,5,8,0:0:0:0:
256,192,9718,5,0,0:0:0:0:
256,192,9796,5,8,0:0:0:0:
256,192,9874,5,8,0:0:0:0:
256,192,9951,5,0,0:0:0:0:
256,192,10029,5,8,0:0:0:0:
256,192,10107,5,0,0:0:0:0:
256,192,10185,5,8,0:0:0:0:
256,192,10262,5,8,0:0:0:0:
256,192,10340,5,8,0:0:0:0:
256,192,10418,5,0,0:0:0:0:
256,192,10495,5,8,0:0:0:0:
256,192,10573,5,8,0:0:0:0:
256,192,10651,5,0,0:0:0:0:
256,192,10729,5,8,0:0:0:0:
256,192,10806,5,8,0:0:0:0:
256,192,10884,5,8,0:0:0:0:
256,192,10962,5,0,0:0:0:0:
256,192,11039,5,8,0:0:0:0:
256,192,11117,5,8,0:0:0:0:
256,192,11195,5,0,0:0:0:0:
256,192,11273,5,8,0:0:0:0:
256,192,11350,5,0,0:0:0:0:
256,192,11428,5,0,0:0:0:0:
256,192,11506,5,0,0:0:0:0:
256,192,11583,5,0,0:0:0:0:
256,192,11661,5,0,0:0:0:0:
256,192,11739,5,0,0:0:0:0:
256,192,11817,5,8,0:0:0:0:
256,192,11894,5,0,0:0:0:0:
256,192,11972,5,8,0:0:0:0:
256,192,12050,5,0,0:0:0:0:
256,192,12128,5,8,0:0:0:0:
256,192,12205,5,0,0:0:0:0:
256,192,12283,5,8,0:0:0:0:
256,192,12361,5,8,0:0:0:0:
256,192,12438,1,8,0:0:0:0:
256,192,12516,5,8,0:0:0:0:
256,192,12594,5,0,0:0:0:0:
256,192,12672,5,8,0:0:0:0:
256,192,12749,5,8,0:0:0:0:
256,192,12827,5,8,0:0:0:0:
256,192,12905,5,0,0:0:0:0:
256,192,12982,5,0,0:0:0:0:
256,192,13060,5,8,0:0:0:0:
256,192,13138,5,0,0:0:0:0:
256,192,13216,5,8,0:0:0:0:
256,192,13293,5,8,0:0:0:0:
256,192,13371,5,0,0:0:0:0:
256,192,13449,5,8,0:0:0:0:
256,192,13526,5,0,0:0:0:0:
256,192,13604,5,0,0:0:0:0:
256,192,13682,5,0,0:0:0:0:
256,192,13760,5,0,0:0:0:0:
256,192,13837,5,0,0:0:0:0:
256,192,13915,5,0,0:0:0:0:
256,192,13993,5,0,0:0:0:0:
256,192,14071,5,8,0:0:0:0:
256,192,14148,5,8,0:0:0:0:
256,192,14226,5,0,0:0:0:0:
256,192,14304,5,8,0:0:0:0:
256,192,14381,5,8,0:0:0:0:
256,192,14459,5,0,0:0:0:0:
256,192,14537,5,8,0:0:0:0:
256,192,14615,5,0,0:0:0:0:
256,192,14692,5,8,0:0:0:0:
256,192,14770,5,8,0:0:0:0:
256,192,14848,5,8,0:0:0:0:
256,192,14925,5,0,0:0:0:0:
256,192,15003,5,8,0:0:0:0:
256,192,15081,5,8,0:0:0:0:
256,192,15159,5,8,0:0:0:0:
256,192,15236,5,0,0:0:0:0:
256,192,15314,5,8,0:0:0:0:
256,192,15392,5,8,0:0:0:0:
256,192,15469,5,8,0:0:0:0:
256,192,15547,5,8,0:0:0:0:
256,192,15625,5,8,0:0:0:0:
256,192,15703,5,0,0:0:0:0:
256,192,15780,5,0,0:0:0:0:
256,192,15858,5,0,0:0:0:0:
256,192,15936,5,0,0:0:0:0:
256,192,16014,5,0,0:0:0:0:
256,192,16091,5,0,0:0:0:0:
256,192,16169,5,8,0:0:0:0:
256,192,16247,5,0,0:0:0:0:
256,192,16324,5,0,0:0:0:0:
256,192,16402,5,0,0:0:0:0:
256,192,16480,5,0,0:0:0:0:
256,192,16558,5,0,0:0:0:0:
256,192,16635,5,0,0:0:0:0:
256,192,16713,5,8,0:0:0:0:
256,192,16791,5,0,0:0:0:0:
256,192,16868,5,0,0:0:0:0:
256,192,16946,5,0,0:0:0:0:
256,192,17024,5,0,0:0:0:0:
256,192,17102,5,0,0:0:0:0:
256,192,17179,5,0,0:0:0:0:
256,192,17257,5,8,0:0:0:0:
256,192,17335,5,0,0:0:0:0:
256,192,17413,5,0,0:0:0:0:
256,192,17490,5,0,0:0:0:0:
256,192,17568,1,0,0:0:0:0:
256,192,17646,5,0,0:0:0:0:
256,192,17723,5,0,0:0:0:0:
256,192,17801,5,0,0:0:0:0:
256,192,17879,5,0,0:0:0:0:
256,192,18034,5,8,0:0:0:0:
256,192,18190,5,8,0:0:0:0:
256,192,18345,5,8,0:0:0:0:
256,192,18501,5,0,0:0:0:0:
256,192,18656,5,8,0:0:0:0:
256,192,18811,5,8,0:0:0:0:
256,192,18967,5,8,0:0:0:0:
256,192,19122,5,0,0:0:0:0:
256,192,19433,5,4,0:0:0:0:
256,192,19744,5,4,0:0:0:0:
256,192,20055,5,4,0:0:0:0:
256,192,20366,5,4,0:0:0:0:
256,192,20677,12,4,20988,0:0:0:0:
256,192,21299,12,0,21610,0:0:0:0:
256,192,21920,12,0,22231,0:0:0:0:
256,192,22542,12,0,22853,0:0:0:0:
256,192,22931,5,0,0:0:0:0:
256,192,23008,5,8,0:0:0:0:
256,192,23086,5,8,0:0:0:0:
256,192,23164,5,8,0:0:0:0:
256,192,23242,5,8,0:0:0:0:
256,192,23319,5,0,0:0:0:0:
256,192,23397,5,8,0:0:0:0:
256,192,23475,1,8,0:0:0:0:
256,192,23552,5,8,0:0:0:0:
256,192,23630,5,0,0:0:0:0:
256,192,23708,5,0,0:0:0:0:
256,192,23786,5,8,0:0:0:0:
256,192,23863,5,0,0:0:0:0:
256,192,23941,5,8,0:0:0:0:
256,192,24019,5,8,0:0:0:0:
256,192,24096,5,0,0:0:0:0:
256,192,24174,5,8,0:0:0:0:
256,192,24252,5,0,0:0:0:0:
256,192,24330,5,8,0:0:0:0:
256,192,24407,5,0,0:0:0:0:
256,192,24485,5,8,0:0:0:0:
256,192,24563,5,8,0:0:0:0:
256,192,24640,5,8,0:0:0:0:
256,192,24718,5,0,0:0:0:0:
256,192,24796,5,8,0:0:0:0:
256,192,24874,5,0,0:0:0:0:
256,192,24951,5,8,0:0:0:0:
256,192,25029,5,8,0:0:0:0:
256,192,25107,5,8,0:0:0:0:
256,192,25185,5,0,0:0:0:0:
256,192,25262,5,8,0:0:0:0:
256,192,25340,5,0,0:0:0:0:
256,192,25418,5,8,0:0:0:0:
256,192,25495,5,0,0:0:0:0:
256,192,25573,5,8,0:0:0:0:
256,192,25651,5,0,0:0:0:0:
256,192,25729,5,8,0:0:0:0:
256,192,25806,5,0,0:0:0:0:
256,192,25884,5,8,0:0:0:0:
256,192,25962,5,0,0:0:0:0:
256,192,26039,5,8,0:0:0:0:
256,192,26117,5,0,0:0:0:0:
256,192,26195,5,8,0:0:0:0:
256,192,26273,5,0,0:0:0:0:
256,192,26350,5,8,0:0:0:0:
256,192,26428,5,8,0:0:0:0:
256,192,26506,5,8,0:0:0:0:
256,192,26583,5,0,0:0:0:0:
256,192,26661,5,8,0:0:0:0:
256,192,26739,5,8,0:0:0:0:
256,192,26817,5,8,0:0:0:0:
256,192,26894,5,0,0:0:0:0:
256,192,26972,5,8,0:0:0:0:
256,192,27050,5,8,0:0:0:0:
256,192,27128,5,8,0:0:0:0:
256,192,27205,5,0,0:0:0:0:
256,192,27283,5,8,0:0:0:0:
256,192,27361,5,8,0:0:0:0:
256,192,27438,5,8,0:0:0:0:
256,192,27516,5,0,0:0:0:0:
256,192,27594,5,8,0:0:0:0:
256,192,27672,5,8,0:0:0:0:
256,192,27749,5,8,0:0:0:0:
256,192,27827,5,0,0:0:0:0:
256,192,27905,5,8,0:0:0:0:
256,192,27982,5,8,0:0:0:0:
256,192,28060,5,0,0:0:0:0:
256,192,28138,5,8,0:0:0:0:
256,192,28216,5,8,0:0:0:0:
256,192,28293,5,8,0:0:0:0:
256,192,28371,5,0,0:0:0:0:
256,192,28449,5,0,0:0:0:0:
256,192,28526,5,0,0:0:0:0:
256,192,28604,5,0,0:0:0:0:
256,192,28682,5,0,0:0:0:0:
256,192,28760,5,8,0:0:0:0:
256,192,28837,5,0,0:0:0:0:
256,192,28915,5,0,0:0:0:0:
256,192,28993,5,0,0:0:0:0:
256,192,29071,5,8,0:0:0:0:
256,192,29148,5,8,0:0:0:0:
256,192,29226,5,0,0:0:0:0:
256,192,29304,5,8,0:0:0:0:
256,192,29381,5,0,0:0:0:0:
256,192,29459,5,8,0:0:0:0:
256,192,29537,5,8,0:0:0:0:
256,192,29615,5,8,0:0:0:0:
256,192,29692,5,0,0:0:0:0:
256,192,29770,5,0,0:0:0:0:
256,192,29848,5,8,0:0:0:0:
256,192,29925,5,0,0:0:0:0:
256,192,30003,5,8,0:0:0:0:
256,192,30081,5,8,0:0:0:0:
256,192,30159,5,0,0:0:0:0:
256,192,30236,5,8,0:0:0:0:
256,192,30314,5,8,0:0:0:0:
256,192,30392,5,0,0:0:0:0:
256,192,30469,1,8,0:0:0:0:
256,192,30547,1,0,0:0:0:0:
256,192,30625,1,8,0:0:0:0:
256,192,30703,1,0,0:0:0:0:
256,192,30780,1,0,0:0:0:0:
256,192,30858,1,0,0:0:0:0:
256,192,30936,1,8,0:0:0:0:
256,192,31014,5,0,0:0:0:0:
256,192,31091,1,8,0:0:0:0:
256,192,31169,5,0,0:0:0:0:
256,192,31247,5,8,0:0:0:0:
256,192,31324,5,8,0:0:0:0:
256,192,31402,5,0,0:0:0:0:
256,192,31480,5,8,0:0:0:0:
256,192,31558,5,0,0:0:0:0:
256,192,31635,5,0,0:0:0:0:
256,192,31713,5,0,0:0:0:0:
256,192,31791,5,8,0:0:0:0:
256,192,31868,5,0,0:0:0:0:
256,192,31946,5,8,0:0:0:0:
256,192,32024,5,0,0:0:0:0:
256,192,32102,5,0,0:0:0:0:
256,192,32179,5,0,0:0:0:0:
256,192,32257,5,8,0:0:0:0:
256,192,32335,5,0,0:0:0:0:
256,192,32413,5,8,0:0:0:0:
256,192,32490,5,8,0:0:0:0:
256,192,32568,5,8,0:0:0:0:
256,192,32646,5,8,0:0:0:0:
256,192,32723,5,0,0:0:0:0:
256,192,32801,5,8,0:0:0:0:
256,192,32879,5,8,0:0:0:0:
256,192,32957,5,0,0:0:0:0:
256,192,33034,5,8,0:0:0:0:
256,192,33112,5,0,0:0:0:0:
256,192,33190,5,0,0:0:0:0:
256,192,33267,5,8,0:0:0:0:
256,192,33345,5,0,0:0:0:0:
256,192,33423,5,0,0:0:0:0:
256,192,33501,5,8,0:0:0:0:
256,192,33578,5,0,0:0:0:0:
256,192,33656,5,8,0:0:0:0:
256,192,33734,5,8,0:0:0:0:
256,192,33811,5,0,0:0:0:0:
256,192,33889,5,8,0:0:0:0:
256,192,33967,5,8,0:0:0:0:
256,192,34045,5,0,0:0:0:0:
256,192,34122,5,8,0:0:0:0:
256,192,34200,5,0,0:0:0:0:
256,192,34278,5,8,0:0:0:0:
256,192,34356,5,8,0:0:0:0:
256,192,34433,5,8,0:0:0:0:
256,192,34511,5,8,0:0:0:0:
256,192,34589,5,8,0:0:0:0:
256,192,34666,5,0,0:0:0:0:
256,192,34744,5,8,0:0:0:0:
256,192,34822,5,8,0:0:0:0:
256,192,34900,5,0,0:0:0:0:
256,192,34977,5,8,0:0:0:0:
256,192,35055,5,8,0:0:0:0:
256,192,35133,5,8,0:0:0:0:
256,192,35210,5,8,0:0:0:0:
256,192,35288,5,0,0:0:0:0:
256,192,35366,5,8,0:0:0:0:
256,192,35444,5,8,0:0:0:0:
256,192,35521,5,0,0:0:0:0:
256,192,35599,5,8,0:0:0:0:
256,192,35677,5,0,0:0:0:0:
256,192,35754,5,0,0:0:0:0:
256,192,35832,5,0,0:0:0:0:
256,192,35910,5,8,0:0:0:0:
256,192,35988,5,0,0:0:0:0:
256,192,36065,5,8,0:0:0:0:
256,192,36143,5,0,0:0:0:0:
256,192,36221,5,0,0:0:0:0:
256,192,36299,5,8,0:0:0:0:
256,192,36376,5,0,0:0:0:0:
256,192,36454,5,8,0:0:0:0:
256,192,36532,5,0,0:0:0:0:
256,192,36609,5,0,0:0:0:0:
256,192,36687,5,0,0:0:0:0:
256,192,36765,5,0,0:0:0:0:
256,192,36843,5,8,0:0:0:0:
256,192,36920,5,8,0:0:0:0:
256,192,36998,5,8,0:0:0:0:
256,192,37076,5,0,0:0:0:0:
256,192,37153,5,8,0:0:0:0:
256,192,37231,5,0,0:0:0:0:
256,192,37309,5,0,0:0:0:0:
256,192,37387,5,8,0:0:0:0:
256,192,37464,5,0,0:0:0:0:
256,192,37542,5,8,0:0:0:0:
256,192,37620,5,0,0:0:0:0:
256,192,37697,5,8,0:0:0:0:
256,192,37775,5,0,0:0:0:0:
256,192,37853,5,8,0:0:0:0:
256,192,37931,5,8,0:0:0:0:
256,192,38008,5,8,0:0:0:0:
256,192,38086,5,8,0:0:0:0:
256,192,38164,5,8,0:0:0:0:
256,192,38242,5,0,0:0:0:0:
256,192,38319,5,0,0:0:0:0:
256,192,38397,5,0,0:0:0:0:
256,192,38475,5,0,0:0:0:0:
256,192,38552,5,8,0:0:0:0:
256,192,38630,5,0,0:0:0:0:
256,192,38708,5,0,0:0:0:0:
256,192,38786,5,0,0:0:0:0:
256,192,38863,5,0,0:0:0:0:
256,192,38941,5,0,0:0:0:0:
256,192,39019,5,8,0:0:0:0:
256,192,39096,5,0,0:0:0:0:
256,192,39174,5,0,0:0:0:0:
256,192,39252,5,0,0:0:0:0:
256,192,39330,5,0,0:0:0:0:
256,192,39407,5,0,0:0:0:0:
256,192,39485,5,0,0:0:0:0:
256,192,39563,5,8,0:0:0:0:
256,192,39640,5,8,0:0:0:0:
256,192,39718,5,0,0:0:0:0:
256,192,39796,5,8,0:0:0:0:
256,192,39874,5,0,0:0:0:0:
256,192,39951,5,8,0:0:0:0:
256,192,40029,5,0,0:0:0:0:
256,192,40107,5,8,0:0:0:0:
256,192,40185,5,0,0:0:0:0:
256,192,40262,5,0,0:0:0:0:
256,192,40340,5,0,0:0:0:0:
256,192,40418,5,0,0:0:0:0:
256,192,40495,5,8,0:0:0:0:
256,192,40573,5,8,0:0:0:0:
256,192,40651,5,0,0:0:0:0:
256,192,40729,5,0,0:0:0:0:
256,192,40806,5,8,0:0:0:0:
256,192,40884,5,8,0:0:0:0:
256,192,40962,5,0,0:0:0:0:
256,192,41039,5,0,0:0:0:0:
256,192,41117,5,0,0:0:0:0:
256,192,41195,5,0,0:0:0:0:
256,192,41273,5,8,0:0:0:0:
256,192,41350,5,8,0:0:0:0:
256,192,41428,5,8,0:0:0:0:
256,192,41506,5,0,0:0:0:0:
256,192,41583,5,8,0:0:0:0:
256,192,41661,5,8,0:0:0:0:
256,192,41739,5,8,0:0:0:0:
256,192,41817,5,0,0:0:0:0:
256,192,41894,5,8,0:0:0:0:
256,192,41972,5,8,0:0:0:0:
256,192,42050,5,8,0:0:0:0:
256,192,42128,5,0,0:0:0:0:
256,192,42205,5,8,0:0:0:0:
256,192,42283,5,8,0:0:0:0:
256,192,42361,5,8,0:0:0:0:
256,192,42438,5,0,0:0:0:0:
256,192,42516,5,8,0:0:0:0:
256,192,42594,5,0,0:0:0:0:
256,192,42672,5,0,0:0:0:0:
256,192,42749,5,0,0:0:0:0:
256,192,42827,5,0,0:0:0:0:
256,192,42905,5,8,0:0:0:0:
256,192,42982,5,8,0:0:0:0:
256,192,43060,5,8,0:0:0:0:
256,192,43138,5,8,0:0:0:0:
256,192,43216,5,8,0:0:0:0:
256,192,43293,5,8,0:0:0:0:
256,192,43371,5,0,0:0:0:0:
256,192,43449,5,8,0:0:0:0:
256,192,43526,5,8,0:0:0:0:
256,192,43604,5,0,0:0:0:0:
256,192,43682,5,8,0:0:0:0:
256,192,43760,5,8,0:0:0:0:
256,192,43837,5,0,0:0:0:0:
256,192,43915,5,0,0:0:0:0:
256,192,43993,5,8,0:0:0:0:
256,192,44071,5,8,0:0:0:0:
256,192,44148,5,8,0:0:0:0:
256,192,44226,5,0,0:0:0:0:
256,192,44304,5,8,0:0:0:0:
256,192,44381,5,8,0:0:0:0:
256,192,44459,5,0,0:0:0:0:
256,192,44537,5,8,0:0:0:0:
256,192,44615,5,0,0:0:0:0:
256,192,44692,5,8,0:0:0:0:
256,192,44770,5,8,0:0:0:0:
256,192,44848,5,0,0:0:0:0:
256,192,44925,5,8,0:0:0:0:
256,192,45003,5,0,0:0:0:0:
256,192,45081,5,0,0:0:0:0:
256,192,45159,5,8,0:0:0:0:
256,192,45236,5,8,0:0:0:0:
256,192,45314,5,0,0:0:0:0:
256,192,45392,5,0,0:0:0:0:
256,192,45470,5,0,0:0:0:0:
256,192,45547,5,8,0:0:0:0:
256,192,45625,5,0,0:0:0:0:
256,192,45703,5,8,0:0:0:0:
256,192,45780,5,0,0:0:0:0:
256,192,45858,5,8,0:0:0:0:
256,192,45936,5,8,0:0:0:0:
256,192,46014,5,0,0:0:0:0:
256,192,46091,5,8,0:0:0:0:
256,192,46169,5,8,0:0:0:0:
256,192,46247,5,0,0:0:0:0:
256,192,46324,5,8,0:0:0:0:
256,192,46402,5,0,0:0:0:0:
256,192,46480,5,0,0:0:0:0:
256,192,46558,5,0,0:0:0:0:
256,192,46635,5,8,0:0:0:0:
256,192,46713,5,0,0:0:0:0:
256,192,46791,5,8,0:0:0:0:
256,192,46868,5,0,0:0:0:0:
256,192,46946,5,0,0:0:0:0:
256,192,47024,5,0,0:0:0:0:
256,192,47102,5,8,0:0:0:0:
256,192,47179,5,0,0:0:0:0:
256,192,47257,5,0,0:0:0:0:
256,192,47335,5,8,0:0:0:0:
256,192,47413,5,8,0:0:0:0:
256,192,47490,5,0,0:0:0:0:
256,192,47568,5,0,0:0:0:0:
256,192,47646,5,8,0:0:0:0:
256,192,47723,5,8,0:0:0:0:
256,192,47879,5,12,0:0:0:0:
256,192,48034,5,12,0:0:0:0:
256,192,48190,5,12,0:0:0:0:
256,192,48345,5,4,0:0:0:0:
256,192,48501,5,12,0:0:0:0:
256,192,48656,5,12,0:0:0:0:
256,192,48811,5,12,0:0:0:0:
256,192,48967,5,4,0:0:0:0:
256,192,49278,5,0,0:0:0:0:
256,192,49589,5,0,0:0:0:0:
256,192,49900,5,0,0:0:0:0:
256,192,50210,5,0,0:0:0:0:
256,192,50366,5,8,0:0:0:0:
256,192,50521,5,8,0:0:0:0:
256,192,50599,1,8,0:0:0:0:
256,192,50832,5,0,0:0:0:0:
256,192,50988,5,8,0:0:0:0:
256,192,51143,5,8,0:0:0:0:
256,192,51221,1,8,0:0:0:0:
256,192,51454,5,0,0:0:0:0:
256,192,51609,5,8,0:0:0:0:
256,192,51765,5,8,0:0:0:0:
256,192,51843,5,8,0:0:0:0:
256,192,52076,5,0,0:0:0:0:
256,192,52231,5,8,0:0:0:0:
256,192,52387,5,8,0:0:0:0:
256,192,52464,5,8,0:0:0:0:
256,192,52697,5,0,0:0:0:0:
256,192,52853,5,8,0:0:0:0:
256,192,53008,5,8,0:0:0:0:
256,192,53086,5,8,0:0:0:0:
256,192,53319,5,0,0:0:0:0:
256,192,53475,5,8,0:0:0:0:
256,192,53630,5,8,0:0:0:0:
256,192,53708,5,8,0:0:0:0:
256,192,53941,5,4,0:0:0:0:
256,192,54252,5,0,0:0:0:0:
256,192,54563,5,0,0:0:0:0:
256,192,54874,5,0,0:0:0:0:
256,192,55185,5,0,0:0:0:0:
256,192,55263,5,0,0:0:0:0:
256,192,55340,5,0,0:0:0:0:
256,192,55418,5,8,0:0:0:0:
256,192,55495,1,8,0:0:0:0:
256,192,55573,5,0,0:0:0:0:
256,192,55651,5,0,0:0:0:0:
256,192,55728,5,0,0:0:0:0:
256,192,55806,5,8,0:0:0:0:
256,192,55884,5,0,0:0:0:0:
256,192,55962,5,0,0:0:0:0:
256,192,56039,5,0,0:0:0:0:
256,192,56117,5,8,0:0:0:0:
256,192,56195,5,0,0:0:0:0:
256,192,56273,5,0,0:0:0:0:
256,192,56350,5,0,0:0:0:0:
256,192,56428,5,8,0:0:0:0:
256,192,56583,5,8,0:0:0:0:
256,192,56739,5,8,0:0:0:0:
256,192,56817,5,8,0:0:0:0:
256,192,56894,5,8,0:0:0:0:
256,192,57050,5,8,0:0:0:0:
256,192,57128,5,0,0:0:0:0:
256,192,57205,5,8,0:0:0:0:
256,192,57283,5,0,0:0:0:0:
256,192,57361,5,0,0:0:0:0:
256,192,57438,5,8,0:0:0:0:
256,192,57594,5,8,0:0:0:0:
256,192,57672,5,0,0:0:0:0:
256,192,57827,5,0,0:0:0:0:
256,192,57905,5,0,0:0:0:0:
256,192,57982,5,0,0:0:0:0:
256,192,58060,5,8,0:0:0:0:
256,192,58216,5,8,0:0:0:0:
256,192,58293,5,0,0:0:0:0:
256,192,58449,5,8,0:0:0:0:
256,192,58526,5,0,0:0:0:0:
256,192,58604,5,0,0:0:0:0:
256,192,58760,5,0,0:0:0:0:
256,192,58837,5,8,0:0:0:0:
256,192,58915,5,8,0:0:0:0:
256,192,59071,5,0,0:0:0:0:
256,192,59226,5,0,0:0:0:0:
256,192,59304,5,8,0:0:0:0:
256,192,59459,5,8,0:0:0:0:
256,192,59537,5,0,0:0:0:0:
256,192,59692,5,8,0:0:0:0:
256,192,59848,5,0,0:0:0:0:
256,192,59925,5,8,0:0:0:0:
256,192,60003,5,8,0:0:0:0:
256,192,60159,5,0,0:0:0:0:
256,192,60236,5,0,0:0:0:0:
256,192,60314,5,0,0:0:0:0:
256,192,60392,5,0,0:0:0:0:
256,192,60469,5,8,0:0:0:0:
256,192,60547,5,0,0:0:0:0:
256,192,60625,5,8,0:0:0:0:
256,192,60703,5,0,0:0:0:0:
256,192,60780,5,0,0:0:0:0:
256,192,60858,5,0,0:0:0:0:
256,192,60936,5,0,0:0:0:0:
256,192,61014,5,0,0:0:0:0:
256,192,61091,5,8,0:0:0:0:
256,192,61169,5,0,0:0:0:0:
256,192,61247,5,8,0:0:0:0:
256,192,61324,5,0,0:0:0:0:
256,192,61402,5,8,0:0:0:0:
256,192,61558,5,0,0:0:0:0:
256,192,61713,5,0,0:0:0:0:
256,192,61791,5,0,0:0:0:0:
256,192,61868,5,8,0:0:0:0:
256,192,61946,5,0,0:0:0:0:
256,192,62024,5,0,0:0:0:0:
256,192,62179,5,0,0:0:0:0:
256,192,62335,5,8,0:0:0:0:
256,192,62413,5,0,0:0:0:0:
256,192,62490,5,0,0:0:0:0:
256,192,62646,5,0,0:0:0:0:
256,192,62801,5,8,0:0:0:0:
256,192,62957,5,0,0:0:0:0:
256,192,63034,5,8,0:0:0:0:
256,192,63112,5,8,0:0:0:0:
256,192,63267,5,0,0:0:0:0:
256,192,63423,5,0,0:0:0:0:
256,192,63501,5,0,0:0:0:0:
256,192,63578,5,8,0:0:0:0:
256,192,63734,5,0,0:0:0:0:
256,192,63811,5,8,0:0:0:0:
256,192,63889,5,8,0:0:0:0:
256,192,64045,5,0,0:0:0:0:
256,192,64200,5,0,0:0:0:0:
256,192,64278,5,8,0:0:0:0:
256,192,64356,5,8,0:0:0:0:
256,192,64511,5,0,0:0:0:0:
256,192,64666,5,0,0:0:0:0:
256,192,64744,5,8,0:0:0:0:
256,192,64822,5,8,0:0:0:0:
256,192,64977,5,0,0:0:0:0:
256,192,65133,5,0,0:0:0:0:
256,192,65211,1,0,0:0:0:0:
256,192,65289,5,0,0:0:0:0:
256,192,65366,5,8,0:0:0:0:
256,192,65444,1,8,0:0:0:0:
256,192,65521,5,0,0:0:0:0:
256,192,65599,1,0,0:0:0:0:
256,192,65677,5,0,0:0:0:0:
256,192,65754,5,8,0:0:0:0:
256,192,65832,5,0,0:0:0:0:
256,192,65910,1,0,0:0:0:0:
256,192,65988,5,0,0:0:0:0:
256,192,66065,5,8,0:0:0:0:
256,192,66143,5,0,0:0:0:0:
256,192,66221,1,0,0:0:0:0:
256,192,66299,5,0,0:0:0:0:
256,192,66376,5,8,0:0:0:0:
256,192,66532,5,0,0:0:0:0:
256,192,66688,5,0,0:0:0:0:
256,192,66843,5,0,0:0:0:0:
256,192,66999,5,4,0:0:0:0:
256,192,67153,5,4,0:0:0:0:
256,192,67309,5,4,0:0:0:0:
256,192,67620,5,4,0:0:0:0:
256,192,68242,12,0,68552,0:0:0:0:
256,192,68863,5,8,0:0:0:0:
256,192,68941,5,0,0:0:0:0:
256,192,69018,5,0,0:0:0:0:
256,192,69096,5,0,0:0:0:0:
256,192,69174,5,0,0:0:0:0:
256,192,69485,5,8,0:0:0:0:
256,192,69563,5,0,0:0:0:0:
256,192,69640,5,0,0:0:0:0:
256,192,69718,5,0,0:0:0:0:
256,192,69796,5,0,0:0:0:0:
256,192,70107,5,0,0:0:0:0:
256,192,70185,5,0,0:0:0:0:
256,192,70262,5,8,0:0:0:0:
256,192,70340,5,8,0:0:0:0:
256,192,70418,5,8,0:0:0:0:
256,192,70495,5,0,0:0:0:0:
256,192,70573,5,0,0:0:0:0:
256,192,70651,5,0,0:0:0:0:
256,192,70729,5,0,0:0:0:0:
256,192,70806,5,0,0:0:0:0:
256,192,70884,5,8,0:0:0:0:
256,192,70962,5,0,0:0:0:0:
256,192,71039,5,0,0:0:0:0:
256,192,71117,5,8,0:0:0:0:
256,192,71195,5,8,0:0:0:0:
256,192,71273,5,0,0:0:0:0:
256,192,71350,5,0,0:0:0:0:
256,192,71428,5,0,0:0:0:0:
256,192,71506,5,0,0:0:0:0:
256,192,71583,5,0,0:0:0:0:
256,192,71661,5,8,0:0:0:0:
256,192,71739,5,0,0:0:0:0:
256,192,71817,5,0,0:0:0:0:
256,192,71894,5,0,0:0:0:0:
256,192,71972,5,8,0:0:0:0:
256,192,72050,5,0,0:0:0:0:
256,192,72128,5,0,0:0:0:0:
256,192,72205,5,0,0:0:0:0:
256,192,72283,5,0,0:0:0:0:
256,192,72361,5,0,0:0:0:0:
256,192,72438,5,8,0:0:0:0:
256,192,72516,5,0,0:0:0:0:
256,192,72594,5,8,0:0:0:0:
256,192,72672,5,0,0:0:0:0:
256,192,72749,5,8,0:0:0:0:
256,192,72827,5,0,0:0:0:0:
256,192,72905,5,8,0:0:0:0:
256,192,72982,5,8,0:0:0:0:
256,192,73060,5,0,0:0:0:0:
256,192,73138,5,8,0:0:0:0:
256,192,73216,5,0,0:0:0:0:
256,192,73293,5,8,0:0:0:0:
256,192,73371,5,8,0:0:0:0:
256,192,73449,5,0,0:0:0:0:
256,192,73526,5,8,0:0:0:0:
256,192,73604,5,0,0:0:0:0:
256,192,73682,5,0,0:0:0:0:
256,192,73760,5,0,0:0:0:0:
256,192,73837,5,0,0:0:0:0:
256,192,73915,5,8,0:0:0:0:
256,192,73993,5,8,0:0:0:0:
256,192,74071,5,8,0:0:0:0:
256,192,74148,5,0,0:0:0:0:
256,192,74226,5,8,0:0:0:0:
256,192,74304,5,8,0:0:0:0:
256,192,74381,5,8,0:0:0:0:
256,192,74459,5,0,0:0:0:0:
256,192,74537,5,8,0:0:0:0:
256,192,74615,5,0,0:0:0:0:
256,192,74692,5,0,0:0:0:0:
256,192,74770,5,0,0:0:0:0:
256,192,74848,5,0,0:0:0:0:
256,192,74925,5,0,0:0:0:0:
256,192,75003,5,8,0:0:0:0:
256,192,75081,5,0,0:0:0:0:
256,192,75159,5,8,0:0:0:0:
256,192,75236,5,8,0:0:0:0:
256,192,75314,5,8,0:0:0:0:
256,192,75392,5,0,0:0:0:0:
256,192,75470,5,0,0:0:0:0:
256,192,75547,5,8,0:0:0:0:
256,192,75625,5,8,0:0:0:0:
256,192,75703,5,0,0:0:0:0:
256,192,75780,5,8,0:0:0:0:
256,192,75858,5,8,0:0:0:0:
256,192,75936,5,0,0:0:0:0:
256,192,76014,5,8,0:0:0:0:
256,192,76091,5,0,0:0:0:0:
256,192,76169,5,8,0:0:0:0:
256,192,76247,5,0,0:0:0:0:
256,192,76324,5,8,0:0:0:0:
256,192,76402,5,0,0:0:0:0:
256,192,76480,5,8,0:0:0:0:
256,192,76558,5,0,0:0:0:0:
256,192,76635,5,0,0:0:0:0:
256,192,76713,5,8,0:0:0:0:
256,192,76791,5,0,0:0:0:0:
256,192,76868,5,0,0:0:0:0:
256,192,76946,5,8,0:0:0:0:
256,192,77024,5,0,0:0:0:0:
256,192,77102,5,8,0:0:0:0:
256,192,77179,5,8,0:0:0:0:
256,192,77257,5,0,0:0:0:0:
256,192,77335,5,8,0:0:0:0:
256,192,77413,5,0,0:0:0:0:
256,192,77490,5,8,0:0:0:0:
256,192,77568,5,8,0:0:0:0:
256,192,77646,5,0,0:0:0:0:
256,192,77723,5,8,0:0:0:0:
256,192,77801,5,0,0:0:0:0:
256,192,77879,5,8,0:0:0:0:
256,192,77957,5,0,0:0:0:0:
256,192,78034,5,0,0:0:0:0:
256,192,78112,5,0,0:0:0:0:
256,192,78190,5,8,0:0:0:0:
256,192,78267,5,0,0:0:0:0:
256,192,78345,5,8,0:0:0:0:
256,192,78423,5,0,0:0:0:0:
256,192,78501,5,8,0:0:0:0:
256,192,78578,5,0,0:0:0:0:
256,192,78656,5,8,0:0:0:0:
256,192,78734,5,0,0:0:0:0:
256,192,78811,5,8,0:0:0:0:
256,192,78889,5,8,0:0:0:0:
256,192,78967,5,0,0:0:0:0:
256,192,79045,5,8,0:0:0:0:
256,192,79122,5,8,0:0:0:0:
256,192,79200,5,0,0:0:0:0:
256,192,79278,5,8,0:0:0:0:
256,192,79356,5,0,0:0:0:0:
256,192,79433,5,0,0:0:0:0:
256,192,79511,5,0,0:0:0:0:
256,192,79589,5,0,0:0:0:0:
256,192,79666,5,8,0:0:0:0:
256,192,79744,5,0,0:0:0:0:
256,192,79822,5,0,0:0:0:0:
256,192,79900,5,8,0:0:0:0:
256,192,79977,5,0,0:0:0:0:
256,192,80055,5,0,0:0:0:0:
256,192,80133,5,8,0:0:0:0:
256,192,80210,5,0,0:0:0:0:
256,192,80288,5,8,0:0:0:0:
256,192,80366,5,0,0:0:0:0:
256,192,80444,5,8,0:0:0:0:
256,192,80521,5,8,0:0:0:0:
256,192,80599,5,0,0:0:0:0:
256,192,80677,5,0,0:0:0:0:
256,192,80754,5,8,0:0:0:0:
256,192,80832,5,8,0:0:0:0:
256,192,80910,5,0,0:0:0:0:
256,192,80988,5,0,0:0:0:0:
256,192,81065,5,8,0:0:0:0:
256,192,81143,5,0,0:0:0:0:
256,192,81221,5,8,0:0:0:0:
256,192,81299,5,8,0:0:0:0:
256,192,81376,5,0,0:0:0:0:
256,192,81454,5,8,0:0:0:0:
256,192,81532,5,0,0:0:0:0:
256,192,81609,5,0,0:0:0:0:
256,192,81687,5,8,0:0:0:0:
256,192,81765,5,8,0:0:0:0:
256,192,81843,5,0,0:0:0:0:
256,192,81920,5,8,0:0:0:0:
256,192,81998,5,0,0:0:0:0:
256,192,82076,5,8,0:0:0:0:
256,192,82153,5,0,0:0:0:0:
256,192,82231,5,0,0:0:0:0:
256,192,82309,5,0,0:0:0:0:
256,192,82387,5,8,0:0:0:0:
256,192,82464,5,0,0:0:0:0:
256,192,82542,5,8,0:0:0:0:
256,192,82620,5,0,0:0:0:0:
256,192,82697,5,0,0:0:0:0:
256,192,82775,5,0,0:0:0:0:
256,192,82853,5,8,0:0:0:0:
256,192,82931,5,0,0:0:0:0:
256,192,83008,5,0,0:0:0:0:
256,192,83086,5,8,0:0:0:0:
256,192,83164,5,0,0:0:0:0:
256,192,83242,5,8,0:0:0:0:
256,192,83319,5,8,0:0:0:0:
256,192,83397,5,0,0:0:0:0:
256,192,83475,5,8,0:0:0:0:
256,192,83552,5,0,0:0:0:0:
256,192,83630,5,8,0:0:0:0:
256,192,83708,5,0,0:0:0:0:
256,192,83786,5,8,0:0:0:0:
256,192,83863,5,0,0:0:0:0:
256,192,83941,5,0,0:0:0:0:
256,192,84018,5,0,0:0:0:0:
256,192,84096,5,8,0:0:0:0:
256,192,84174,5,0,0:0:0:0:
256,192,84252,5,0,0:0:0:0:
256,192,84329,5,0,0:0:0:0:
256,192,84407,5,8,0:0:0:0:
256,192,84485,5,0,0:0:0:0:
256,192,84563,5,0,0:0:0:0:
256,192,84640,5,0,0:0:0:0:
256,192,84718,5,8,0:0:0:0:
256,192,84796,5,0,0:0:0:0:
256,192,84874,5,0,0:0:0:0:
256,192,84951,5,0,0:0:0:0:
256,192,85029,5,8,0:0:0:0:
256,192,85495,5,12,0:0:0:0:
256,192,85962,5,4,0:0:0:0:
32,192,87516,6,4,P|352:200|352:200,1,315.000012016297
256,192,88760,5,0,0:0:0:0:
256,192,89071,5,8,0:0:0:0:
256,192,89226,5,0,0:0:0:0:
256,192,89537,5,0,0:0:0:0:
256,192,89692,5,8,0:0:0:0:
256,192,90003,5,0,0:0:0:0:
256,192,90159,5,8,0:0:0:0:
256,192,90314,5,8,0:0:0:0:
256,192,90469,5,0,0:0:0:0:
256,192,90625,5,0,0:0:0:0:
256,192,90936,5,12,0:0:0:0:
256,192,91247,5,4,0:0:0:0:
256,192,91558,5,8,0:0:0:0:
256,192,91713,5,0,0:0:0:0:
256,192,92024,5,0,0:0:0:0:
256,192,92179,5,8,0:0:0:0:
248,208,92490,5,0,0:0:0:0:
256,192,92801,5,8,0:0:0:0:
256,192,93267,5,0,0:0:0:0:
256,192,93423,5,8,0:0:0:0:
256,192,93578,5,0,0:0:0:0:
256,192,93734,5,0,0:0:0:0:
