osu file format v14

[General]
AudioFilename: Ichizu_Recipe.mp3
AudioLeadIn: 0
PreviewTime: 54599
Countdown: 0
SampleSet: Soft
StackLeniency: 0.7
Mode: 0
LetterboxInBreaks: 0
WidescreenStoryboard: 0

[Editor]
DistanceSpacing: 1.4
BeatDivisor: 4
GridSize: 4
TimelineZoom: 1.9

[Metadata]
Title:Ichizu Recipe
TitleUnicode:イチズレシピ
Artist:idol+college
ArtistUnicode:アイドルカレッジ
Creator:ProEzreal
Version:Hard
Source:俺がお嬢様学校に「庶民サンプル」としてゲッツされた件
Tags:Ore ga Ojousama Gakkou ni Shomin Sample Toshite Gets Sareta Ken tv size opening truonant [Sc4v4ng3r] Sky Future
BeatmapID:849412
BeatmapSetID:386614

[Difficulty]
HPDrainRate:5
CircleSize:4
OverallDifficulty:6
ApproachRate:8
SliderMultiplier:1.39999990463257
SliderTickRate:1

[Events]
//Background and Video events
0,0,"bg3.jpg",0,0
//Break Periods
//Storyboard Layer 0 (Background)
//Storyboard Layer 1 (Fail)
//Storyboard Layer 2 (Pass)
//Storyboard Layer 3 (Foreground)
//Storyboard Sound Samples

[TimingPoints]
423,352.941176470588,4,2,1,100,1,0
1128,-100,4,2,2,40,0,0
12422,-100,4,2,2,50,0,1
20187,-100,4,2,2,50,0,1
23717,-100,4,2,2,20,0,0
25128,-100,4,2,2,30,0,0
26540,-100,4,2,2,40,0,0
29011,-100,4,2,10,5,0,0
29187,-100,4,2,10,50,0,0
29364,-100,4,2,2,40,0,0
32893,-100,4,2,2,20,0,0
33599,-100,4,2,2,30,0,0
34305,-100,4,2,2,40,0,0
35011,-100,4,2,2,50,0,0
40658,-125,4,2,2,40,0,0
43481,-111.111111111111,4,2,2,40,0,0
46305,-100,4,2,2,40,0,0
49128,-125,4,2,2,20,0,0
49834,-111.111111111111,4,2,2,30,0,0
50540,-100,4,2,2,40,0,0
51246,-90.9090909090908,4,2,2,50,0,0
51952,-111.111111111111,4,2,2,60,0,0
54422,-111.111111111111,4,2,2,5,0,0
54599,-111.111111111111,4,2,2,50,0,0
54775,-100,4,2,2,60,0,1
73834,-100,4,2,2,60,0,1
77364,-111.111111111111,4,2,2,30,0,0
88658,-100,4,2,5,30,0,0

[Colours]
Combo1 : 190,29,252
Combo2 : 74,247,55
Combo3 : 251,245,51
Combo4 : 168,223,253

[HitObjects]
291,308,1128,6,0,P|350:300|397:222,1,139.999990463257
308,220,1658,1,0,0:0:0:0:
328,130,1834,2,0,P|268:138|220:222,1,139.999990463257
200,292,2364,5,0,0:0:0:0:
116,316,2540,2,0,L|40:336,1,69.9999952316285
112,224,2893,2,0,L|32:244,1,69.9999952316285,0|0,0:0|0:0,0:0:0:0:
117,139,3246,1,0,0:0:0:0:
224,76,3422,1,2,0:0:0:0:
216,196,3599,1,2,0:0:0:0:
328,136,3775,1,0,0:0:0:0:
224,76,3952,6,0,P|155:89|115:161,1,139.999990463257
204,165,4482,1,0,0:0:0:0:
185,256,4658,2,0,P|245:248|293:164,1,139.999990463257
317,98,5188,5,0,0:0:0:0:
412,72,5364,2,0,L|488:52,1,69.9999952316285
408,160,5717,2,0,L|488:140,1,69.9999952316285,0|0,0:0|0:0,0:0:0:0:
403,245,6070,1,0,0:0:0:0:
296,308,6246,1,2,0:0:0:0:
304,188,6423,1,2,0:0:0:0:
192,248,6599,1,0,0:0:0:0:
192,248,6775,6,0,P|168:192|184:156,1,69.9999952316285
176,96,7128,1,0,0:0:0:0:
256,48,7305,1,0,0:0:0:0:
344,80,7481,2,0,P|344:120|332:152,1,69.9999952316285,0|0,0:0|0:0,0:0:0:0:
280,224,7834,1,0,0:0:0:0:
320,308,8011,1,0,0:0:0:0:
404,288,8187,2,0,P|444:268|472:228,1,69.9999952316285
320,308,8540,2,0,P|280:328|252:368,1,69.9999952316285
168,328,8893,5,2,0:0:0:0:
168,328,9070,1,0,0:0:0:0:
120,256,9246,1,2,0:0:0:0:
120,256,9422,1,0,0:0:0:0:
136,156,9599,6,0,L|232:144,1,69.9999952316285
276,248,9952,2,0,L|180:236,1,69.9999952316285
205,147,10305,1,0,0:0:0:0:
292,100,10481,1,0,0:0:0:0:
376,148,10658,1,0,0:0:0:0:
364,244,10834,1,0,0:0:0:0:
364,244,11717,5,0,0:0:0:0:
288,296,11893,2,0,L|244:324,2,34.9999976158143
364,244,12246,1,0,0:0:0:0:
364,244,12422,6,0,P|288:204|224:232,1,139.999990463257
152,264,12952,1,0,0:0:0:0:
92,336,13128,2,0,P|175:356|232:312,1,139.999990463257
272,244,13658,1,0,0:0:0:0:
318,160,13834,6,0,P|334:116|376:84,1,69.9999952316285
430,182,14187,2,0,P|418:222|374:255,1,69.9999952316285
318,160,14540,1,0,0:0:0:0:
248,100,14717,1,2,0:0:0:0:
232,192,14893,1,2,0:0:0:0:
323,162,15070,1,0,0:0:0:0:
232,192,15246,6,0,P|204:224|96:224,1,139.999990463257
57,177,15775,1,0,0:0:0:0:
29,92,15952,2,0,P|97:95|143:146,1,139.999990463257
111,232,16481,1,0,0:0:0:0:
192,304,16658,6,0,L|216:228,1,69.9999952316285
232,152,17011,2,0,P|208:96|208:64,1,69.9999952316285
292,80,17364,2,0,P|320:128|308:212,1,139.999990463257
256,280,17893,1,0,0:0:0:0:
340,336,18070,5,0,0:0:0:0:
420,296,18246,1,0,0:0:0:0:
452,212,18422,1,8,0:0:0:0:
384,156,18598,1,0,0:0:0:0:
384,156,18775,2,0,P|332:148|288:164,1,69.9999952316285
228,208,19128,1,8,0:0:0:0:
297,263,19305,2,0,P|356:292|440:256,1,139.999990463257
364,204,19834,2,8,L|372:135,1,69.9999952316285,8|0,0:0|0:0,0:0:0:0:
384,28,20187,1,4,0:0:0:0:
292,100,20540,5,0,0:0:0:0:
292,100,20717,2,0,P|232:104|152:56,1,139.999990463257,0|0,0:0|0:0,0:0:0:0:
80,40,21246,2,0,L|96:128,1,69.9999952316285,0|0,0:0|0:0,0:0:0:0:
152,216,21599,2,0,L|168:124,2,69.9999952316285,0|0|0,0:0|0:0|0:0,0:0:0:0:
232,264,22128,6,0,L|256:108,2,139.999990463257
184,344,23011,2,0,P|136:348|108:340,1,69.9999952316285,0|0,0:0|0:0,0:0:0:0:
276,336,23364,2,0,P|324:332|352:340,1,69.9999952316285,0|0,0:0|0:0,0:0:0:0:
376,356,23628,1,0,0:0:0:0:
376,356,23717,6,0,L|408:276,1,69.9999952316285,0|0,0:0|0:0,0:0:0:0:
424,220,24070,2,0,L|344:188,1,69.9999952316285
284,164,24422,2,0,L|252:244,1,69.9999952316285
236,300,24775,2,0,L|316:332,1,69.9999952316285
258,229,25128,6,0,P|214:193|174:185,1,69.9999952316285
120,180,25481,2,0,P|136:140|176:112,1,69.9999952316285
232,108,25834,2,0,P|212:68|176:52,1,69.9999952316285
112,64,26187,2,0,P|116:24|140:-4,1,69.9999952316285
28,84,26540,5,0,0:0:0:0:
88,144,26717,1,0,0:0:0:0:
112,64,26893,1,0,0:0:0:0:
168,132,27070,1,0,0:0:0:0:
144,208,27246,6,0,L|60:228,1,69.9999952316285
212,260,27599,2,0,L|304:240,1,69.9999952316285
344,84,28128,5,0,0:0:0:0:
276,180,28304,1,0,0:0:0:0:
352,164,28481,1,0,0:0:0:0:
260,100,28657,1,0,0:0:0:0:
320,284,29011,6,2,B|320:312|320:312|324:316|324:316|320:324|320:324|324:328|324:328|320:376,1,69.9999952316285,0|2,0:0|0:0,0:0:0:0:
320,200,29364,5,0,0:0:0:0:
292,104,29540,1,0,0:0:0:0:
380,132,29717,2,0,L|456:156,1,69.9999952316285,0|0,0:0|0:0,0:0:0:0:
320,200,30070,2,0,L|244:176,2,69.9999952316285,0|0|0,0:0|0:0|0:0,0:0:0:0:
256,264,30599,2,0,L|180:240,1,69.9999952316285,0|0,0:0|0:0,0:0:0:0:
336,292,30952,2,0,L|412:316,1,69.9999952316285,0|0,0:0|0:0,0:0:0:0:
312,196,31305,1,0,0:0:0:0:
300,112,31481,2,0,P|235:151|240:240,1,139.999990463257
312,196,32011,1,0,0:0:0:0:
300,112,32187,5,0,0:0:0:0:
276,24,32364,1,0,0:0:0:0:
184,16,32540,1,0,0:0:0:0:
148,96,32717,1,0,0:0:0:0:
148,96,32893,6,0,L|168:172,1,69.9999952316285,0|0,0:0|0:0,0:0:0:0:
100,208,33246,2,0,L|120:274,1,69.9999952316285,8|0,0:0|0:0,0:0:0:0:
176,352,33599,5,0,0:0:0:0:
176,352,33775,1,0,0:0:0:0:
216,284,33952,2,0,L|256:208,1,69.9999952316285,8|0,0:0|0:0,0:0:0:0:
344,208,34305,6,0,L|304:284,1,69.9999952316285
424,248,34658,1,8,0:0:0:0:
456,164,34834,1,0,0:0:0:0:
388,100,35011,6,0,P|320:80|244:108,1,139.999990463257,0|0,0:0|0:0,0:0:0:0:
320,168,35540,1,0,0:0:0:0:
224,184,35717,2,0,L|140:196,2,69.9999952316285,0|0|0,0:0|0:0|0:0,0:0:0:0:
292,256,36246,2,0,L|376:244,1,69.9999952316285
308,332,36599,2,0,P|248:324|216:248,1,139.999990463257
224,184,37128,1,0,0:0:0:0:
140,212,37305,1,0,0:0:0:0:
112,128,37481,2,0,P|76:121|16:142,1,69.9999952316285
188,112,37834,6,0,P|223:118|283:97,1,69.9999952316285
328,56,38187,1,0,0:0:0:0:
416,104,38364,2,0,P|432:52|424:8,2,69.9999952316285
336,148,38893,2,0,P|340:192|368:224,1,69.9999952316285
408,284,39246,1,0,0:0:0:0:
324,304,39422,1,0,0:0:0:0:
244,324,39599,1,0,0:0:0:0:
168,344,39775,1,0,0:0:0:0:
164,340,39864,1,0,0:0:0:0:
160,336,39952,5,0,0:0:0:0:
152,268,40128,1,0,0:0:0:0:
152,244,40217,1,0,0:0:0:0:
152,224,40305,2,0,L|136:160,3,34.9999976158143,4|0|0|0,0:0|0:0|0:0|0:0,0:0:0:0:
136,144,40658,6,0,B|168:132|168:132|208:144|208:144|264:128,1,111.999992370606,0|0,0:0|0:0,0:0:0:0:
324,40,41187,2,0,B|292:52|292:52|252:40|252:40|196:56,1,111.999992370606
276,212,41717,2,0,B|308:200|308:200|348:212|348:212|404:196,1,111.999992370606,0|0,0:0|0:0,0:0:0:0:
476,176,42246,1,0,0:0:0:0:
456,272,42422,6,0,L|440:336,1,55.9999961853028
360,296,42775,2,0,L|348:360,1,55.9999961853028,0|0,0:0|0:0,0:0:0:0:
264,312,43128,2,0,L|252:376,1,55.9999961853028,0|0,0:0|0:0,0:0:0:0:
156,324,43481,6,0,P|92:280|88:212,1,125.999987571717,0|0,0:0|0:0,0:0:0:0:
104,128,44011,2,0,P|168:172|172:240,1,125.999987571717
32,156,44540,2,0,P|32:96|88:52,1,125.999987571717
160,28,45070,1,0,0:0:0:0:
248,48,45246,6,0,P|280:56|312:80,1,62.9999937858584
312,176,45599,2,0,P|280:168|248:144,1,62.9999937858584,0|0,0:0|0:0,0:0:0:0:
176,212,45952,2,0,P|204:232|240:248,1,62.9999937858584
312,176,46305,6,0,P|400:196|428:264,1,139.999990463257
328,384,46834,2,0,P|308:324|352:248,1,139.999990463257
472,328,47364,2,0,L|392:328,1,69.9999952316285
228,328,47717,1,0,0:0:0:0:
236,332,48246,5,0,0:0:0:0:
236,332,48334,1,0,0:0:0:0:
236,332,48422,2,0,L|192:264,1,69.9999952316285,0|0,0:0|0:0,0:0:0:0:
92,268,48775,2,0,L|136:336,1,69.9999952316285,0|0,0:0|0:0,0:0:0:0:
148,192,49128,6,0,L|112:132,1,55.9999961853028,0|0,0:0|0:0,0:0:0:0:
68,80,49481,2,0,P|92:64|136:76,1,55.9999961853028
200,96,49834,6,0,P|236:100|272:80,1,62.9999937858584
336,36,50187,2,0,L|356:104,1,62.9999937858584
428,184,50540,6,0,L|336:188,1,69.9999952316285,0|0,0:0|0:0,0:0:0:0:
404,272,50893,2,0,L|328:276,1,69.9999952316285,0|0,0:0|0:0,0:0:0:0:
160,228,51246,2,0,L|256:232,1,76.9999971046448,0|0,0:0|0:0,0:0:0:0:
184,316,51599,2,0,L|264:320,1,76.9999971046448,0|0,0:0|0:0,0:0:0:0:
328,236,51952,6,0,P|336:184|288:112,1,125.999987571717,0|0,0:0|0:0,0:0:0:0:
328,236,52481,2,0,P|384:244|456:216,1,125.999987571717,0|0,0:0|0:0,0:0:0:0:
432,80,53187,1,0,0:0:0:0:
268,192,54599,5,0,0:0:0:0:
344,224,54775,2,0,P|344:164|280:112,1,139.999990463257,0|0,0:0|0:0,0:0:0:0:
192,140,55305,1,0,0:0:0:0:
180,228,55481,2,0,P|180:288|244:340,1,139.999990463257
336,348,56011,5,0,0:0:0:0:
424,292,56187,2,0,L|448:208,1,69.9999952316285
376,176,56540,2,0,L|356:244,1,69.9999952316285,0|0,0:0|0:0,0:0:0:0:
452,128,56893,1,0,0:0:0:0:
384,68,57070,1,2,0:0:0:0:
300,100,57246,1,2,0:0:0:0:
232,40,57422,1,0,0:0:0:0:
300,100,57599,6,0,P|304:168|240:224,1,139.999990463257,0|0,0:0|0:0,0:0:0:0:
164,248,58128,1,0,0:0:0:0:
96,188,58305,2,0,P|92:120|156:64,1,139.999990463257,0|0,0:0|0:0,0:0:0:0:
232,40,58834,5,0,0:0:0:0:
300,104,59011,2,0,P|340:128|360:172,1,69.9999952316285
268,252,59364,2,0,P|268:205|296:166,1,69.9999952316285,0|0,0:0|0:0,0:0:0:0:
416,208,59717,2,0,P|375:230|327:225,1,69.9999952316285,2|0,0:0|0:0,0:0:0:0:
352,231,60070,1,2,0:0:0:0:
348,316,60246,1,0,0:0:0:0:
252,336,60422,6,0,L|168:356,1,69.9999952316285,0|0,0:0|0:0,0:0:0:0:
124,280,60775,1,0,0:0:0:0:
204,264,60952,1,0,0:0:0:0:
284,240,61128,6,0,L|304:173,1,69.9999952316285
344,88,61481,1,0,0:0:0:0:
260,64,61658,1,0,0:0:0:0:
220,144,61834,5,0,0:0:0:0:
160,80,62011,1,0,0:0:0:0:
72,112,62187,2,0,L|120:176,1,69.9999952316285,0|0,0:0|0:0,0:0:0:0:
48,28,62540,5,2,0:0:0:0:
48,28,62717,1,0,0:0:0:0:
160,60,62893,1,2,0:0:0:0:
160,60,63070,1,0,0:0:0:0:
276,44,63246,6,0,P|332:52|360:80,1,69.9999952316285,0|0,0:0|0:0,0:0:0:0:
372,160,63599,2,0,P|316:152|288:124,1,69.9999952316285,0|0,0:0|0:0,0:0:0:0:
440,104,63952,2,0,P|456:164|416:240,1,139.999990463257,0|0,0:0|0:0,0:0:0:0:
356,296,64481,1,0,0:0:0:0:
356,296,64658,6,0,L|268:308,1,69.9999952316285
220,232,65011,2,0,L|308:220,1,69.9999952316285,0|0,0:0|0:0,0:0:0:0:
204,316,65364,2,2,L|60:332,1,139.999990463257,0|0,0:0|0:0,0:0:0:0:
108,232,65893,5,0,0:0:0:0:
108,232,65981,1,0,0:0:0:0:
108,232,66070,2,0,P|132:188|136:144,1,69.9999952316285,0|0,0:0|0:0,0:0:0:0:
100,92,66422,2,0,P|116:48|140:12,1,69.9999952316285,0|0,0:0|0:0,0:0:0:0:
228,28,66775,2,0,P|212:72|188:108,1,69.9999952316285,0|0,0:0|0:0,0:0:0:0:
228,172,67128,1,0,0:0:0:0:
264,252,67305,1,0,0:0:0:0:
344,212,67481,6,0,P|404:208|440:224,1,69.9999952316285
472,296,67834,2,0,P|412:300|376:284,1,69.9999952316285,0|0,0:0|0:0,0:0:0:0:
344,212,68187,2,0,P|308:156|316:128,1,69.9999952316285,0|2,0:0|0:0,0:0:0:0:
336,72,68540,1,2,0:0:0:0:
460,144,68717,5,0,0:0:0:0:
460,144,68893,2,0,L|380:144,1,69.9999952316285,0|0,0:0|0:0,0:0:0:0:
344,212,69246,2,0,P|324:268|328:288,1,69.9999952316285
390,144,69599,2,0,P|410:88|406:68,1,69.9999952316285,0|0,0:0|0:0,0:0:0:0:
336,28,69952,1,0,0:0:0:0:
336,28,70128,6,0,P|280:64|192:56,1,139.999990463257
128,40,70658,2,0,P|84:28|48:32,1,69.9999952316285,0|0,0:0|0:0,0:0:0:0:
148,124,71011,1,0,0:0:0:0:
232,156,71187,1,0,0:0:0:0:
320,188,71364,2,0,L|408:220,1,69.9999952316285,0|0,0:0|0:0,0:0:0:0:
348,344,71717,6,0,L|331:251,1,69.9999952316285,0|0,0:0|0:0,0:0:0:0:
468,244,72070,2,8,L|396:304,1,69.9999952316285,8|0,0:0|0:0,0:0:0:0:
276,228,72422,2,8,P|236:248|216:280,2,69.9999952316285,0|0|8,0:0|0:0|0:0,0:0:0:0:
244,340,72952,2,0,P|188:340|148:252,1,139.999990463257
156,184,73481,2,8,P|164:136|156:96,1,69.9999952316285,8|0,0:0|0:0,0:0:0:0:
136,36,73834,1,4,0:0:0:0:
160,184,74187,5,0,0:0:0:0:
160,184,74364,2,0,P|212:208|288:168,1,139.999990463257,0|0,0:0|0:0,0:0:0:0:
360,148,74893,2,0,P|340:117|283:95,1,69.9999952316285,0|0,0:0|0:0,0:0:0:0:
340,228,75246,2,0,P|376:226|423:188,1,69.9999952316285,0|0,0:0|0:0,0:0:0:0:
283,175,75599,1,0,0:0:0:0:
283,175,75775,2,0,L|140:248,2,139.999990463257,0|0|0,0:0|0:0|0:0,0:0:0:0:
200,132,76658,6,0,L|120:172,1,69.9999952316285
85,233,77011,2,0,L|20:200,1,69.9999952316285,0|0,0:0|0:0,0:0:0:0:
168,280,77364,6,0,L|160:320,2,31.4999968929292
256,312,77717,2,0,P|292:312|328:292,1,62.9999937858584,0|0,0:0|0:0,0:0:0:0:
400,252,78070,6,0,L|448:268,2,31.4999968929292
393,159,78423,2,0,P|375:127|339:106,1,62.9999937858584,0|0,0:0|0:0,0:0:0:0:
264,112,78775,6,0,L|204:112,2,31.4999968929292
354,111,79128,2,0,L|434:111,1,62.9999937858584
360,36,79481,2,0,L|268:36,1,62.9999937858584
212,40,79834,2,0,P|172:64|160:104,1,62.9999937858584
156,152,80187,6,0,L|160:204,2,31.4999968929292
80,120,80540,2,0,L|88:204,1,62.9999937858584,0|0,0:0|0:0,0:0:0:0:
136,260,80893,6,0,L|100:264,2,31.4999968929292
220,248,81246,2,0,L|308:236,1,62.9999937858584
372,200,81599,2,0,L|384:156,3,31.4999968929292
400,144,81952,2,0,L|412:100,3,31.4999968929292
400,80,82305,2,0,P|356:60|264:92,1,125.999987571717
216,152,82834,5,0,0:0:0:0:
216,152,82922,1,0,0:0:0:0:
216,152,83011,2,0,P|172:172|80:140,1,125.999987571717,0|0,0:0|0:0,0:0:0:0:
44,244,83540,1,0,0:0:0:0:
44,244,83628,1,0,0:0:0:0:
44,244,83717,2,0,B|32:276|32:276|44:320,1,62.9999937858584,0|0,0:0|0:0,0:0:0:0:
144,360,84070,2,0,B|156:328|156:328|144:284,1,62.9999937858584,0|0,0:0|0:0,0:0:0:0:
204,228,84422,6,0,P|248:232|284:224,1,62.9999937858584,0|0,0:0|0:0,0:0:0:0:
332,136,84775,2,0,P|288:132|252:140,1,62.9999937858584
380,208,85128,2,0,P|412:172|416:132,1,62.9999937858584
304,56,85481,2,0,P|264:56|216:64,1,62.9999937858584
176,144,85834,5,0,0:0:0:0:
176,144,86011,1,0,0:0:0:0:
220,240,86187,1,0,0:0:0:0:
220,240,86364,1,0,0:0:0:0:
312,280,86540,5,0,0:0:0:0:
408,256,86717,1,0,0:0:0:0:
336,192,86893,1,0,0:0:0:0:
312,280,87070,1,0,0:0:0:0:
408,256,87246,6,0,L|424:176,1,62.9999937858584,0|0,0:0|0:0,0:0:0:0:
248,144,87599,2,0,L|264:224,1,62.9999937858584
388,128,87952,2,0,L|404:48,1,62.9999937858584
296,32,88305,2,0,L|312:112,1,62.9999937858584
336,192,88658,5,4,0:0:0:0:
