osu file format v14

[General]
AudioFilename: audio.mp3
AudioLeadIn: 0
PreviewTime: -1
Countdown: 0
SampleSet: None
StackLeniency: 0.7
Mode: 0
LetterboxInBreaks: 0
WidescreenStoryboard: 0

[Editor]
DistanceSpacing: 6
BeatDivisor: 9
GridSize: 4
TimelineZoom: 1

[Metadata]
Title:gibfest
TitleUnicode:gibfest
Artist:idk
ArtistUnicode:idk
Creator:feniatium
Version:inhermouth
Source:
Tags:
BeatmapID:4567503
BeatmapSetID:2165208

[Difficulty]
HPDrainRate:5
CircleSize:3
OverallDifficulty:5
ApproachRate:9
SliderMultiplier:1.4
SliderTickRate:1

[Events]
//Background and Video events
0,0,"one-yellow-plastic-whistle-spotlighted-on-black-background_172429-1833.png",0,0
//Break Periods
//Storyboard Layer 0 (Background)
//Storyboard Layer 1 (Fail)
//Storyboard Layer 2 (Pass)
//Storyboard Layer 3 (Foreground)
//Storyboard Layer 4 (Overlay)
//Storyboard Sound Samples

[TimingPoints]
-10.5903958620916,500,4,1,0,100,1,0
7947,-66.6666666666667,4,1,0,100,0,0
17514,-100,4,1,0,100,0,0
18447,-66.6666666666667,4,1,0,100,0,0

[Colours]
Combo1 : 128,128,192
Combo2 : 255,128,192

[HitObjects]
61,170,572,5,0,0:0:0:0:
130,105,781,2,0,P|215:73|286:78,1,163.333333333333
249,169,1406,2,0,L|160:220,1,93.3333333333333
214,290,1906,2,0,L|337:290,1,116.666666666667
82,187,2572,1,0,0:0:0:0:
224,70,2697,2,0,P|168:137|237:177,2,186.666666666667
406,140,4156,2,0,L|357:213,1,81.6666666666667
256,217,4489,2,0,L|177:150,1,93.3333333333333
87,174,4906,2,0,L|29:259,1,93.3333333333333
120,90,5364,1,0,0:0:0:0:
343,82,5864,1,0,0:0:0:0:
256,257,6489,5,0,0:0:0:0:
348,192,6822,2,0,P|155:192|151:209,1,268.333333333333
239,263,7989,2,0,L|145:201,1,105
56,150,8447,2,0,P|159:117|177:128,1,140
125,205,8864,2,0,P|243:234|269:200,1,175.00000667572
193,146,9364,2,0,L|321:93,1,122.500004673004
314,199,9822,2,0,P|198:273|44:250,1,297.500011348725
297,231,10906,2,0,P|153:206|310:142,1,437.500016689301
409,131,12072,2,0,L|410:234,1,87.5000033378602
314,229,12489,2,0,L|313:123,1,105.000004005432
216,122,12864,2,0,L|216:231,1,105.000004005432
132,111,13281,2,0,L|42:190,1,105.000004005432
169,208,13781,2,0,L|79:293,1,122.500004673004
78,160,14489,1,0,0:0:0:0:
176,82,14864,2,0,P|253:65|359:83,1,175.00000667572
312,176,15447,1,0,0:0:0:0:
156,111,15864,6,0,B|69:202|73:195,1,105.000004005432
436,218,16281,2,0,L|399:135,1,87.5000033378602
84,186,16656,2,0,L|166:101,1,105.000004005432
402,138,17072,2,0,L|436:221,1,87.5000033378602
316,150,17531,2,0,P|210:211|255:253,1,227.500008678437
266,135,18531,2,0,P|134:107|205:222,1,332.500012683869
187,144,19572,2,0,L|323:198,1,140.000005340576
187,144,20114,2,0,L|329:203,1,140.000005340576
187,144,20531,2,0,L|325:203,1,140.000005340576
187,144,20989,2,0,L|328:204,1,140.000005340576
315,198,21447,2,0,L|97:235,1,210.000008010865
45,165,22197,1,0,0:0:0:0:
113,127,22406,2,0,P|384:104|466:167,1,385.000014686585
113,127,23697,6,0,L|193:189,1,87.5000033378602
258,180,23989,1,0,0:0:0:0:
367,181,24114,1,0,0:0:0:0:
280,77,24406,2,0,L|102:130,1,175.00000667572
156,237,25072,1,0,0:0:0:0:
297,163,25156,1,0,0:0:0:0:
146,53,25239,1,0,0:0:0:0:
178,114,25520,1,0,0:0:0:0:
201,159,25583,2,0,L|262:260,1,118.125004506111
315,120,26176,2,0,P|309:176|371:230,1,144.375005507469
91,167,26770,2,0,L|2:153,1,78.7500030040742
168,66,27083,1,0,0:0:0:0:
192,213,27333,1,0,0:0:0:0:
235,131,27614,6,0,P|314:154|323:181,1,118.125004506111
192,213,28100,1,0,0:0:0:0:
55,209,28267,2,0,L|137:109,1,116.666671117147
214,188,28711,1,0,0:0:0:0:
306,198,28933,1,0,0:0:0:0:
131,195,29044,2,0,B|56:203|56:203|96:277,1,140.000005340576
167,106,29711,5,0,0:0:0:0:
262,138,29878,2,0,P|302:188|298:216,1,93.3333368937176
222,288,30322,1,0,0:0:0:0:
189,211,30433,2,0,P|90:174|86:116,1,163.333339564006
191,119,31044,1,0,0:0:0:0:
272,122,31489,5,0,0:0:0:0:
440,131,31656,1,0,0:0:0:0:
351,185,31822,2,0,P|278:261|158:234,1,233.333342234294
119,153,32489,1,0,0:0:0:0:
279,120,32767,1,0,0:0:0:0:
448,209,33100,2,0,L|344:239,1,93.3333368937176
147,141,33489,2,0,P|84:221|219:268,1,280.000010681153
169,214,34156,1,0,0:0:0:0:
217,127,34489,2,0,L|356:207,1,140.000005340576
208,228,35044,1,0,0:0:0:0:
126,175,35489,6,0,P|173:110|303:99,1,210.000008010865
229,192,36156,1,0,0:0:0:0:
348,226,36211,2,0,L|256:277,2,93.3333368937176
153,276,36878,1,0,0:0:0:0:
48,175,37044,2,0,L|184:130,1,140.000005340576
254,204,37600,1,0,0:0:0:0:
286,115,37656,2,0,P|393:189|366:277,1,233.333342234294
49,155,38600,5,0,0:0:0:0:
248,115,39100,1,0,0:0:0:0:
432,197,39322,1,0,0:0:0:0:
294,219,39433,2,0,L|150:235,1,140.000005340576
110,115,40156,1,0,0:0:0:0:
301,113,40490,1,0,0:0:0:0:
209,246,40600,1,0,0:0:0:0:
95,161,41211,1,0,0:0:0:0:
199,112,41378,1,0,0:0:0:0:
342,141,41489,2,0,P|362:231|310:245,1,163.333339564006
200,274,41989,1,0,0:0:0:0:
88,240,42156,2,0,P|8:176|38:131,1,163.333339564006
126,104,42933,1,0,0:0:0:0:
229,130,43100,1,0,0:0:0:0:
