osu file format v14

[General]
AudioFilename: audio.mp3
AudioLeadIn: 0
PreviewTime: 17405
Countdown: 1
SampleSet: Normal
StackLeniency: 0.7
Mode: 0
LetterboxInBreaks: 0
WidescreenStoryboard: 1

[Editor]
DistanceSpacing: 0.9
BeatDivisor: 8
GridSize: 16
TimelineZoom: 1

[Metadata]
Title:Horseland openning
TitleUnicode:Horseland openning
Artist:idk
ArtistUnicode:idk
Creator:Barbex
Version:OUI OUI OUI OUIOUI OUI OUI OUI !!!
Source:
Tags:
BeatmapID:1865538
BeatmapSetID:892439

[Difficulty]
HPDrainRate:4
CircleSize:4
OverallDifficulty:9
ApproachRate:9.7
SliderMultiplier:1.4
SliderTickRate:1

[Events]
//Background and Video events
0,0,"Horse-Land-horseland-40682439-600-440.jpg",0,0
//Break Periods
//Storyboard Layer 0 (Background)
//Storyboard Layer 1 (Fail)
//Storyboard Layer 2 (Pass)
//Storyboard Layer 3 (Foreground)
//Storyboard Sound Samples

[TimingPoints]
110,588.062334607468,4,1,0,45,1,0
2704,-66.6666666666667,4,1,0,45,0,0
2998,-83.3333333333333,4,1,0,45,0,0
4174,-76.9230769230769,4,1,0,45,0,0
18287,-66.6666666666667,4,1,0,45,0,0
27696,-83.3333333333333,4,1,0,45,0,0

[HitObjects]
70,92,2756,6,0,L|102:142,1,52.5000020027161
169,255,3050,2,0,P|217:273|260:272,1,83.9999974365235,0|0,0:3|0:3,0:3:0:0:
333,152,3638,2,0,P|368:190|381:233,1,83.9999974365235
186,318,4226,5,0,0:0:0:0:
271,89,4373,1,0,0:0:0:0:
320,295,4520,5,0,0:0:0:0:
122,114,4667,1,0,0:0:0:0:
379,75,4814,5,0,0:0:0:0:
232,314,4961,1,0,0:0:0:0:
189,80,5108,5,0,0:0:0:0:
394,259,5255,1,0,0:0:0:0:
149,331,5402,5,0,0:0:0:0:
332,88,5549,1,0,0:0:0:0:
96,152,5696,5,0,0:0:0:0:
374,323,5843,1,0,0:0:0:0:
57,279,5990,5,0,0:0:0:0:
311,17,6137,1,0,0:0:0:0:
211,335,6284,1,0,0:0:0:0:
71,53,6431,1,0,0:0:0:0:
380,157,6578,1,0,0:0:0:0:
121,321,6725,1,0,0:0:0:0:
121,321,6872,6,0,L|191:251,1,90.9999958343508
316,176,7460,1,0,0:0:0:0:
239,334,7754,1,0,0:0:0:0:
157,223,8048,6,0,P|116:282|114:310,1,90.9999958343508
179,350,8636,1,0,0:0:0:0:
217,132,8930,1,0,0:0:0:0:
274,236,9224,6,0,P|313:201|321:138,1,90.9999958343508
272,42,9812,1,0,0:0:0:0:
391,237,10107,1,0,0:0:0:0:
166,160,10401,1,0,0:0:0:0:
424,107,10695,1,0,0:0:0:0:
391,237,10989,6,0,P|343:279|291:283,1,90.9999958343508
266,172,11577,1,0,0:0:0:0:
174,364,11871,1,0,0:0:0:0:
129,258,12165,6,0,P|189:247|232:264,1,90.9999958343508
281,351,12753,1,0,0:0:0:0:
193,165,13047,1,0,0:0:0:0:
299,208,13341,6,0,L|352:108,1,90.9999958343508
193,165,13929,1,0,0:0:0:0:
347,295,14223,1,0,0:0:0:0:
337,93,14517,1,0,0:0:0:0:
198,254,14811,5,0,0:0:0:0:
155,65,15105,1,0,0:0:0:0:
345,264,15399,1,0,0:0:0:0:
234,90,15693,1,0,0:0:0:0:
410,171,15987,5,0,0:0:0:0:
220,337,16281,1,0,0:0:0:0:
98,85,16575,5,0,0:0:0:0:
354,259,16869,1,0,0:0:0:0:
306,32,17163,5,0,0:0:0:0:
18,170,17457,1,0,0:0:0:0:
18,170,17751,1,0,0:0:0:0:
18,170,18045,1,0,0:0:0:0:
66,267,18339,6,0,P|101:234|114:189,1,52.5000020027161
123,75,18633,1,0,0:0:0:0:
240,276,18780,1,0,0:0:0:0:
318,52,18927,1,0,0:0:0:0:
120,212,19074,1,0,0:0:0:0:
240,18,19221,1,0,0:0:0:0:
359,194,19369,5,0,0:0:0:0:
113,319,19516,1,0,0:0:0:0:
141,62,19663,1,0,0:0:0:0:
285,327,19810,1,0,0:0:0:0:
393,57,19957,1,0,0:0:0:0:
131,199,20104,5,0,0:0:0:0:
430,136,20251,1,0,0:0:0:0:
213,314,20398,1,0,0:0:0:0:
272,48,20545,1,0,0:0:0:0:
358,306,20692,5,0,0:0:0:0:
146,108,20839,1,0,0:0:0:0:
397,82,20986,1,0,0:0:0:0:
213,314,21133,1,0,0:0:0:0:
146,108,21280,2,0,P|89:69|27:66,1,105.000004005432
9,303,21868,5,0,0:0:0:0:
211,106,22015,1,0,0:0:0:0:
174,349,22162,1,0,0:0:0:0:
30,107,22309,1,0,0:0:0:0:
315,109,22456,5,0,0:0:0:0:
59,243,22603,1,0,0:0:0:0:
344,284,22750,5,0,0:0:0:0:
91,121,22897,1,0,0:0:0:0:
318,37,23044,1,0,0:0:0:0:
143,306,23191,1,0,0:0:0:0:
82,46,23338,5,0,0:0:0:0:
412,207,23485,1,0,0:0:0:0:
61,264,23632,5,0,0:0:0:0:
296,85,23779,1,0,0:0:0:0:
44,121,23926,1,0,0:0:0:0:
257,272,24073,1,0,0:0:0:0:
290,0,24220,2,0,P|353:22|386:90,1,105.000004005432
221,276,24808,5,0,0:0:0:0:
467,148,24955,1,0,0:0:0:0:
206,87,25102,5,0,0:0:0:0:
444,305,25249,1,0,0:0:0:0:
102,211,25396,5,0,0:0:0:0:
384,7,25543,1,0,0:0:0:0:
320,353,25690,5,0,0:0:0:0:
58,47,25837,1,0,0:0:0:0:
450,99,25984,5,0,0:0:0:0:
101,327,26131,1,0,0:0:0:0:
330,6,26278,5,0,0:0:0:0:
222,374,26425,1,0,0:0:0:0:
11,111,26572,5,0,0:0:0:0:
360,68,26719,1,0,0:0:0:0:
63,336,26866,5,0,0:0:0:0:
241,9,27013,1,0,0:0:0:0:
397,348,27160,5,0,0:0:0:0:
53,36,27307,1,0,0:0:0:0:
438,67,27454,5,0,0:0:0:0:
128,381,27601,1,0,0:0:0:0:
193,324,27748,2,0,P|208:262|198:205,1,83.9999974365235
138,183,28336,2,0,P|191:151|243:159,1,83.9999974365235
358,321,28925,5,0,0:0:0:0:
125,75,29072,1,0,0:0:0:0:
423,66,29219,5,0,0:0:0:0:
123,343,29366,1,0,0:0:0:0:
197,14,29513,5,0,0:0:0:0:
446,269,29660,1,0,0:0:0:0:
46,216,29807,5,0,0:0:0:0:
361,6,29954,1,0,0:0:0:0:
256,192,30101,12,0,30983,0:0:0:0:
