osu file format v14

[General]
AudioFilename: audio.mp3
AudioLeadIn: 0
PreviewTime: -1
Countdown: 0
SampleSet: Normal
StackLeniency: 0.7
Mode: 3
LetterboxInBreaks: 0
SpecialStyle: 0
WidescreenStoryboard: 1

[Editor]
DistanceSpacing: 0.8
BeatDivisor: 4
GridSize: 8
TimelineZoom: 1.3

[Metadata]
Title:Best FriendS trap remix?
TitleUnicode:Best FriendS trap remix?
Artist:idek tbh
ArtistUnicode:idek tbh
Creator:Midgy
Version:Normal
Source:
Tags:
BeatmapID:1656209
BeatmapSetID:789133

[Difficulty]
HPDrainRate:8
CircleSize:4
OverallDifficulty:8
ApproachRate:5
SliderMultiplier:1.4
SliderTickRate:1

[Events]
//Background and Video events
0,0,"screenshot192.jpg",0,0
//Break Periods
//Storyboard Layer 0 (Background)
//Storyboard Layer 1 (Fail)
//Storyboard Layer 2 (Pass)
//Storyboard Layer 3 (Foreground)
//Storyboard Sound Samples

[TimingPoints]
989,368.098159509202,4,1,0,0,1,0

[HitObjects]
320,192,988,5,0,0:0:0:0:
64,192,1357,1,0,0:0:0:0:
192,192,1357,1,0,0:0:0:0:
448,192,1541,1,0,0:0:0:0:
448,192,1725,1,0,0:0:0:0:
64,192,1725,1,0,0:0:0:0:
448,192,1909,1,0,0:0:0:0:
192,192,2093,1,0,0:0:0:0:
64,192,2093,1,0,0:0:0:0:
320,192,2277,1,0,0:0:0:0:
448,192,2277,1,0,0:0:0:0:
448,192,2461,1,0,0:0:0:0:
320,192,2461,1,0,0:0:0:0:
192,192,2553,1,0,0:0:0:0:
320,192,2645,1,0,0:0:0:0:
448,192,2645,1,0,0:0:0:0:
192,192,2737,1,0,0:0:0:0:
64,192,2829,1,0,0:0:0:0:
320,192,2829,1,0,0:0:0:0:
448,192,2829,1,0,0:0:0:0:
64,192,3013,1,0,0:0:0:0:
448,192,3197,1,0,0:0:0:0:
64,192,3197,1,0,0:0:0:0:
192,192,3381,1,0,0:0:0:0:
64,192,3381,1,0,0:0:0:0:
448,192,3381,1,0,0:0:0:0:
320,192,3442,1,0,0:0:0:0:
192,192,3504,1,0,0:0:0:0:
64,192,3565,1,0,0:0:0:0:
448,192,3627,1,0,0:0:0:0:
320,192,3688,1,0,0:0:0:0:
192,192,3749,1,0,0:0:0:0:
64,192,3749,1,0,0:0:0:0:
448,192,3933,1,0,0:0:0:0:
320,192,3933,1,0,0:0:0:0:
192,192,3933,1,0,0:0:0:0:
64,192,4117,1,0,0:0:0:0:
192,192,4179,1,0,0:0:0:0:
320,192,4240,1,0,0:0:0:0:
64,192,4301,1,0,0:0:0:0:
448,192,4301,1,0,0:0:0:0:
192,192,4485,1,0,0:0:0:0:
320,192,4669,1,0,0:0:0:0:
448,192,4669,1,0,0:0:0:0:
64,192,4854,1,0,0:0:0:0:
192,192,4854,1,0,0:0:0:0:
320,192,4854,1,0,0:0:0:0:
448,192,4854,1,0,0:0:0:0:
192,192,5038,1,0,0:0:0:0:
320,192,5038,1,0,0:0:0:0:
448,192,5222,1,0,0:0:0:0:
320,192,5222,1,0,0:0:0:0:
64,192,5222,1,0,0:0:0:0:
192,192,5283,1,0,0:0:0:0:
320,192,5344,1,0,0:0:0:0:
448,192,5406,1,0,0:0:0:0:
64,192,5467,1,0,0:0:0:0:
192,192,5528,1,0,0:0:0:0:
64,192,5590,1,0,0:0:0:0:
320,192,5651,1,0,0:0:0:0:
192,192,5712,1,0,0:0:0:0:
448,192,5774,1,0,0:0:0:0:
320,192,5835,1,0,0:0:0:0:
192,192,5896,1,0,0:0:0:0:
320,192,5958,1,0,0:0:0:0:
448,192,6019,1,0,0:0:0:0:
64,192,6081,1,0,0:0:0:0:
192,192,6142,1,0,0:0:0:0:
320,192,6203,1,0,0:0:0:0:
448,192,6265,1,0,0:0:0:0:
192,192,6326,1,0,0:0:0:0:
320,192,6387,1,0,0:0:0:0:
64,192,6449,1,0,0:0:0:0:
192,192,6510,1,0,0:0:0:0:
448,192,6571,1,0,0:0:0:0:
320,192,6633,1,0,0:0:0:0:
448,192,6694,1,0,0:0:0:0:
64,192,6694,1,0,0:0:0:0:
192,192,6755,1,0,0:0:0:0:
320,192,6817,1,0,0:0:0:0:
192,192,6878,1,0,0:0:0:0:
64,192,6939,1,0,0:0:0:0:
320,192,7001,1,0,0:0:0:0:
448,192,7062,1,0,0:0:0:0:
320,192,7246,1,0,0:0:0:0:
192,192,7246,1,0,0:0:0:0:
320,192,7430,1,0,0:0:0:0:
192,192,7430,1,0,0:0:0:0:
192,192,7614,1,0,0:0:0:0:
64,192,7614,1,0,0:0:0:0:
192,192,7798,1,0,0:0:0:0:
64,192,7798,1,0,0:0:0:0:
64,192,7982,1,0,0:0:0:0:
448,192,7982,1,0,0:0:0:0:
448,192,8166,1,0,0:0:0:0:
64,192,8166,1,0,0:0:0:0:
64,192,8350,1,0,0:0:0:0:
192,192,8373,1,0,0:0:0:0:
320,192,8396,1,0,0:0:0:0:
448,192,8535,1,0,0:0:0:0:
320,192,8581,1,0,0:0:0:0:
192,192,8627,1,0,0:0:0:0:
64,192,8673,1,0,0:0:0:0:
448,192,8719,1,0,0:0:0:0:
320,192,8719,1,0,0:0:0:0:
192,192,8811,1,0,0:0:0:0:
64,192,8903,1,0,0:0:0:0:
320,192,8995,1,0,0:0:0:0:
192,192,9087,1,0,0:0:0:0:
64,192,9087,1,0,0:0:0:0:
320,192,9179,1,0,0:0:0:0:
192,192,9271,1,0,0:0:0:0:
64,192,9271,1,0,0:0:0:0:
448,192,9271,1,0,0:0:0:0:
320,192,9363,1,0,0:0:0:0:
64,192,9455,1,0,0:0:0:0:
192,192,9455,1,0,0:0:0:0:
448,192,9455,1,0,0:0:0:0:
320,192,9455,1,0,0:0:0:0:
192,192,9547,1,0,0:0:0:0:
64,192,9547,1,0,0:0:0:0:
320,192,9639,1,0,0:0:0:0:
448,192,9639,1,0,0:0:0:0:
64,192,9731,1,0,0:0:0:0:
192,192,9731,1,0,0:0:0:0:
448,192,9823,1,0,0:0:0:0:
64,192,9823,1,0,0:0:0:0:
320,192,9823,1,0,0:0:0:0:
192,192,9915,1,0,0:0:0:0:
320,192,10007,1,0,0:0:0:0:
448,192,10099,1,0,0:0:0:0:
64,192,10191,1,0,0:0:0:0:
192,192,10191,1,0,0:0:0:0:
320,192,10283,1,0,0:0:0:0:
448,192,10375,1,0,0:0:0:0:
64,192,10375,1,0,0:0:0:0:
192,192,10375,1,0,0:0:0:0:
320,192,10467,1,0,0:0:0:0:
448,192,10559,1,0,0:0:0:0:
64,192,10559,1,0,0:0:0:0:
192,192,10651,1,0,0:0:0:0:
320,192,10743,1,0,0:0:0:0:
448,192,10743,1,0,0:0:0:0:
64,192,10743,1,0,0:0:0:0:
192,192,10835,1,0,0:0:0:0:
320,192,10927,1,0,0:0:0:0:
64,192,10927,1,0,0:0:0:0:
192,192,10927,1,0,0:0:0:0:
448,192,10927,1,0,0:0:0:0:
320,192,11019,1,0,0:0:0:0:
448,192,11019,1,0,0:0:0:0:
192,192,11111,1,0,0:0:0:0:
64,192,11111,1,0,0:0:0:0:
320,192,11203,1,0,0:0:0:0:
448,192,11203,1,0,0:0:0:0:
64,192,11295,1,0,0:0:0:0:
192,192,11295,1,0,0:0:0:0:
320,192,11387,1,0,0:0:0:0:
448,192,11479,1,0,0:0:0:0:
192,192,11479,1,0,0:0:0:0:
64,192,11479,1,0,0:0:0:0:
320,192,11571,1,0,0:0:0:0:
448,192,11663,1,0,0:0:0:0:
64,192,11663,1,0,0:0:0:0:
192,192,11663,1,0,0:0:0:0:
320,192,11755,1,0,0:0:0:0:
64,192,11847,1,0,0:0:0:0:
192,192,11939,1,0,0:0:0:0:
320,192,12031,1,0,0:0:0:0:
448,192,12031,1,0,0:0:0:0:
192,192,12123,1,0,0:0:0:0:
448,192,12215,1,0,0:0:0:0:
64,192,12215,1,0,0:0:0:0:
320,192,12215,1,0,0:0:0:0:
192,192,12308,1,0,0:0:0:0:
64,192,12400,1,0,0:0:0:0:
192,192,12400,1,0,0:0:0:0:
320,192,12400,1,0,0:0:0:0:
448,192,12400,1,0,0:0:0:0:
320,192,12492,1,0,0:0:0:0:
448,192,12492,1,0,0:0:0:0:
192,192,12584,1,0,0:0:0:0:
64,192,12584,1,0,0:0:0:0:
320,192,12676,1,0,0:0:0:0:
448,192,12676,1,0,0:0:0:0:
448,192,12768,1,0,0:0:0:0:
192,192,12768,1,0,0:0:0:0:
64,192,12768,1,0,0:0:0:0:
320,192,12860,1,0,0:0:0:0:
64,192,12952,1,0,0:0:0:0:
192,192,13044,1,0,0:0:0:0:
64,192,13136,1,0,0:0:0:0:
320,192,13136,1,0,0:0:0:0:
448,192,13136,1,0,0:0:0:0:
192,192,13228,1,0,0:0:0:0:
448,192,13320,1,0,0:0:0:0:
320,192,13412,1,0,0:0:0:0:
64,192,13504,1,0,0:0:0:0:
448,192,13504,1,0,0:0:0:0:
192,192,13504,1,0,0:0:0:0:
320,192,13596,1,0,0:0:0:0:
192,192,13688,1,0,0:0:0:0:
64,192,13688,1,0,0:0:0:0:
448,192,13688,1,0,0:0:0:0:
320,192,13780,1,0,0:0:0:0:
64,192,13872,1,0,0:0:0:0:
192,192,13872,1,0,0:0:0:0:
320,192,13872,1,0,0:0:0:0:
448,192,13872,1,0,0:0:0:0:
192,192,13964,1,0,0:0:0:0:
64,192,13964,1,0,0:0:0:0:
192,192,14056,1,0,0:0:0:0:
448,192,14056,1,0,0:0:0:0:
320,192,14056,1,0,0:0:0:0:
320,192,14148,1,0,0:0:0:0:
448,192,14148,1,0,0:0:0:0:
192,192,14240,1,0,0:0:0:0:
64,192,14240,1,0,0:0:0:0:
320,192,14332,1,0,0:0:0:0:
192,192,14424,1,0,0:0:0:0:
448,192,14424,1,0,0:0:0:0:
64,192,14424,1,0,0:0:0:0:
320,192,14516,1,0,0:0:0:0:
192,192,14608,1,0,0:0:0:0:
64,192,14608,1,0,0:0:0:0:
448,192,14608,1,0,0:0:0:0:
320,192,14700,1,0,0:0:0:0:
64,192,14792,1,0,0:0:0:0:
192,192,14884,1,0,0:0:0:0:
448,192,14976,1,0,0:0:0:0:
320,192,14976,1,0,0:0:0:0:
192,192,15068,1,0,0:0:0:0:
64,192,15160,1,0,0:0:0:0:
320,192,15160,1,0,0:0:0:0:
448,192,15160,1,0,0:0:0:0:
192,192,15252,1,0,0:0:0:0:
448,192,15344,1,0,0:0:0:0:
320,192,15344,1,0,0:0:0:0:
192,192,15344,1,0,0:0:0:0:
64,192,15344,1,0,0:0:0:0:
320,192,15436,1,0,0:0:0:0:
448,192,15436,1,0,0:0:0:0:
192,192,15528,1,0,0:0:0:0:
64,192,15528,1,0,0:0:0:0:
320,192,15620,1,0,0:0:0:0:
448,192,15620,1,0,0:0:0:0:
448,192,15712,1,0,0:0:0:0:
192,192,15712,1,0,0:0:0:0:
64,192,15712,1,0,0:0:0:0:
320,192,15804,1,0,0:0:0:0:
448,192,15896,1,0,0:0:0:0:
192,192,15988,1,0,0:0:0:0:
64,192,16081,1,0,0:0:0:0:
448,192,16081,1,0,0:0:0:0:
320,192,16173,1,0,0:0:0:0:
192,192,16265,1,0,0:0:0:0:
448,192,16265,1,0,0:0:0:0:
64,192,16265,1,0,0:0:0:0:
320,192,16357,1,0,0:0:0:0:
64,192,16449,1,0,0:0:0:0:
192,192,16449,1,0,0:0:0:0:
320,192,16541,1,0,0:0:0:0:
448,192,16633,1,0,0:0:0:0:
192,192,16633,1,0,0:0:0:0:
64,192,16633,1,0,0:0:0:0:
320,192,16725,1,0,0:0:0:0:
64,192,16817,1,0,0:0:0:0:
192,192,16817,1,0,0:0:0:0:
320,192,16817,1,0,0:0:0:0:
448,192,16817,1,0,0:0:0:0:
64,192,16909,1,0,0:0:0:0:
192,192,16909,1,0,0:0:0:0:
320,192,17001,1,0,0:0:0:0:
448,192,17001,1,0,0:0:0:0:
64,192,17093,1,0,0:0:0:0:
192,192,17093,1,0,0:0:0:0:
448,192,17185,1,0,0:0:0:0:
320,192,17185,1,0,0:0:0:0:
192,192,17277,1,0,0:0:0:0:
320,192,17369,1,0,0:0:0:0:
448,192,17369,1,0,0:0:0:0:
64,192,17369,1,0,0:0:0:0:
192,192,17461,1,0,0:0:0:0:
64,192,17553,1,0,0:0:0:0:
320,192,17553,1,0,0:0:0:0:
448,192,17553,1,0,0:0:0:0:
192,192,17645,1,0,0:0:0:0:
320,192,17737,1,0,0:0:0:0:
448,192,17829,1,0,0:0:0:0:
192,192,17921,1,0,0:0:0:0:
64,192,17921,1,0,0:0:0:0:
320,192,18013,1,0,0:0:0:0:
192,192,18105,1,0,0:0:0:0:
448,192,18105,1,0,0:0:0:0:
64,192,18105,1,0,0:0:0:0:
320,192,18197,1,0,0:0:0:0:
320,192,18289,1,0,0:0:0:0:
192,192,18289,1,0,0:0:0:0:
448,192,18289,1,0,0:0:0:0:
64,192,18289,1,0,0:0:0:0:
192,192,18381,1,0,0:0:0:0:
64,192,18381,1,0,0:0:0:0:
448,192,18473,1,0,0:0:0:0:
320,192,18473,1,0,0:0:0:0:
192,192,18565,1,0,0:0:0:0:
64,192,18565,1,0,0:0:0:0:
448,192,18657,1,0,0:0:0:0:
64,192,18657,1,0,0:0:0:0:
320,192,18657,1,0,0:0:0:0:
192,192,18749,1,0,0:0:0:0:
320,192,18841,1,0,0:0:0:0:
448,192,18933,1,0,0:0:0:0:
64,192,19025,1,0,0:0:0:0:
192,192,19025,1,0,0:0:0:0:
320,192,19025,1,0,0:0:0:0:
448,192,19117,1,0,0:0:0:0:
320,192,19209,1,0,0:0:0:0:
192,192,19301,1,0,0:0:0:0:
320,192,19393,1,0,0:0:0:0:
448,192,19393,1,0,0:0:0:0:
64,192,19393,1,0,0:0:0:0:
192,192,19485,1,0,0:0:0:0:
320,192,19577,1,0,0:0:0:0:
64,192,19577,1,0,0:0:0:0:
448,192,19577,1,0,0:0:0:0:
192,192,19669,1,0,0:0:0:0:
64,192,19762,1,0,0:0:0:0:
192,192,19762,1,0,0:0:0:0:
320,192,19762,1,0,0:0:0:0:
448,192,19762,1,0,0:0:0:0:
320,192,19854,1,0,0:0:0:0:
448,192,19854,1,0,0:0:0:0:
192,192,19946,1,0,0:0:0:0:
64,192,19946,1,0,0:0:0:0:
320,192,20038,1,0,0:0:0:0:
448,192,20038,1,0,0:0:0:0:
64,192,20130,1,0,0:0:0:0:
192,192,20176,1,0,0:0:0:0:
320,192,20222,1,0,0:0:0:0:
448,192,20314,1,0,0:0:0:0:
64,192,20314,1,0,0:0:0:0:
320,192,20360,1,0,0:0:0:0:
192,192,20406,1,0,0:0:0:0:
64,192,20498,1,0,0:0:0:0:
320,192,20498,1,0,0:0:0:0:
448,192,20498,1,0,0:0:0:0:
192,192,20590,1,0,0:0:0:0:
448,192,20682,1,0,0:0:0:0:
320,192,20774,1,0,0:0:0:0:
64,192,20866,1,0,0:0:0:0:
192,192,20866,1,0,0:0:0:0:
448,192,20958,1,0,0:0:0:0:
192,192,21050,1,0,0:0:0:0:
64,192,21050,1,0,0:0:0:0:
320,192,21050,1,0,0:0:0:0:
448,192,21142,1,0,0:0:0:0:
64,192,21234,1,0,0:0:0:0:
192,192,21234,1,0,0:0:0:0:
320,192,21234,1,0,0:0:0:0:
448,192,21234,1,0,0:0:0:0:
192,192,21326,1,0,0:0:0:0:
64,192,21326,1,0,0:0:0:0:
320,192,21418,1,0,0:0:0:0:
448,192,21418,1,0,0:0:0:0:
192,192,21510,1,0,0:0:0:0:
64,192,21510,1,0,0:0:0:0:
64,192,21602,1,0,0:0:0:0:
320,192,21602,1,0,0:0:0:0:
448,192,21602,1,0,0:0:0:0:
192,192,21694,1,0,0:0:0:0:
320,192,21786,1,0,0:0:0:0:
64,192,21878,1,0,0:0:0:0:
448,192,21970,1,0,0:0:0:0:
192,192,21970,1,0,0:0:0:0:
320,192,22062,1,0,0:0:0:0:
448,192,22154,1,0,0:0:0:0:
64,192,22154,1,0,0:0:0:0:
192,192,22154,1,0,0:0:0:0:
320,192,22246,1,0,0:0:0:0:
448,192,22338,1,0,0:0:0:0:
64,192,22338,1,0,0:0:0:0:
192,192,22430,1,0,0:0:0:0:
320,192,22522,1,0,0:0:0:0:
448,192,22522,1,0,0:0:0:0:
64,192,22522,1,0,0:0:0:0:
192,192,22614,1,0,0:0:0:0:
64,192,22706,1,0,0:0:0:0:
192,192,22706,1,0,0:0:0:0:
320,192,22706,1,0,0:0:0:0:
448,192,22706,1,0,0:0:0:0:
320,192,22798,1,0,0:0:0:0:
448,192,22798,1,0,0:0:0:0:
64,192,22890,1,0,0:0:0:0:
192,192,22890,1,0,0:0:0:0:
320,192,22982,1,0,0:0:0:0:
448,192,22982,1,0,0:0:0:0:
64,192,23074,1,0,0:0:0:0:
192,192,23074,1,0,0:0:0:0:
320,192,23166,1,0,0:0:0:0:
448,192,23258,1,0,0:0:0:0:
64,192,23258,1,0,0:0:0:0:
192,192,23258,1,0,0:0:0:0:
320,192,23350,1,0,0:0:0:0:
192,192,23442,1,0,0:0:0:0:
448,192,23442,1,0,0:0:0:0:
64,192,23442,1,0,0:0:0:0:
320,192,23535,1,0,0:0:0:0:
192,192,23627,1,0,0:0:0:0:
64,192,23719,1,0,0:0:0:0:
448,192,23811,1,0,0:0:0:0:
320,192,23811,1,0,0:0:0:0:
192,192,23903,1,0,0:0:0:0:
448,192,23995,1,0,0:0:0:0:
64,192,23995,1,0,0:0:0:0:
320,192,23995,1,0,0:0:0:0:
192,192,24087,1,0,0:0:0:0:
192,192,24179,1,0,0:0:0:0:
64,192,24179,1,0,0:0:0:0:
320,192,24179,1,0,0:0:0:0:
448,192,24179,1,0,0:0:0:0:
320,192,24271,1,0,0:0:0:0:
448,192,24271,1,0,0:0:0:0:
192,192,24363,1,0,0:0:0:0:
64,192,24363,1,0,0:0:0:0:
320,192,24455,1,0,0:0:0:0:
448,192,24455,1,0,0:0:0:0:
64,192,24547,1,0,0:0:0:0:
192,192,24547,1,0,0:0:0:0:
448,192,24547,1,0,0:0:0:0:
320,192,24639,1,0,0:0:0:0:
448,192,24731,1,0,0:0:0:0:
192,192,24823,1,0,0:0:0:0:
320,192,24915,1,0,0:0:0:0:
448,192,24915,1,0,0:0:0:0:
64,192,24915,1,0,0:0:0:0:
192,192,25007,1,0,0:0:0:0:
320,192,25099,1,0,0:0:0:0:
64,192,25191,1,0,0:0:0:0:
448,192,25283,1,0,0:0:0:0:
192,192,25283,1,0,0:0:0:0:
320,192,25283,1,0,0:0:0:0:
64,192,25375,1,0,0:0:0:0:
320,192,25467,1,0,0:0:0:0:
192,192,25467,1,0,0:0:0:0:
448,192,25467,1,0,0:0:0:0:
64,192,25559,1,0,0:0:0:0:
64,192,25651,1,0,0:0:0:0:
192,192,25651,1,0,0:0:0:0:
320,192,25651,1,0,0:0:0:0:
448,192,25651,1,0,0:0:0:0:
320,192,25743,1,0,0:0:0:0:
448,192,25743,1,0,0:0:0:0:
192,192,25835,1,0,0:0:0:0:
64,192,25835,1,0,0:0:0:0:
320,192,25927,1,0,0:0:0:0:
448,192,25927,1,0,0:0:0:0:
192,192,26019,1,0,0:0:0:0:
64,192,26019,1,0,0:0:0:0:
320,192,26111,1,0,0:0:0:0:
192,192,26203,1,0,0:0:0:0:
448,192,26203,1,0,0:0:0:0:
64,192,26203,1,0,0:0:0:0:
320,192,26295,1,0,0:0:0:0:
192,192,26387,1,0,0:0:0:0:
64,192,26387,1,0,0:0:0:0:
448,192,26387,1,0,0:0:0:0:
320,192,26479,1,0,0:0:0:0:
192,192,26571,1,0,0:0:0:0:
64,192,26663,1,0,0:0:0:0:
448,192,26755,1,0,0:0:0:0:
320,192,26755,1,0,0:0:0:0:
192,192,26847,1,0,0:0:0:0:
64,192,26939,1,0,0:0:0:0:
448,192,26939,1,0,0:0:0:0:
320,192,26939,1,0,0:0:0:0:
192,192,27031,1,0,0:0:0:0:
64,192,27123,1,0,0:0:0:0:
192,192,27123,1,0,0:0:0:0:
320,192,27123,1,0,0:0:0:0:
448,192,27123,1,0,0:0:0:0:
320,192,27215,1,0,0:0:0:0:
448,192,27215,1,0,0:0:0:0:
192,192,27308,1,0,0:0:0:0:
64,192,27308,1,0,0:0:0:0:
320,192,27400,1,0,0:0:0:0:
448,192,27400,1,0,0:0:0:0:
192,192,27492,1,0,0:0:0:0:
64,192,27492,1,0,0:0:0:0:
448,192,27492,1,0,0:0:0:0:
320,192,27584,1,0,0:0:0:0:
192,192,27676,1,0,0:0:0:0:
448,192,27768,1,0,0:0:0:0:
192,192,27860,1,0,0:0:0:0:
320,192,27860,1,0,0:0:0:0:
64,192,27952,1,0,0:0:0:0:
192,192,28044,1,0,0:0:0:0:
320,192,28044,1,0,0:0:0:0:
448,192,28044,1,0,0:0:0:0:
64,192,28136,1,0,0:0:0:0:
320,192,28228,1,0,0:0:0:0:
448,192,28228,1,0,0:0:0:0:
192,192,28320,1,0,0:0:0:0:
448,192,28412,1,0,0:0:0:0:
64,192,28412,1,0,0:0:0:0:
320,192,28412,1,0,0:0:0:0:
192,192,28504,1,0,0:0:0:0:
64,192,28596,1,0,0:0:0:0:
192,192,28596,1,0,0:0:0:0:
320,192,28596,1,0,0:0:0:0:
448,192,28596,1,0,0:0:0:0:
448,192,28688,1,0,0:0:0:0:
320,192,28688,1,0,0:0:0:0:
192,192,28780,1,0,0:0:0:0:
64,192,28780,1,0,0:0:0:0:
448,192,28872,1,0,0:0:0:0:
320,192,28872,1,0,0:0:0:0:
192,192,28964,1,0,0:0:0:0:
64,192,28964,1,0,0:0:0:0:
320,192,29056,1,0,0:0:0:0:
192,192,29148,1,0,0:0:0:0:
448,192,29148,1,0,0:0:0:0:
64,192,29148,1,0,0:0:0:0:
320,192,29240,1,0,0:0:0:0:
192,192,29332,1,0,0:0:0:0:
64,192,29332,1,0,0:0:0:0:
448,192,29332,1,0,0:0:0:0:
320,192,29424,1,0,0:0:0:0:
192,192,29516,1,0,0:0:0:0:
448,192,29608,1,0,0:0:0:0:
192,192,29700,1,0,0:0:0:0:
64,192,29700,1,0,0:0:0:0:
320,192,29792,1,0,0:0:0:0:
192,192,29884,1,0,0:0:0:0:
448,192,29884,1,0,0:0:0:0:
64,192,29884,1,0,0:0:0:0:
320,192,29976,1,0,0:0:0:0:
448,192,30068,1,0,0:0:0:0:
320,192,30068,1,0,0:0:0:0:
192,192,30068,1,0,0:0:0:0:
64,192,30068,1,0,0:0:0:0:
192,192,30160,1,0,0:0:0:0:
64,192,30160,1,0,0:0:0:0:
448,192,30252,1,0,0:0:0:0:
320,192,30252,1,0,0:0:0:0:
192,192,30344,1,0,0:0:0:0:
64,192,30344,1,0,0:0:0:0:
448,192,30436,1,0,0:0:0:0:
64,192,30436,1,0,0:0:0:0:
320,192,30436,1,0,0:0:0:0:
192,192,30528,1,0,0:0:0:0:
320,192,30620,1,0,0:0:0:0:
64,192,30712,1,0,0:0:0:0:
448,192,30804,1,0,0:0:0:0:
320,192,30804,1,0,0:0:0:0:
192,192,30804,1,0,0:0:0:0:
64,192,30896,1,0,0:0:0:0:
192,192,30988,1,0,0:0:0:0:
320,192,31081,1,0,0:0:0:0:
192,192,31173,1,0,0:0:0:0:
64,192,31173,1,0,0:0:0:0:
448,192,31173,1,0,0:0:0:0:
320,192,31265,1,0,0:0:0:0:
64,192,31357,1,0,0:0:0:0:
448,192,31357,1,0,0:0:0:0:
192,192,31357,1,0,0:0:0:0:
320,192,31449,1,0,0:0:0:0:
64,192,31541,1,0,0:0:0:0:
192,192,31541,1,0,0:0:0:0:
320,192,31541,1,0,0:0:0:0:
448,192,31541,1,0,0:0:0:0:
64,192,31633,1,0,0:0:0:0:
192,192,31633,1,0,0:0:0:0:
320,192,31725,1,0,0:0:0:0:
448,192,31725,1,0,0:0:0:0:
192,192,31817,1,0,0:0:0:0:
64,192,31817,1,0,0:0:0:0:
448,192,31909,1,0,0:0:0:0:
320,192,31955,1,0,0:0:0:0:
192,192,32001,1,0,0:0:0:0:
64,192,32093,1,0,0:0:0:0:
448,192,32093,1,0,0:0:0:0:
192,192,32139,1,0,0:0:0:0:
320,192,32185,1,0,0:0:0:0:
64,192,32277,1,0,0:0:0:0:
192,192,32277,1,0,0:0:0:0:
448,192,32277,1,0,0:0:0:0:
320,192,32369,1,0,0:0:0:0:
192,192,32461,1,0,0:0:0:0:
320,192,32553,1,0,0:0:0:0:
64,192,32645,1,0,0:0:0:0:
448,192,32645,1,0,0:0:0:0:
192,192,32737,1,0,0:0:0:0:
320,192,32829,1,0,0:0:0:0:
448,192,32829,1,0,0:0:0:0:
64,192,32829,1,0,0:0:0:0:
192,192,32921,1,0,0:0:0:0:
192,192,33013,1,0,0:0:0:0:
64,192,33013,1,0,0:0:0:0:
320,192,33013,1,0,0:0:0:0:
448,192,33013,1,0,0:0:0:0:
320,192,33105,1,0,0:0:0:0:
448,192,33105,1,0,0:0:0:0:
192,192,33197,1,0,0:0:0:0:
64,192,33197,1,0,0:0:0:0:
320,192,33289,1,0,0:0:0:0:
448,192,33289,1,0,0:0:0:0:
192,192,33381,1,0,0:0:0:0:
448,192,33381,1,0,0:0:0:0:
64,192,33381,1,0,0:0:0:0:
320,192,33473,1,0,0:0:0:0:
192,192,33565,1,0,0:0:0:0:
448,192,33657,1,0,0:0:0:0:
192,192,33749,1,0,0:0:0:0:
64,192,33749,1,0,0:0:0:0:
320,192,33841,1,0,0:0:0:0:
64,192,33933,1,0,0:0:0:0:
448,192,33933,1,0,0:0:0:0:
192,192,33933,1,0,0:0:0:0:
320,192,34025,1,0,0:0:0:0:
64,192,34117,1,0,0:0:0:0:
192,192,34117,1,0,0:0:0:0:
448,192,34209,1,0,0:0:0:0:
320,192,34301,1,0,0:0:0:0:
192,192,34301,1,0,0:0:0:0:
64,192,34301,1,0,0:0:0:0:
448,192,34393,1,0,0:0:0:0:
64,192,34485,1,0,0:0:0:0:
192,192,34485,1,0,0:0:0:0:
320,192,34485,1,0,0:0:0:0:
448,192,34485,1,0,0:0:0:0:
64,192,34577,1,0,0:0:0:0:
192,192,34577,1,0,0:0:0:0:
320,192,34669,1,0,0:0:0:0:
448,192,34669,1,0,0:0:0:0:
192,192,34762,1,0,0:0:0:0:
64,192,34762,1,0,0:0:0:0:
320,192,34854,1,0,0:0:0:0:
448,192,34854,1,0,0:0:0:0:
192,192,34946,1,0,0:0:0:0:
320,192,35038,1,0,0:0:0:0:
64,192,35038,1,0,0:0:0:0:
448,192,35038,1,0,0:0:0:0:
192,192,35130,1,0,0:0:0:0:
320,192,35222,1,0,0:0:0:0:
448,192,35222,1,0,0:0:0:0:
64,192,35222,1,0,0:0:0:0:
192,192,35314,1,0,0:0:0:0:
448,192,35406,1,0,0:0:0:0:
320,192,35498,1,0,0:0:0:0:
192,192,35590,1,0,0:0:0:0:
64,192,35590,1,0,0:0:0:0:
320,192,35682,1,0,0:0:0:0:
192,192,35774,1,0,0:0:0:0:
64,192,35774,1,0,0:0:0:0:
448,192,35774,1,0,0:0:0:0:
320,192,35866,1,0,0:0:0:0:
64,192,35958,1,0,0:0:0:0:
192,192,35958,1,0,0:0:0:0:
320,192,35958,1,0,0:0:0:0:
448,192,35958,1,0,0:0:0:0:
192,192,36050,1,0,0:0:0:0:
64,192,36050,1,0,0:0:0:0:
320,192,36142,1,0,0:0:0:0:
448,192,36142,1,0,0:0:0:0:
192,192,36234,1,0,0:0:0:0:
64,192,36234,1,0,0:0:0:0:
64,192,36326,1,0,0:0:0:0:
448,192,36326,1,0,0:0:0:0:
320,192,36326,1,0,0:0:0:0:
192,192,36418,1,0,0:0:0:0:
448,192,36510,1,0,0:0:0:0:
320,192,36602,1,0,0:0:0:0:
192,192,36694,1,0,0:0:0:0:
448,192,36694,1,0,0:0:0:0:
64,192,36694,1,0,0:0:0:0:
320,192,36786,1,0,0:0:0:0:
192,192,36878,1,0,0:0:0:0:
320,192,36970,1,0,0:0:0:0:
192,192,37062,1,0,0:0:0:0:
448,192,37062,1,0,0:0:0:0:
64,192,37062,1,0,0:0:0:0:
320,192,37154,1,0,0:0:0:0:
192,192,37246,1,0,0:0:0:0:
64,192,37246,1,0,0:0:0:0:
448,192,37246,1,0,0:0:0:0:
320,192,37338,1,0,0:0:0:0:
64,192,37430,1,0,0:0:0:0:
192,192,37430,1,0,0:0:0:0:
320,192,37430,1,0,0:0:0:0:
448,192,37430,1,0,0:0:0:0:
64,192,37522,1,0,0:0:0:0:
192,192,37522,1,0,0:0:0:0:
320,192,37614,1,0,0:0:0:0:
448,192,37614,1,0,0:0:0:0:
192,192,37660,1,0,0:0:0:0:
64,192,37706,1,0,0:0:0:0:
448,192,37752,1,0,0:0:0:0:
320,192,37798,1,0,0:0:0:0:
192,192,37844,1,0,0:0:0:0:
64,192,37890,1,0,0:0:0:0:
448,192,37936,1,0,0:0:0:0:
320,192,37982,1,0,0:0:0:0:
192,192,37982,1,0,0:0:0:0:
64,192,38074,1,0,0:0:0:0:
320,192,38166,1,0,0:0:0:0:
192,192,38166,1,0,0:0:0:0:
448,192,38166,1,0,0:0:0:0:
64,192,38258,1,0,0:0:0:0:
448,192,38350,1,0,0:0:0:0:
320,192,38442,1,0,0:0:0:0:
192,192,38535,1,0,0:0:0:0:
64,192,38535,1,0,0:0:0:0:
320,192,38627,1,0,0:0:0:0:
448,192,38719,1,0,0:0:0:0:
64,192,38719,1,0,0:0:0:0:
192,192,38719,1,0,0:0:0:0:
320,192,38811,1,0,0:0:0:0:
448,192,38903,1,0,0:0:0:0:
320,192,38903,1,0,0:0:0:0:
192,192,38903,1,0,0:0:0:0:
64,192,38903,1,0,0:0:0:0:
64,192,38995,1,0,0:0:0:0:
192,192,38995,1,0,0:0:0:0:
448,192,39087,1,0,0:0:0:0:
320,192,39087,1,0,0:0:0:0:
64,192,39179,1,0,0:0:0:0:
192,192,39179,1,0,0:0:0:0:
320,192,39271,1,0,0:0:0:0:
448,192,39271,1,0,0:0:0:0:
64,192,39271,1,0,0:0:0:0:
192,192,39363,1,0,0:0:0:0:
320,192,39455,1,0,0:0:0:0:
64,192,39547,1,0,0:0:0:0:
448,192,39639,1,0,0:0:0:0:
320,192,39639,1,0,0:0:0:0:
192,192,39731,1,0,0:0:0:0:
64,192,39823,1,0,0:0:0:0:
448,192,39823,1,0,0:0:0:0:
320,192,39823,1,0,0:0:0:0:
192,192,39915,1,0,0:0:0:0:
448,192,40007,1,0,0:0:0:0:
64,192,40007,1,0,0:0:0:0:
320,192,40099,1,0,0:0:0:0:
192,192,40191,1,0,0:0:0:0:
448,192,40191,1,0,0:0:0:0:
64,192,40191,1,0,0:0:0:0:
320,192,40283,1,0,0:0:0:0:
448,192,40375,1,0,0:0:0:0:
320,192,40375,1,0,0:0:0:0:
192,192,40375,1,0,0:0:0:0:
64,192,40375,1,0,0:0:0:0:
192,192,40467,1,0,0:0:0:0:
64,192,40467,1,0,0:0:0:0:
320,192,40559,1,0,0:0:0:0:
448,192,40559,1,0,0:0:0:0:
192,192,40651,1,0,0:0:0:0:
64,192,40651,1,0,0:0:0:0:
320,192,40743,1,0,0:0:0:0:
448,192,40743,1,0,0:0:0:0:
192,192,40835,1,0,0:0:0:0:
320,192,40927,1,0,0:0:0:0:
448,192,40927,1,0,0:0:0:0:
64,192,40927,1,0,0:0:0:0:
192,192,41019,1,0,0:0:0:0:
64,192,41111,1,0,0:0:0:0:
320,192,41111,1,0,0:0:0:0:
448,192,41111,1,0,0:0:0:0:
192,192,41203,1,0,0:0:0:0:
320,192,41295,1,0,0:0:0:0:
448,192,41295,1,0,0:0:0:0:
64,192,41387,1,0,0:0:0:0:
192,192,41479,1,0,0:0:0:0:
448,192,41479,1,0,0:0:0:0:
320,192,41571,1,0,0:0:0:0:
192,192,41663,1,0,0:0:0:0:
64,192,41663,1,0,0:0:0:0:
448,192,41663,1,0,0:0:0:0:
320,192,41755,1,0,0:0:0:0:
64,192,41847,1,0,0:0:0:0:
192,192,41847,1,0,0:0:0:0:
320,192,41847,1,0,0:0:0:0:
448,192,41847,1,0,0:0:0:0:
192,192,41939,1,0,0:0:0:0:
64,192,41939,1,0,0:0:0:0:
320,192,42031,1,0,0:0:0:0:
448,192,42031,1,0,0:0:0:0:
192,192,42123,1,0,0:0:0:0:
64,192,42123,1,0,0:0:0:0:
64,192,42215,1,0,0:0:0:0:
448,192,42215,1,0,0:0:0:0:
320,192,42215,1,0,0:0:0:0:
192,192,42308,1,0,0:0:0:0:
448,192,42400,1,0,0:0:0:0:
320,192,42400,1,0,0:0:0:0:
64,192,42492,1,0,0:0:0:0:
320,192,42584,1,0,0:0:0:0:
192,192,42584,1,0,0:0:0:0:
448,192,42584,1,0,0:0:0:0:
64,192,42676,1,0,0:0:0:0:
448,192,42768,1,0,0:0:0:0:
320,192,42814,1,0,0:0:0:0:
192,192,42860,1,0,0:0:0:0:
64,192,42906,1,0,0:0:0:0:
448,192,42952,1,0,0:0:0:0:
320,192,42998,1,0,0:0:0:0:
192,192,43044,1,0,0:0:0:0:
64,192,43090,1,0,0:0:0:0:
320,192,43136,1,0,0:0:0:0:
448,192,43136,1,0,0:0:0:0:
64,192,43320,1,0,0:0:0:0:
192,192,43320,1,0,0:0:0:0:
320,192,43320,1,0,0:0:0:0:
448,192,43320,1,0,0:0:0:0:
