osu file format v14

[General]
AudioFilename: iconoclasm.mp3
AudioLeadIn: 0
PreviewTime: 90358
Countdown: 0
SampleSet: Soft
StackLeniency: 0.3
Mode: 0
LetterboxInBreaks: 0
WidescreenStoryboard: 0

[Editor]
DistanceSpacing: 1.3
BeatDivisor: 4
GridSize: 4
TimelineZoom: 1.4

[Metadata]
Title:Idola
TitleUnicode:Idola
Artist:iconoclasm feat.GUMI
ArtistUnicode:iconoclasm feat.GUMI
Creator:toybot
Version:Hyper
Source:beatmania IIDX 21 SPADA
Tags:meg image- dj TAKA wac megpoid vocaloid bemani メグッポイド グミ ボーカロイド
BeatmapID:1161003
BeatmapSetID:547821

[Difficulty]
HPDrainRate:5
CircleSize:3.8
OverallDifficulty:6
ApproachRate:8
SliderMultiplier:1.4
SliderTickRate:1

[Events]
//Background and Video events
0,0,"BG.jpg",0,0
//Break Periods
2,10977,14355
2,47992,51221
2,110081,113310
//Storyboard Layer 0 (Background)
//Storyboard Layer 1 (Fail)
//Storyboard Layer 2 (Pass)
//Storyboard Layer 3 (Foreground)
//Storyboard Sound Samples

[TimingPoints]
1225,298.507462686567,4,2,1,60,1,0
1225,-133.333333333333,4,2,1,60,0,0
8239,-111.111111111111,4,2,1,50,0,0
8836,-111.111111111111,4,2,1,60,0,0
9433,-111.111111111111,4,2,1,70,0,0
10030,-111.111111111111,4,2,1,70,0,0
10329,-90.9090909090909,4,2,1,70,0,0
15105,-111.111111111111,4,2,1,50,0,0
20329,-111.111111111111,4,2,1,60,0,0
23911,-111.111111111111,4,2,1,60,0,0
24210,-111.111111111111,4,2,1,60,0,0
24508,-111.111111111111,4,2,1,60,0,0
24807,-111.111111111111,4,2,1,60,0,0
28836,-111.111111111111,4,2,1,40,0,0
29732,-111.111111111111,4,2,1,45,0,0
30926,-111.111111111111,4,2,1,50,0,0
32120,-111.111111111111,4,2,1,55,0,0
33463,-111.111111111111,4,2,1,60,0,0
48090,-111.111111111111,4,2,1,40,0,0
50478,-111.111111111111,4,2,1,20,0,0
50627,-111.111111111111,4,2,1,40,0,0
50926,-111.111111111111,4,2,1,20,0,0
51075,-111.111111111111,4,2,1,40,0,0
52568,-111.111111111111,4,2,1,60,0,0
61822,-111.111111111111,4,2,1,60,0,0
62120,-111.111111111111,4,2,1,60,0,0
71672,-133.333333333333,4,2,1,40,0,0
77642,-111.111111111111,4,2,1,60,0,0
78836,-111.111111111111,4,2,1,40,0,0
80030,-111.111111111111,4,2,1,60,0,0
81224,-111.111111111111,4,2,1,50,0,0
87792,-111.111111111111,4,2,1,5,0,0
88090,-111.111111111111,4,2,1,50,0,0
88389,-133.333333333333,4,2,1,50,0,0
89583,-100,4,2,1,70,0,0
90777,-100,4,2,1,70,0,1
109881,-111.111111111111,4,2,1,60,0,0
114657,-111.111111111111,4,2,1,60,0,0
119433,-100,4,2,1,60,0,1
124210,-111.111111111111,4,2,1,60,0,0

[Colours]
Combo1 : 141,69,228
Combo2 : 137,227,243
Combo3 : 72,154,255
Combo4 : 10,53,143

[HitObjects]
124,132,926,5,2,0:0:0:0:
124,132,1225,2,0,P|168:112|272:212,1,210.000008010865,4|0,0:0|0:0,0:0:0:0:
364,260,2120,1,0,0:0:0:0:
364,260,2269,6,0,P|380:216|368:152,1,105.000004005432,2|0,0:0|0:0,0:0:0:0:
412,96,2717,2,0,P|384:72|348:64,1,52.5000020027161,0|0,0:0|0:0,0:0:0:0:
320,12,3016,2,0,P|267:12|216:44,1,105.000004005432,0|0,0:0|0:0,0:0:0:0:
108,76,3613,6,0,P|164:88|196:184,1,157.500006008148,2|0,0:0|0:0,0:0:0:0:
240,236,4210,2,0,P|222:181|289:105,1,157.500006008148,2|0,0:0|0:0,0:0:0:0:
313,42,4807,6,0,L|328:160,1,105.000004005432,2|0,0:0|0:0,0:0:0:0:
396,224,5404,1,2,0:0:0:0:
396,224,5553,2,0,L|456:216,2,52.5000020027161,0|0|0,0:0|0:0|0:0,0:0:0:0:
336,276,6001,6,0,L|228:264,1,105.000004005432,2|0,0:0|0:0,0:0:0:0:
136,304,6598,2,0,P|128:256|152:200,1,105.000004005432,2|0,0:0|0:0,0:0:0:0:
244,160,7195,6,0,P|263:112|256:60,1,105.000004005432,2|0,0:0|0:0,0:0:0:0:
196,16,7642,1,0,0:0:0:0:
140,68,7792,2,0,L|35:79,1,105.000004005432,2|2,0:0|0:0,0:0:0:0:
8,152,8239,6,0,L|16:200,2,31.4999990386963,0|0|4,1:0|1:0|3:2,0:0:0:0:
136,168,8836,6,0,L|118:213,2,31.4999990386963,0|0|4,1:0|1:0|3:2,0:0:0:0:
238,245,9433,6,0,L|200:275,2,31.4999990386963,0|0|4,1:0|1:0|3:2,0:0:0:0:
287,362,10030,6,0,L|239:370,2,31.4999990386963,0|0|8,1:0|1:0|3:2,0:0:0:0:
188,344,10329,6,0,B|244:336|244:336|276:312|276:312|340:301,1,154.000004699707,4|0,1:2|3:0,0:0:0:0:
412,288,10777,1,4,1:0:0:0:
100,168,15105,6,0,L|88:100,2,62.9999980773926,2|2|2,0:0|0:0|0:0,0:0:0:0:
168,204,15553,2,0,P|228:212|292:156,1,125.999996154785,2|0,0:0|3:0,0:0:0:0:
348,108,16001,1,0,0:0:0:0:
428,164,16150,2,0,P|432:208|432:240,1,62.9999980773926,2|0,0:0|0:0,0:0:0:0:
284,240,16448,2,0,P|280:196|280:164,1,62.9999980773926,2|0,3:2|0:0,0:0:0:0:
348,108,16747,6,0,L|360:264,1,125.999996154785,2|0,0:0|3:0,0:0:0:0:
344,308,17195,2,0,P|311:311|268:316,1,62.9999980773926,0|2,0:0|0:0,0:0:0:0:
168,276,17493,1,0,3:0:0:0:
200,204,17642,2,0,P|208:164|208:136,1,62.9999980773926,0|0,3:0|3:0,0:0:0:0:
152,72,17941,6,0,L|76:80,1,62.9999980773926,0|0,1:0|1:0,0:0:0:0:
64,164,18239,2,0,L|126:157,1,62.9999980773926,8|0,0:0|0:0,0:0:0:0:
296,49,18538,2,0,L|220:57,1,62.9999980773926,0|0,1:0|1:0,0:0:0:0:
208,141,18836,2,0,L|270:134,1,62.9999980773926,8|0,0:0|1:0,0:0:0:0:
377,32,19135,6,0,L|368:112,1,62.9999980773926,0|0,1:0|1:0,0:0:0:0:
432,152,19433,2,0,L|422:231,1,62.9999980773926,8|0,1:2|1:0,0:0:0:0:
356,268,19732,1,0,1:0:0:0:
356,268,19807,1,0,1:0:0:0:
356,268,19881,2,0,P|304:256|272:252,1,62.9999980773926,0|8,1:0|1:2,0:0:0:0:
216,248,20180,1,4,1:2:0:0:
148,316,20329,6,0,P|120:264|140:188,1,125.999996154785,4|8,1:0|0:0,0:0:0:0:
192,144,20777,1,0,0:0:0:0:
148,76,20926,2,0,P|108:64|76:64,1,62.9999980773926,0|0,0:0|3:0,0:0:0:0:
232,44,21224,2,0,P|203:13|175:-2,1,62.9999980773926,8|0,0:0|0:0,0:0:0:0:
320,58,21523,6,0,B|368:48|368:48|400:64|464:56,1,125.999996154785,0|8,3:0|0:0,0:0:0:0:
496,120,21971,1,0,0:0:0:0:
424,180,22120,2,0,P|380:184|344:176,1,62.9999980773926,0|0,0:0|3:0,0:0:0:0:
352,264,22419,2,0,P|311:245|284:220,1,62.9999980773926,8|0,0:0|0:0,0:0:0:0:
246,299,22717,6,0,P|214:248|228:188,2,125.999996154785,0|8|0,3:0|0:0|3:0,0:0:0:0:
328,316,23463,1,0,3:0:0:0:
384,252,23613,2,0,L|372:172,1,62.9999980773926,8|0,0:0|0:0,0:0:0:0:
320,128,23911,6,0,L|248:116,1,62.9999980773926,0|0,1:0|0:0,0:0:0:0:
168,40,24210,2,0,L|177:102,1,62.9999980773926,8|0,0:0|0:0,0:0:0:0:
276,200,24508,2,0,L|204:188,1,62.9999980773926,0|0,3:0|1:0,0:0:0:0:
96,96,24807,2,0,L|105:158,1,62.9999980773926,8|0,0:0|0:0,0:0:0:0:
232,272,25105,6,0,B|176:264|176:264|132:284|80:272,1,125.999996154785,4|8,3:2|0:0,0:0:0:0:
36,244,25553,1,0,0:0:0:0:
12,168,25702,2,0,P|43:165|73:172,1,62.9999980773926,0|0,0:0|3:0,0:0:0:0:
200,132,26001,2,0,P|168:134|138:127,1,62.9999980773926,8|0,0:0|0:0,0:0:0:0:
80,32,26299,6,0,B|148:24|128:68|208:56,1,125.999996154785,0|8,3:0|0:0,0:0:0:0:
272,24,26747,1,0,0:0:0:0:
312,112,26896,2,0,P|360:128|436:80,1,125.999996154785,0|8,3:0|0:0,0:0:0:0:
480,44,27344,1,0,0:0:0:0:
492,140,27493,6,0,P|468:172|460:212,1,62.9999980773926,0|0,3:0|0:0,0:0:0:0:
376,212,27792,2,0,P|400:244|408:284,1,62.9999980773926,8|0,0:0|0:0,0:0:0:0:
456,324,28090,1,2,3:2:0:0:
340,308,28239,2,0,L|268:320,2,62.9999980773926,2|10|2,3:2|3:2|1:2,0:0:0:0:
406,265,28687,6,0,L|418:117,1,125.999996154785,4|8,1:2|3:2,0:0:0:0:
356,84,29135,2,0,L|348:32,2,31.4999990386963,0|0|8,3:0|3:0|3:2,0:0:0:0:
280,172,29433,2,0,L|272:224,2,31.4999990386963,0|0|8,3:0|3:0|3:2,0:0:0:0:
216,116,29732,1,0,3:0:0:0:
216,116,29807,1,0,3:0:0:0:
216,116,29881,6,0,L|136:124,1,62.9999980773926,8|0,3:2|3:0,0:0:0:0:
60,192,30180,2,0,L|140:200,1,62.9999980773926,8|0,3:2|3:0,0:0:0:0:
196,236,30478,1,8,3:2:0:0:
136,304,30627,2,0,L|132:344,2,31.4999990386963,0|0|8,3:0|3:0|3:2,0:0:0:0:
208,380,30926,1,0,3:0:0:0:
208,380,31001,1,0,3:0:0:0:
208,380,31075,6,0,L|216:300,1,62.9999980773926,8|0,3:2|3:0,0:0:0:0:
196,236,31374,1,8,3:2:0:0:
268,192,31523,2,0,L|260:156,2,31.4999990386963,0|0|8,3:0|3:0|3:2,0:0:0:0:
356,204,31822,2,0,L|348:168,2,31.4999990386963,0|0|8,3:0|3:0|3:2,0:0:0:0:
444,216,32120,1,0,3:0:0:0:
444,216,32195,1,0,3:0:0:0:
444,216,32269,6,0,L|436:284,1,62.9999980773926,8|0,3:2|3:0,0:0:0:0:
372,332,32568,2,0,L|304:324,1,62.9999980773926,8|0,3:2|3:0,0:0:0:0:
248,264,32866,2,0,P|188:272|128:284,1,94.499997116089,8|0,3:2|3:0,0:0:0:0:
136,284,33165,2,0,L|140:212,1,62.9999980773926,8|0,3:2|3:0,0:0:0:0:
116,148,33463,6,0,P|148:112|232:120,1,125.999996154785,8|8,3:2|3:2,0:0:0:0:
288,152,33911,1,0,3:0:0:0:
336,80,34060,2,0,P|340:44|336:12,2,62.9999980773926,8|0|8,3:2|0:0|3:2,0:0:0:0:
412,136,34508,1,0,3:0:0:0:
412,136,34583,1,0,3:0:0:0:
412,136,34657,6,0,B|404:208|444:184|436:260,1,125.999996154785,8|8,3:2|3:2,0:0:0:0:
376,312,35105,1,0,3:0:0:0:
300,272,35254,2,0,P|256:264|208:268,1,62.9999980773926,8|0,3:2|0:0,0:0:0:0:
240,180,35553,2,0,P|197:195|158:222,1,62.9999980773926,8|0,3:2|3:0,0:0:0:0:
124,252,35851,6,0,L|136:112,2,125.999996154785,8|8|8,3:2|3:2|3:2,0:0:0:0:
72,308,36598,1,0,0:0:0:0:
140,344,36747,2,0,L|208:348,1,62.9999980773926,8|0,3:2|0:0,0:0:0:0:
248,276,37045,6,0,L|252:236,2,31.4999990386963,8|0|0,1:2|3:0|1:0,0:0:0:0:
344,300,37344,2,0,L|327:263,2,31.4999990386963,8|0|0,1:2|3:0|1:0,0:0:0:0:
439,272,37642,2,0,L|406:248,2,31.4999990386963,0|0|2,1:0|0:0|1:2,0:0:0:0:
507,200,37941,2,0,L|466:196,3,31.4999990386963,4|0|0|0,1:2|0:0|1:0|1:0,0:0:0:0:
444,180,38239,6,0,P|416:124|440:52,1,125.999996154785,4|8,1:0|0:0,0:0:0:0:
364,28,38687,1,0,0:0:0:0:
304,72,38836,2,0,L|216:80,1,62.9999980773926,2|2,3:2|1:2,0:0:0:0:
164,40,39135,2,0,L|160:112,1,62.9999980773926,8|0,0:0|0:0,0:0:0:0:
100,148,39433,6,0,B|120:188|120:188|112:272,1,125.999996154785,0|8,1:0|0:0,0:0:0:0:
52,324,39881,1,0,0:0:0:0:
144,368,40030,2,0,P|180:360|224:360,1,62.9999980773926,2|2,3:2|1:2,0:0:0:0:
256,292,40329,2,0,P|292:300|336:300,1,62.9999980773926,8|0,0:0|0:0,0:0:0:0:
396,272,40627,6,0,P|408:224|352:160,1,125.999996154785,0|8,1:0|0:0,0:0:0:0:
304,120,41075,2,0,L|176:144,1,125.999996154785,0|2,0:0|1:2,0:0:0:0:
136,216,41523,1,10,0:0:0:0:
94,140,41672,1,0,0:0:0:0:
222,219,41822,6,0,P|232:280|228:308,1,62.9999980773926,0|0,1:0|0:0,0:0:0:0:
96,352,42120,2,0,P|87:321|86:290,1,62.9999980773926,8|0,0:0|0:0,0:0:0:0:
136,216,42419,1,0,3:0:0:0:
94,140,42568,2,0,L|36:128,2,31.4999990386963,0|0|8,1:0|0:0|1:2,0:0:0:0:
160,84,42866,1,0,1:0:0:0:
160,84,43016,6,0,B|212:80|212:80|232:69|232:69|302:64,1,125.999996154785,4|8,1:2|0:0,0:0:0:0:
360,40,43463,1,0,0:0:0:0:
408,104,43613,2,0,L|396:180,2,62.9999980773926,2|2|8,3:2|1:2|0:0,0:0:0:0:
472,204,44060,1,0,0:0:0:0:
472,204,44135,1,0,0:0:0:0:
472,204,44210,6,0,P|432:244|344:232,1,125.999996154785,0|10,1:0|0:0,0:0:0:0:
300,200,44657,1,0,0:0:0:0:
240,288,44807,2,0,P|228:336|228:364,1,62.9999980773926,2|2,3:2|1:2,0:0:0:0:
176,240,45105,2,0,P|141:275|127:299,1,62.9999980773926,8|0,0:0|0:0,0:0:0:0:
144,166,45404,6,0,B|96:160|96:160|48:184|8:176,1,125.999996154785,0|8,1:0|0:0,0:0:0:0:
40,96,45851,2,0,L|48:12,1,62.9999980773926,0|2,0:0|3:2,0:0:0:0:
128,20,46150,1,2,1:2:0:0:
196,68,46299,1,8,0:0:0:0:
272,32,46448,1,0,0:0:0:0:
340,80,46598,6,0,P|388:84|452:40,1,125.999996154785,0|8,1:0|0:0,0:0:0:0:
416,160,47045,1,0,1:0:0:0:
504,124,47195,2,0,L|492:200,1,62.9999980773926,8|0,3:2|0:0,0:0:0:0:
368,260,47493,2,0,L|358:209,2,31.4999990386963,8|0|8,3:2|3:0|3:2,0:0:0:0:
456,264,47792,5,4,1:0:0:0:
156,168,51971,6,0,L|148:128,3,31.4999990386963,8|8|8|8,0:0|0:0|0:0|0:0,0:0:0:0:
164,100,52269,1,8,0:0:0:0:
164,100,52568,6,0,P|224:84|292:132,1,125.999996154785,4|8,1:2|0:0,0:0:0:0:
348,248,53165,2,0,P|348:213|352:176,1,62.9999980773926,0|0,3:0|1:0,0:0:0:0:
408,136,53463,1,8,0:0:0:0:
352,72,53613,6,0,B|312:60|312:60|220:80,1,125.999996154785,0|0,0:0|0:0,0:0:0:0:
180,140,54060,1,8,0:0:0:0:
180,140,54210,1,0,0:0:0:0:
104,108,54359,2,0,P|84:64|84:32,1,62.9999980773926,0|0,3:0|0:0,0:0:0:0:
80,184,54657,2,0,P|40:155|24:128,1,62.9999980773926,8|0,0:0|1:0,0:0:0:0:
97,261,54956,6,0,L|220:236,1,125.999996154785,0|8,1:0|0:0,0:0:0:0:
340,184,55404,1,0,0:0:0:0:
301,257,55553,2,0,P|269:225|269:141,1,125.999996154785,0|8,3:0|0:0,0:0:0:0:
379,111,56001,1,0,0:0:0:0:
379,111,56150,6,0,P|411:143|411:227,2,125.999996154785,0|8|0,1:0|0:0|3:0,0:0:0:0:
300,76,56896,1,0,1:0:0:0:
265,147,57045,2,0,L|221:151,3,31.4999990386963,8|0|0|0,0:0|0:0|0:0|0:0,0:0:0:0:
196,136,57344,6,0,L|40:124,2,125.999996154785,2|8|2,1:0|1:2|3:1,0:0:0:0:
228,264,58090,1,2,1:0:0:0:
152,216,58239,2,0,L|84:208,1,62.9999980773926,8|0,0:0|0:0,0:0:0:0:
32,328,58538,6,0,P|88:340|144:288,1,125.999996154785,2|8,1:0|0:0,0:0:0:0:
152,216,58986,1,0,0:0:0:0:
228,264,59135,1,2,3:1:0:0:
240,179,59284,2,0,L|228:104,1,62.9999980773926,2|8,1:0|0:0,0:0:0:0:
288,56,59583,1,0,0:0:0:0:
288,56,59732,6,0,L|356:64,1,62.9999980773926,2|0,1:0|0:0,0:0:0:0:
392,148,60030,2,0,L|329:140,1,62.9999980773926,10|0,0:0|0:0,0:0:0:0:
228,200,60329,2,0,B|272:196|272:196|304:228|364:220,1,125.999996154785,2|10,3:1|0:0,0:0:0:0:
464,192,60777,1,0,1:0:0:0:
394,86,60926,6,0,P|386:116|391:147,1,62.9999980773926,2|8,1:0|0:0,0:0:0:0:
461,253,61224,2,0,P|468:222|463:191,1,62.9999980773926,8|2,0:0|0:1,0:0:0:0:
347,221,61523,2,0,L|355:269,2,31.4999990386963,2|0|0,1:0|0:0|0:0,0:0:0:0:
272,184,61822,1,8,1:2:0:0:
232,260,61971,1,0,1:0:0:0:
232,260,62120,6,0,L|160:272,1,62.9999980773926,4|2,1:2|0:0,0:0:0:0:
100,228,62419,2,0,L|88:156,1,62.9999980773926,8|2,0:0|0:0,0:0:0:0:
160,124,62717,2,0,L|232:136,1,62.9999980773926,0|2,1:2|1:2,0:0:0:0:
292,92,63016,2,0,L|304:20,1,62.9999980773926,8|2,0:0|0:0,0:0:0:0:
384,12,63314,6,0,L|364:148,1,125.999996154785,0|8,1:0|0:0,0:0:0:0:
394,213,63762,1,2,0:0:0:0:
469,182,63911,2,0,P|441:146|353:142,1,125.999996154785,0|8,1:0|0:0,0:0:0:0:
304,188,64359,1,2,1:2:0:0:
304,188,64508,6,0,L|228:180,1,62.9999980773926,0|2,1:0|0:0,0:0:0:0:
156,152,64807,2,0,L|164:232,1,62.9999980773926,8|2,0:0|0:0,0:0:0:0:
188,296,65105,2,0,L|52:280,1,125.999996154785,0|8,1:0|0:0,0:0:0:0:
24,208,65553,1,2,0:0:0:0:
24,208,65702,6,0,L|16:128,1,62.9999980773926,0|2,1:0|0:0,0:0:0:0:
62,281,66001,2,0,L|68:343,1,62.9999980773926,8|0,0:0|0:0,0:0:0:0:
108,196,66299,2,0,L|100:116,1,62.9999980773926,0|2,1:0|1:2,0:0:0:0:
146,269,66598,2,0,L|152:331,1,62.9999980773926,8|0,0:0|0:0,0:0:0:0:
224,356,66896,6,0,P|280:364|344:300,1,125.999996154785,0|12,1:0|0:0,0:0:0:0:
348,252,67344,1,0,0:0:0:0:
288,176,67493,2,0,L|308:24,1,125.999996154785,0|12,1:0|0:0,0:0:0:0:
380,12,67941,1,0,0:0:0:0:
380,12,68090,6,0,P|388:68|384:92,1,62.9999980773926,0|2,1:0|0:0,0:0:0:0:
216,104,68389,2,0,P|208:48|212:24,1,62.9999980773926,12|0,0:0|0:0,0:0:0:0:
304,51,68687,2,0,L|288:176,1,125.999996154785,0|12,1:0|0:0,0:0:0:0:
348,256,69135,1,2,0:0:0:0:
444,240,69284,6,0,P|468:192|436:112,1,125.999996154785,0|12,1:0|0:0,0:0:0:0:
384,79,69732,1,0,0:0:0:0:
312,120,69881,2,0,P|268:128|228:120,1,62.9999980773926,0|2,1:0|1:2,0:0:0:0:
248,208,70180,2,0,P|205:192|175:166,1,62.9999980773926,6|8,1:2|0:0,0:0:0:0:
148,252,70478,6,0,P|119:217|124:136,1,125.999996154785,0|8,1:0|0:0,0:0:0:0:
174,75,70926,1,0,1:0:0:0:
250,126,71075,1,8,1:2:0:0:
250,126,71150,1,0,1:0:0:0:
250,126,71224,1,2,0:0:0:0:
332,112,71374,2,0,L|376:104,3,31.4999990386963,8|0|0|0,1:2|3:0|3:0|3:0,0:0:0:0:
400,100,71672,6,0,L|384:220,2,105.000004005432,4|2|2,0:0|0:0|0:0,0:0:0:0:
468,204,72568,2,0,L|456:272,1,52.5000020027161,0|0,0:0|0:0,0:0:0:0:
408,312,72866,2,0,L|524:304,2,105.000004005432,0|2|2,0:0|0:0|0:0,0:0:0:0:
284,332,73762,2,0,L|293:280,1,52.5000020027161,0|0,0:0|0:0,0:0:0:0:
268,208,74060,6,0,P|216:200|160:240,1,105.000004005432,0|2,0:0|0:0,0:0:0:0:
120,284,74508,1,0,0:0:0:0:
60,228,74657,2,0,P|44:180|64:116,1,105.000004005432,2|0,0:0|0:0,0:0:0:0:
120,76,75105,1,0,0:0:0:0:
196,104,75254,6,0,L|320:88,1,105.000004005432,0|2,0:0|0:0,0:0:0:0:
260,196,75851,2,0,L|384:180,1,105.000004005432,0|2,0:0|0:0,0:0:0:0:
324,288,76448,5,0,3:0:0:0:
428,274,77045,1,0,3:0:0:0:
324,288,77642,6,0,B|276:284|276:284|252:268|252:268|196:264,1,125.999996154785,0|4,1:0|0:0,0:0:0:0:
100,188,78239,2,0,B|148:184|148:184|172:168|172:168|228:164,1,125.999996154785,0|4,1:0|0:0,0:0:0:0:
300,84,78836,5,0,3:0:0:0:
312,192,79433,1,0,3:0:0:0:
300,84,80030,6,0,B|252:80|252:80|228:64|228:64|172:60,1,125.999996154785,0|4,1:0|0:0,0:0:0:0:
100,188,80627,2,0,B|148:184|148:184|172:168|172:168|228:164,1,125.999996154785,0|4,1:0|0:0,0:0:0:0:
312,192,81224,6,0,P|360:200|428:152,1,125.999996154785,6|0,0:3|0:0,0:0:0:0:
408,72,81722,1,0,0:0:0:0:
380,88,81822,2,0,L|244:76,1,125.999996154785,6|0,0:3|0:0,0:0:0:0:
160,48,82319,1,0,0:0:0:0:
136,72,82419,6,0,P|117:109|116:150,1,83.9999974365235,6|0,0:3|0:0,0:0:0:0:
40,172,82717,2,0,P|62:206|98:228,1,83.9999974365235,0|0,0:0|0:0,0:0:0:0:
78,305,83016,2,0,P|119:302|155:282,1,83.9999974365235,6|0,0:3|1:0,0:0:0:0:
208,224,83314,2,0,L|200:168,2,41.9999987182618,0|0|0,1:0|1:0|1:0,0:0:0:0:
276,264,83613,5,6,0:3:0:0:
324,80,83911,1,0,1:0:0:0:
177,200,84210,1,6,0:3:0:0:
366,189,84508,1,0,1:0:0:0:
206,86,84807,6,0,L|58:94,2,125.999996154785,6|0|6,0:3|1:0|1:3,0:0:0:0:
324,80,85702,2,0,L|332:28,2,41.9999987182618,0|0|0,3:0|3:0|3:0,0:0:0:0:
364,144,86001,5,4,1:0:0:0:
256,192,86150,12,0,88090,1:0:0:0:
176,104,88389,5,4,1:0:0:0:
176,104,88986,2,2,B|296:88|296:88|256:128,1,157.500006008148,0|0,0:0|0:0,0:0:0:0:
220,180,89583,6,0,L|208:240,2,46.6666666666667,2|2|2,1:0|3:1|3:1,0:0:0:0:
304,200,89881,2,0,L|292:260,2,46.6666666666667,2|2|2,1:1|3:1|3:1,0:0:0:0:
388,220,90180,1,4,1:0:0:0:
388,220,90777,6,0,P|416:176|384:84,1,140,4|8,1:0|0:0,0:0:0:0:
328,52,91224,1,2,0:0:0:0:
256,108,91374,2,0,P|200:116|160:112,1,70,0|2,3:0|1:2,0:0:0:0:
140,44,91672,2,0,P|196:36|236:40,1,70,8|0,0:0|0:0,0:0:0:0:
200,200,91971,6,0,L|52:180,1,140,0|8,1:0|0:0,0:0:0:0:
4,128,92419,1,2,0:0:0:0:
16,252,92568,2,0,L|24:340,1,70,0|2,3:0|1:2,0:0:0:0:
96,352,92866,1,8,0:0:0:0:
160,288,93016,6,0,B|232:272|212:324|300:308,1,140,4|0,1:2|0:0,0:0:0:0:
376,308,93463,2,0,P|380:268|368:220,1,70,8|2,0:0|0:0,0:0:0:0:
352,160,93762,2,0,L|356:84,1,70,0|2,3:0|1:2,0:0:0:0:
260,112,94060,2,0,L|256:36,1,70,8|0,0:0|0:0,0:0:0:0:
168,144,94359,6,0,B|128:136|128:136|80:164|16:156,1,140,0|8,1:0|0:0,0:0:0:0:
136,232,94807,1,2,0:0:0:0:
224,216,94956,1,0,3:0:0:0:
296,272,95105,2,0,L|368:260,1,70,2|8,1:2|0:0,0:0:0:0:
444,304,95404,1,0,0:0:0:0:
444,304,95553,6,0,P|456:260|404:176,1,140,0|8,1:0|0:0,0:0:0:0:
416,100,96001,1,2,0:0:0:0:
416,100,96075,1,2,0:0:0:0:
416,100,96150,2,0,L|328:92,1,70,2|0,3:2|0:0,0:0:0:0:
256,120,96448,2,0,P|244:164|252:200,1,70,8|0,0:0|0:0,0:0:0:0:
176,240,96747,6,0,P|152:192|168:88,1,140,0|8,1:0|0:0,0:0:0:0:
216,48,97195,1,2,0:0:0:0:
256,120,97344,2,0,L|340:108,1,70,2|0,3:2|1:0,0:0:0:0:
448,160,97642,2,0,L|378:169,1,70,8|0,0:0|0:0,0:0:0:0:
287,247,97941,6,0,B|340:240|340:240|368:252|368:252|452:242,2,140,0|8|0,1:0|0:0|3:0,0:0:0:0:
216,292,98687,1,0,1:0:0:0:
156,228,98836,2,0,P|144:184|148:144,1,70,8|2,0:0|0:0,0:0:0:0:
156,132,99060,1,2,0:0:0:0:
156,132,99135,6,0,L|240:124,1,70,2|0,1:2|0:0,0:0:0:0:
360,68,99433,2,0,L|290:74,1,70,10|0,0:0|0:0,0:0:0:0:
232,208,99732,1,2,1:2:0:0:
268,284,99881,1,2,1:2:0:0:
348,248,100030,1,8,0:0:0:0:
312,168,100180,1,0,0:0:0:0:
312,168,100254,1,0,0:0:0:0:
312,168,100329,6,0,P|290:122|330:42,1,140,4|8,1:0|0:0,0:0:0:0:
367,112,100777,2,0,L|207:128,1,140,2|0,0:0|1:0,0:0:0:0:
160,180,101224,2,0,L|72:172,1,70,8|0,0:0|0:0,0:0:0:0:
64,172,101448,1,0,0:0:0:0:
64,171,101523,6,0,P|49:203|49:238,1,70,0|0,1:0|0:0,0:0:0:0:
224,308,101822,2,0,P|238:276|238:241,1,70,8|2,0:0|0:0,0:0:0:0:
176,104,102120,1,0,3:0:0:0:
160,180,102269,2,0,L|144:272,1,70,0|8,1:0|0:0,0:0:0:0:
224,308,102568,6,0,B|308:316|272:264|376:276,1,140,0|0,1:0|0:0,0:0:0:0:
476,220,103016,2,0,B|392:228|428:176|324:188,1,140,8|0,0:0|3:0,0:0:0:0:
199,224,103463,2,0,P|233:216|262:195,1,70,0|8,1:0|0:0,0:0:0:0:
296,112,103762,1,0,0:0:0:0:
240,48,103911,6,0,P|203:45|148:40,1,70,2|0,1:2|0:0,0:0:0:0:
160,136,104210,2,0,P|129:115|84:83,1,70,8|0,0:0|0:0,0:0:0:0:
46,172,104508,2,0,P|29:139|6:88,2,70,2|0|8,3:2|1:0|0:0,0:0:0:0:
116,216,104956,1,0,0:0:0:0:
64,288,105105,6,0,P|116:304|200:240,1,140,0|12,1:0|0:0,0:0:0:0:
232,188,105553,1,0,0:0:0:0:
308,224,105702,2,0,P|360:208|444:272,1,140,0|12,3:0|0:0,0:0:0:0:
484,312,106150,1,0,0:0:0:0:
512,232,106299,6,0,L|492:88,1,140,0|12,1:0|0:0,0:0:0:0:
424,48,106747,1,0,0:0:0:0:
380,120,106896,2,0,P|372:176|380:212,1,70,0|0,3:0|1:0,0:0:0:0:
300,100,107195,2,0,P|292:65|293:31,1,70,8|2,0:0|0:0,0:0:0:0:
304,4,107419,1,2,0:0:0:0:
304,4,107493,6,0,L|212:16,1,70,2|0,1:2|0:0,0:0:0:0:
116,76,107792,2,0,B|172:68|172:68|204:104|264:92,1,140,12|0,0:0|3:0,0:0:0:0:
340,84,108239,1,0,1:0:0:0:
392,156,108389,2,0,P|400:200|388:244,1,70,8|0,0:0|0:0,0:0:0:0:
320,264,108687,6,0,L|240:252,1,70,0|0,3:0|3:0,0:0:0:0:
176,128,108986,2,0,L|188:208,1,70,12|0,1:2|3:0,0:0:0:0:
352,188,109284,1,4,1:2:0:0:
352,188,109433,2,0,L|272:176,1,70,0|8,3:0|1:2,0:0:0:0:
256,92,109732,2,0,L|250:40,2,35,0|0|4,1:0|1:0|1:0,1:0:0:0:
140,176,114060,6,0,L|192:184,3,31.4999990386963,0|0|0|0,1:0|1:0|1:0|1:0,0:0:0:0:
196,184,114359,1,0,1:0:0:0:
200,296,114657,6,0,B|280:300|304:208|304:208|304:276|336:308,1,251.999992309571,6|0,1:0|0:0,0:0:0:0:
428,336,115553,1,2,1:0:0:0:
428,336,115702,6,0,L|440:136,1,188.999994232178,6|0,1:0|0:0,0:0:0:0:
356,88,116448,1,2,0:0:0:0:
284,160,116747,1,2,0:0:0:0:
188,132,117045,6,0,P|120:128|60:120,1,125.999996154785,6|0,1:0|0:0,0:0:0:0:
62,263,117642,2,0,P|125:254|188:252,1,125.999996154785,6|0,1:0|0:0,0:0:0:0:
296,304,118239,6,0,L|304:360,2,41.9999987182618,4|0|0,1:2|3:0|3:0,0:0:0:0:
288,224,118538,2,0,L|343:233,2,41.9999987182618,2|2|0,3:0|3:0|0:0,0:0:0:0:
209,206,118836,2,0,L|235:155,2,41.9999987182618,8|8|8,3:0|3:0|3:0,0:0:0:0:
167,275,119135,2,0,L|127:234,2,41.9999987182618,4|4|4,3:0|3:0|3:0,0:0:0:0:
219,336,119433,6,0,B|268:332|268:332|300:308|300:308|384:300,1,140,4|8,1:2|0:0,0:0:0:0:
432,288,119881,1,0,0:0:0:0:
432,288,120030,2,0,P|440:244|428:196,1,70,0|0,3:0|1:0,0:0:0:0:
312,152,120329,2,0,P|304:196|316:244,1,70,8|0,0:0|0:0,0:0:0:0:
400,140,120627,6,0,P|372:84|284:64,1,140,0|8,1:0|0:0,0:0:0:0:
216,80,121075,1,0,0:0:0:0:
242,162,121224,2,0,L|311:151,1,70,0|0,3:0|1:0,0:0:0:0:
371,50,121523,2,0,L|301:60,1,70,8|0,0:0|3:0,0:0:0:0:
216,80,121822,6,0,B|168:84|136:44|136:44|92:92,1,140,0|12,1:0|0:0,0:0:0:0:
24,116,122269,1,0,1:0:0:0:
16,200,122419,2,0,B|64:204|96:164|96:164|140:212,1,140,0|12,3:0|0:0,0:0:0:0:
184,264,122866,1,0,1:0:0:0:
184,264,123016,6,0,L|260:252,1,70,0|0,1:0|1:0,0:0:0:0:
352,188,123314,2,0,L|276:176,1,70,12|2,0:0|1:2,0:0:0:0:
212,132,123613,1,2,1:0:0:0:
272,68,123762,2,0,B|356:56|324:108|424:92,1,140,4|8,1:2|3:0,0:0:0:0:
465,30,124210,5,4,1:0:0:0:
