osu file format v14

[General]
AudioFilename: iconoclasm.mp3
AudioLeadIn: 0
PreviewTime: 90358
Countdown: 0
SampleSet: Soft
StackLeniency: 0.3
Mode: 0
LetterboxInBreaks: 0
WidescreenStoryboard: 0

[Editor]
DistanceSpacing: 0.6
BeatDivisor: 3
GridSize: 4
TimelineZoom: 1.4

[Metadata]
Title:Idola
TitleUnicode:Idola
Artist:iconoclasm feat.GUMI
ArtistUnicode:iconoclasm feat.GUMI
Creator:toybot
Version:Final Deus
Source:beatmania IIDX 21 SPADA
Tags:meg image- dj TAKA wac megpoid vocaloid bemani メグッポイド グミ ボーカロイド
BeatmapID:1160206
BeatmapSetID:547821

[Difficulty]
HPDrainRate:6
CircleSize:4.5
OverallDifficulty:9
ApproachRate:9.3
SliderMultiplier:1.8
SliderTickRate:1

[Events]
//Background and Video events
0,0,"BG.jpg",0,0
//Break Periods
2,10977,14551
2,110081,113506
//Storyboard Layer 0 (Background)
//Storyboard Layer 1 (Fail)
//Storyboard Layer 2 (Pass)
//Storyboard Layer 3 (Foreground)
//Storyboard Sound Samples

[TimingPoints]
1225,298.507462686567,4,2,1,60,1,0
1225,-200,4,2,1,60,0,0
8239,-200,4,2,1,50,0,0
8836,-200,4,2,1,60,0,0
9433,-200,4,2,1,70,0,0
10030,-100,4,2,1,70,0,0
10329,-66.6666666666667,4,2,1,70,0,0
15105,-133.333333333333,4,2,1,50,0,0
20329,-100,4,2,1,60,0,0
23911,-166.666666666667,4,2,1,60,0,0
24210,-142.857142857143,4,2,1,60,0,0
24508,-125,4,2,1,60,0,0
24807,-111.111111111111,4,2,1,60,0,0
28836,-111.111111111111,4,2,1,40,0,0
29732,-111.111111111111,4,2,1,45,0,0
30926,-111.111111111111,4,2,1,50,0,0
32120,-111.111111111111,4,2,1,55,0,0
33463,-111.111111111111,4,2,1,60,0,0
48090,-111.111111111111,4,2,1,40,0,0
50180,-200,4,2,1,40,0,0
50478,-200,4,2,1,20,0,0
50627,-200,4,2,1,40,0,0
50926,-200,4,2,1,20,0,0
51075,-200,4,2,1,40,0,0
52568,-111.111111111111,4,2,1,60,0,0
61822,-80,4,2,1,60,0,0
62120,-111.111111111111,4,2,1,60,0,0
71672,-200,4,2,1,40,0,0
77642,-100,4,2,1,60,0,0
78836,-200,4,2,1,40,0,0
80030,-100,4,2,1,60,0,0
81224,-133.333333333333,4,2,1,50,0,0
87792,-133.333333333333,4,2,1,5,0,0
88090,-133.333333333333,4,2,1,50,0,0
89583,-133.333333333333,4,2,1,70,0,0
90777,-100,4,2,1,70,0,1
109881,-100,4,2,1,60,0,0
114657,-133.333333333333,4,2,1,60,0,0
119433,-100,4,2,1,60,0,1
123762,-66.6666666666667,4,2,1,60,0,1
124210,-66.6666666666667,4,2,1,60,0,0

[Colours]
Combo1 : 141,69,228
Combo2 : 137,227,243
Combo3 : 72,154,255
Combo4 : 10,53,143

[HitObjects]
319,75,926,5,2,0:0:0:0:
64,108,1225,6,0,B|152:116|152:116|232:68|232:68|320:76,1,270,4|0,0:0|0:0,0:0:0:0:
304,182,2269,6,0,B|343:152|343:152|250:142|250:142|169:191,1,225,2|0,0:0|0:0,0:0:0:0:
304,182,3314,1,0,0:0:0:0:
428,179,3613,6,0,P|428:121|447:31,1,135,2|0,0:0|0:0,0:0:0:0:
304,182,4210,2,0,P|317:248|318:315,1,135,2|0,0:0|0:0,0:0:0:0:
155,252,4807,6,0,P|190:229|203:302,1,135,2|0,0:0|0:0,0:0:0:0:
81,287,5404,1,2,0:0:0:0:
132,170,5553,2,0,P|177:154|229:162,1,90
228,162,5926,1,0,0:0:0:0:
238,166,6001,6,0,L|224:60,1,90,2|0,0:0|0:0,0:0:0:0:
272,8,6448,1,0,0:0:0:0:
312,112,6598,2,0,P|360:108|416:84,1,90,2|0,0:0|0:0,0:0:0:0:
199,271,7195,6,0,P|155:275|112:290,1,90,2|0,0:0|0:0,0:0:0:0:
56,344,7642,1,0,0:0:0:0:
88,216,7792,2,0,L|80:156,1,45,2|0,0:0|0:0,0:0:0:0:
44,100,8090,1,2,0:0:0:0:
192,144,8239,5,0,1:0:0:0:
190,155,8314,1,0,1:0:0:0:
188,166,8389,1,4,3:2:0:0:
288,156,8837,5,0,1:0:0:0:
284,172,8912,1,0,1:0:0:0:
280,189,8987,1,4,3:2:0:0:
391,170,9433,5,0,1:0:0:0:
385,194,9508,1,0,1:0:0:0:
380,219,9583,1,4,3:2:0:0:
493,187,10030,5,0,1:0:0:0:
484,223,10105,1,0,1:0:0:0:
475,259,10180,1,8,3:2:0:0:
288,156,10329,6,0,P|214:139|256:272,1,270.000010299683,4|0,1:2|3:0,0:0:0:0:
240,208,10702,1,0,3:0:0:0:
240,208,10777,1,4,1:0:0:0:
384,84,15105,5,2,0:0:0:0:
384,84,15254,1,2,0:0:0:0:
384,84,15404,1,2,0:0:0:0:
432,16,15553,5,2,0:0:0:0:
301,76,15702,1,0,3:0:0:0:
301,76,15777,1,0,3:0:0:0:
301,76,15851,1,0,3:0:0:0:
419,160,16001,1,0,0:0:0:0:
376,16,16150,6,0,L|384:84,1,67.5000025749208,2|0,0:0|0:0,0:0:0:0:
426,227,16448,2,0,L|419:160,1,67.5000025749208,2|0,3:2|0:0,0:0:0:0:
301,76,16747,6,0,L|316:228,1,135.000005149842,2|0,0:0|3:0,0:0:0:0:
419,160,17195,1,0,0:0:0:0:
228,312,17344,2,0,P|222:278|220:245,1,67.5000025749208,2|0,0:0|3:0,0:0:0:0:
384,292,17642,2,0,P|381:325|376:358,1,67.5000025749208,0|0,3:0|3:0,0:0:0:0:
120,260,17941,5,0,1:0:0:0:
240,156,18090,1,0,1:0:0:0:
240,156,18165,1,0,1:0:0:0:
240,156,18239,1,8,0:0:0:0:
90,105,18389,1,0,0:0:0:0:
215,308,18538,5,0,1:0:0:0:
265,52,18687,1,0,1:0:0:0:
265,52,18762,1,0,1:0:0:0:
265,52,18836,1,8,0:0:0:0:
17,146,18986,1,0,1:0:0:0:
192,148,19135,5,0,1:0:0:0:
176,144,19210,1,0,1:0:0:0:
160,140,19284,1,0,1:0:0:0:
316,212,19433,5,8,1:2:0:0:
336,206,19508,1,0,1:0:0:0:
357,201,19582,1,0,1:0:0:0:
172,276,19732,5,0,1:0:0:0:
146,268,19807,1,0,1:0:0:0:
120,260,19881,1,0,1:0:0:0:
328,340,20030,5,8,1:2:0:0:
361,329,20105,1,0,1:0:0:0:
394,318,20180,2,0,L|388:368,1,33.7500012874604,4|0,1:2|0:0,0:0:0:0:
488,172,20329,6,0,L|472:368,1,180,4|8,1:0|0:0,0:0:0:0:
342,237,20777,1,0,0:0:0:0:
342,237,20851,1,0,0:0:0:0:
342,237,20926,6,0,P|330:189|338:133,1,90,0|0,0:0|3:0,0:0:0:0:
377,43,21224,1,8,0:0:0:0:
469,92,21374,1,0,0:0:0:0:
469,92,21448,1,0,0:0:0:0:
469,92,21523,6,0,B|365:112|393:44|297:60,1,180,0|8,3:0|0:0,0:0:0:0:
156,160,21971,1,0,0:0:0:0:
158,182,22045,1,0,0:0:0:0:
160,204,22120,1,0,0:0:0:0:
216,92,22269,5,0,3:0:0:0:
76,192,22419,1,8,0:0:0:0:
236,256,22568,1,0,0:0:0:0:
236,256,22642,1,0,0:0:0:0:
236,255,22717,6,0,P|280:248|325:247,1,90,0|0,3:0|3:0,0:0:0:0:
224,332,23016,2,0,P|291:323|416:323,1,180,8|0,0:0|3:0,0:0:0:0:
512,304,23463,1,0,3:0:0:0:
498,197,23613,1,8,0:0:0:0:
391,211,23762,1,0,0:0:0:0:
416,32,23911,6,0,P|432:80|432:108,1,53.9999983520508,0|0,1:0|0:0,0:0:0:0:
236,192,24210,2,0,P|236:144|248:104,1,62.9999980773926,8|0,0:0|0:0,0:0:0:0:
320,24,24433,1,8,0:0:0:0:
320,24,24508,6,0,P|328:68|328:120,1,72,0|0,3:0|1:0,0:0:0:0:
104,72,24807,2,0,L|200:48,1,80.9999975280763,8|0,0:0|0:0,0:0:0:0:
84,152,25030,1,8,0:0:0:0:
84,152,25105,6,0,L|268:104,1,161.999995056153,4|8,3:2|0:0,0:0:0:0:
300,308,25553,5,0,0:0:0:0:
284,304,25627,1,0,0:0:0:0:
268,300,25702,1,0,0:0:0:0:
180,328,25851,1,0,3:0:0:0:
88,312,26001,1,8,0:0:0:0:
182,341,26150,1,0,0:0:0:0:
164,159,26299,6,0,L|172:240,1,80.9999975280763,0|0,3:0|3:0,0:0:0:0:
296,72,26598,2,0,B|248:80|212:64|212:64|164:80,1,121.499996292114,8|8,0:0|0:0,0:0:0:0:
164,80,26896,2,0,L|83:72,1,80.9999975280763,0|0,3:0|3:0,0:0:0:0:
272,296,27195,2,0,P|316:280|404:276,1,121.499996292114,8|0,0:0|0:0,0:0:0:0:
404,276,27493,6,0,P|360:248|364:140,2,161.999995056153,0|8|2,3:0|0:0|3:2,0:0:0:0:
424,196,28239,1,2,3:2:0:0:
272,296,28389,1,10,3:2:0:0:
104,252,28538,1,2,1:2:0:0:
256,152,28687,1,4,1:2:0:0:
243,240,28836,5,0,3:0:0:0:
240,260,28910,1,0,3:0:0:0:
237,280,28985,1,8,3:2:0:0:
186,96,29135,1,0,3:0:0:0:
170,84,29209,1,0,3:0:0:0:
154,71,29284,1,8,3:2:0:0:
338,118,29434,1,0,3:0:0:0:
357,110,29508,1,0,3:0:0:0:
376,103,29583,1,8,3:2:0:0:
198,174,29732,5,0,3:0:0:0:
185,180,29806,1,0,3:0:0:0:
172,184,29881,1,8,3:2:0:0:
304,189,30031,1,0,3:0:0:0:
315,198,30105,1,0,3:0:0:0:
326,207,30180,1,8,3:2:0:0:
264,89,30330,1,0,3:0:0:0:
266,75,30404,1,0,3:0:0:0:
268,62,30479,1,8,3:2:0:0:
240,260,30627,2,0,L|232:316,2,40.4999987640381,0|0|8,3:0|3:0|3:2,3:0:0:0:
150,99,30926,5,0,3:0:0:0:
152,85,31000,1,0,3:0:0:0:
154,71,31075,1,8,3:2:0:0:
125,269,31224,2,0,L|117:325,2,40.4999987640381,0|0|8,3:0|3:0|3:2,3:0:0:0:
35,108,31523,5,0,3:0:0:0:
37,94,31599,1,0,3:0:0:0:
39,80,31672,1,8,3:2:0:0:
10,278,31822,2,0,L|2:334,2,40.4999987640381,0|0|8,3:0|3:0|3:2,3:0:0:0:
172,184,32120,5,0,3:0:0:0:
144,180,32195,1,0,3:0:0:0:
116,176,32269,1,8,3:2:0:0:
212,288,32418,5,0,3:0:0:0:
195,307,32493,1,0,3:0:0:0:
180,327,32567,1,8,3:2:0:0:
322,305,32717,5,0,3:0:0:0:
330,325,32792,1,0,3:0:0:0:
338,346,32866,1,8,3:2:0:0:
391,217,33015,5,0,3:0:0:0:
410,221,33090,1,0,3:0:0:0:
430,224,33164,1,8,3:2:0:0:
504,164,33314,2,0,L|516:224,1,40.4999987640381,0|0,3:0|3:0,3:0:0:0:
416,124,33463,6,0,L|432:24,1,80.9999975280763,8|0,3:2|0:0,0:0:0:0:
352,8,33762,1,8,3:2:0:0:
296,76,33911,5,0,3:0:0:0:
296,76,33986,1,0,3:0:0:0:
296,76,34060,1,8,3:2:0:0:
216,40,34210,1,0,0:0:0:0:
136,4,34359,1,8,3:2:0:0:
52,188,34508,5,0,3:0:0:0:
60,196,34583,1,0,3:0:0:0:
68,204,34657,2,0,L|56:108,1,80.9999975280763,8|0,3:2|0:0,0:0:0:0:
132,88,34956,1,8,3:2:0:0:
192,152,35105,5,0,3:0:0:0:
192,152,35180,1,0,3:0:0:0:
192,152,35254,1,8,3:2:0:0:
275,177,35404,1,0,0:0:0:0:
359,157,35553,1,8,3:2:0:0:
452,52,35702,5,0,3:0:0:0:
460,44,35777,1,0,3:0:0:0:
468,36,35851,2,0,L|456:132,1,80.9999975280763,8|0,3:2|0:0,0:0:0:0:
316,308,36150,2,0,B|328:248|328:248|348:228|348:228|359:157,1,161.999995056153,8|8,3:2|3:2,0:0:0:0:
320,88,36598,1,0,0:0:0:0:
232,256,36747,1,8,3:2:0:0:
422,249,36896,1,0,0:0:0:0:
228,148,37045,5,8,1:2:0:0:
196,144,37120,1,0,3:0:0:0:
164,152,37195,1,0,1:0:0:0:
312,32,37344,5,8,1:2:0:0:
333,34,37419,1,0,3:0:0:0:
354,29,37494,1,0,1:0:0:0:
200,228,37642,6,0,L|182:284,1,40.4999987640381,0|0,1:0|0:0,0:0:0:0:
170,70,37792,2,0,L|129:26,1,40.4999987640381,2|0,1:2|0:0,0:0:0:0:
321,123,37941,2,0,L|378:109,1,40.4999987640381,4|0,1:2|0:0,0:0:0:0:
228,148,38090,5,0,1:0:0:0:
220,151,38165,1,0,1:0:0:0:
212,154,38239,1,4,1:0:0:0:
0,112,38389,5,0,0:0:0:0:
36,96,38463,1,0,0:0:0:0:
76,100,38538,1,8,0:0:0:0:
109,123,38612,1,0,0:0:0:0:
126,159,38687,1,0,0:0:0:0:
131,199,38761,1,0,0:0:0:0:
118,237,38836,1,2,3:2:0:0:
90,266,38910,1,2,0:0:0:0:
52,280,38986,5,2,1:2:0:0:
48,272,39060,1,2,0:0:0:0:
44,264,39135,2,0,L|52:204,2,53.9999983520508,8|0|0,0:0|0:0|0:0,0:0:0:0:
100,356,39433,5,0,1:0:0:0:
130,329,39507,1,0,0:0:0:0:
169,319,39582,1,0,1:0:0:0:
208,325,39656,1,0,0:0:0:0:
241,348,39731,1,8,0:0:0:0:
274,370,39807,1,0,0:0:0:0:
313,377,39881,1,0,0:0:0:0:
352,366,39956,1,0,0:0:0:0:
382,340,40030,6,0,P|392:312|392:280,1,40.4999987640381,2|2,3:2|0:0,0:0:0:0:
256,184,40180,2,0,P|246:212|246:244,1,40.4999987640381,2|0,1:2|0:0,0:0:0:0:
360,184,40329,2,0,L|372:132,2,53.9999983520508,8|0|0,0:0|0:0|0:0,0:0:0:0:
145,281,40627,5,0,1:0:0:0:
143,267,40701,1,0,0:0:0:0:
141,254,40776,1,0,0:0:0:0:
139,240,40850,1,0,0:0:0:0:
137,225,40926,5,8,0:0:0:0:
176,232,41000,1,0,0:0:0:0:
213,218,41075,1,0,0:0:0:0:
238,186,41149,1,0,0:0:0:0:
243,147,41224,1,2,3:2:0:0:
257,109,41298,1,2,0:0:0:0:
291,90,41373,1,2,1:2:0:0:
330,99,41447,1,2,0:0:0:0:
354,130,41523,2,0,P|360:176|352:208,2,53.9999983520508,10|0|0,0:0|0:0|0:0,0:0:0:0:
184,68,41822,6,0,P|138:67|76:60,1,80.9999975280763,0|0,1:0|0:0,0:0:0:0:
95,62,42045,1,0,0:0:0:0:
86,60,42120,1,8,0:0:0:0:
3,235,42269,6,0,L|55:223,1,40.4999987640381,0|8,0:0|0:0,0:0:0:0:
131,183,42419,2,0,L|123:267,1,80.9999975280763,0|0,3:0|1:0,0:0:0:0:
172,360,42717,2,0,L|256:368,1,80.9999975280763,8|0,1:2|1:0,0:0:0:0:
264,369,42940,1,8,0:0:0:0:
275,371,43016,1,4,1:2:0:0:
456,216,43165,5,0,1:0:0:0:
420,204,43239,1,0,0:0:0:0:
380,208,43314,1,8,0:0:0:0:
344,228,43389,1,0,0:0:0:0:
320,260,43463,2,0,L|308:312,1,40.4999987640381
173,145,43613,6,0,L|163:105,2,40.4999987640381,2|2|2,3:2|0:0|1:2,0:0:0:0:
165,369,43911,1,8,0:0:0:0:
243,221,44060,1,0,0:0:0:0:
243,221,44135,1,2,0:0:0:0:
243,221,44210,1,0,1:0:0:0:
112,296,44359,5,2,1:2:0:0:
148,284,44433,1,2,0:0:0:0:
188,288,44508,1,10,0:0:0:0:
224,308,44583,1,0,0:0:0:0:
248,340,44657,2,0,L|260:392,1,40.4999987640381
384,152,44807,5,2,3:2:0:0:
376,160,44881,1,2,0:0:0:0:
368,168,44956,2,0,L|304:180,1,40.4999987640381,2|0,1:2|0:0,0:0:0:0:
144,112,45105,2,0,L|208:124,1,40.4999987640381,8|0,0:0|0:0,0:0:0:0:
326,23,45254,1,2,0:0:0:0:
329,36,45329,1,2,0:0:0:0:
332,48,45404,6,0,L|324:100,3,40.4999987640381,0|0|0|0,1:0|0:0|0:0|0:0,0:0:0:0:
184,0,45702,2,0,L|192:52,1,40.4999987640381,8|0,0:0|0:0,0:0:0:0:
212,212,45851,1,0,0:0:0:0:
220,204,45926,1,0,0:0:0:0:
228,196,46001,5,2,3:2:0:0:
195,172,46075,1,2,0:0:0:0:
155,168,46150,1,2,1:2:0:0:
119,186,46224,1,2,0:0:0:0:
97,219,46299,2,0,L|84:276,1,40.4999987640381,8|0,0:0|0:0,0:0:0:0:
372,320,46448,2,0,L|362:280,1,40.4999987640381
228,196,46598,5,0,1:0:0:0:
236,317,46747,1,0,3:2:0:0:
236,324,46821,1,0,3:2:0:0:
236,332,46896,1,8,0:0:0:0:
228,196,47045,5,0,1:0:0:0:
220,75,47195,1,8,3:2:0:0:
220,68,47268,1,0,3:2:0:0:
220,60,47343,1,0,1:2:0:0:
72,178,47493,6,0,L|113:182,1,40.4999987640381,8|0,3:2|3:0,3:0:0:0:
378,211,47642,2,0,L|338:208,1,40.4999987640381,8|8,3:2|3:2,3:0:0:0:
228,196,47792,1,4,1:0:0:0:
352,100,48090,5,2,0:0:0:0:
388,288,48538,5,2,0:0:0:0:
424,152,48986,5,2,0:0:0:0:
451,232,49433,5,2,0:0:0:0:
506,178,49881,5,2,0:0:0:0:
192,308,50180,6,0,L|96:320,1,90,2|0,0:0|0:0,0:0:0:0:
156,232,50627,2,0,L|60:244,1,90,2|0,0:0|0:0,0:0:0:0:
120,156,51075,1,2,0:0:0:0:
124,144,51523,1,2,0:0:0:0:
128,132,51971,5,8,0:0:0:0:
165,119,52045,1,8,0:0:0:0:
203,126,52120,1,8,0:0:0:0:
234,150,52195,1,8,0:0:0:0:
250,185,52269,1,8,0:0:0:0:
250,185,52568,6,0,P|295:178|341:169,1,80.9999975280763,4|0,1:2|0:0,0:0:0:0:
236,264,52866,2,0,P|309:253|404:236,1,161.999995056153,8|0,0:0|3:0,0:0:0:0:
472,224,53314,1,0,1:0:0:0:
448,296,53463,1,8,0:0:0:0:
419,165,53613,1,0,0:0:0:0:
459,37,53762,6,0,P|466:81|476:128,1,80.9999975280763,0|0,1:0|0:0,0:0:0:0:
372,72,54060,2,0,P|356:113|341:159,1,80.9999975280763,8|0,0:0|0:0,0:0:0:0:
312,8,54359,2,0,B|260:4|260:4|204:40|136:24,1,161.999995056153,0|8,3:0|0:0,0:0:0:0:
34,166,54807,5,0,1:0:0:0:
37,159,54881,1,0,1:0:0:0:
39,152,54956,2,0,P|116:134|175:184,1,161.999995056153,0|8,1:0|0:0,0:0:0:0:
96,216,55404,1,0,0:0:0:0:
259,168,55553,2,0,P|252:219|147:265,1,161.999995056153,0|8,3:0|0:0,0:0:0:0:
175,184,56001,1,0,0:0:0:0:
136,349,56150,6,0,P|94:317|107:203,2,161.999995056153,0|8|0,1:0|0:0|3:0,0:0:0:0:
233,340,56896,1,0,1:0:0:0:
330,331,57045,1,8,0:0:0:0:
338,330,57120,1,0,0:0:0:0:
346,329,57195,1,0,0:0:0:0:
354,328,57269,1,0,0:0:0:0:
362,327,57344,5,2,1:0:0:0:
383,67,57642,1,8,1:2:0:0:
362,327,57941,5,2,3:1:0:0:
372,197,58090,1,2,1:0:0:0:
383,67,58239,1,8,0:0:0:0:
288,112,58389,5,0,0:0:0:0:
292,120,58463,1,0,0:0:0:0:
296,128,58538,1,2,1:0:0:0:
64,104,58836,1,8,0:0:0:0:
296,128,59135,5,2,3:1:0:0:
180,116,59284,1,2,1:0:0:0:
64,104,59433,1,8,0:0:0:0:
152,248,59583,5,0,0:0:0:0:
148,240,59657,1,0,0:0:0:0:
144,232,59732,2,0,L|136:324,1,80.9999975280763,2|0,1:0|0:0,0:0:0:0:
368,256,60030,2,0,L|360:175,1,80.9999975280763,10|0,0:0|0:0,0:0:0:0:
352,96,60329,5,2,3:1:0:0:
288,224,60478,1,0,1:0:0:0:
376,335,60627,1,10,0:0:0:0:
440,207,60777,1,0,1:0:0:0:
268,132,60926,5,2,1:0:0:0:
117,243,61075,1,8,0:0:0:0:
180,116,61224,2,0,L|176:172,2,40.4999987640381,8|8|2,0:0|0:0|0:1,0:0:0:0:
162,356,61523,2,0,L|166:300,2,40.4999987640381,2|8|0,1:0|0:0|0:0,0:0:0:0:
32,210,61822,6,0,L|88:220,1,56.25,0|0,1:0|3:0,0:0:0:0:
256,252,61971,2,0,L|312:262,1,56.25,0|0,1:0|3:0,0:0:0:0:
172,236,62120,6,0,L|179:129,1,80.9999975280763,4|2,1:2|0:0,0:0:0:0:
184,76,62419,1,8,0:0:0:0:
164,315,62568,1,2,0:0:0:0:
367,221,62717,5,0,1:2:0:0:
279,233,62866,1,2,1:2:0:0:
267,145,63016,1,8,0:0:0:0:
355,133,63165,2,0,B|299:125|299:125|247:165|183:149,1,161.999995056153,2|2,0:0|1:2,0:0:0:0:
84,40,63613,6,0,L|96:92,1,40.4999987640381,8|0,0:0|0:0,0:0:0:0:
52,144,63762,2,0,L|64:196,1,40.4999987640381,2|0,0:0|0:0,0:0:0:0:
20,248,63911,5,0,1:0:0:0:
144,172,64060,1,2,1:2:0:0:
84,40,64210,1,8,0:0:0:0:
108,264,64359,1,2,1:2:0:0:
113,270,64433,1,0,1:2:0:0:
118,276,64508,6,0,L|216:264,1,80.9999975280763,0|2,1:0|0:0,0:0:0:0:
267,224,64807,1,8,0:0:0:0:
328,279,64956,1,2,0:0:0:0:
410,283,65105,1,0,1:0:0:0:
261,323,65254,1,2,1:2:0:0:
347,201,65404,6,0,L|332:152,1,40.4999987640381,8|2,0:0|0:0,0:0:0:0:
384,104,65553,2,0,L|369:55,1,40.4999987640381,2|2,0:0|0:0,0:0:0:0:
421,7,65702,5,0,1:0:0:0:
444,164,65851,1,2,0:0:0:0:
372,65,66001,5,8,0:0:0:0:
339,220,66150,1,0,0:0:0:0:
305,102,66299,5,0,1:0:0:0:
221,236,66448,1,2,1:2:0:0:
229,113,66598,5,8,0:0:0:0:
104,210,66747,1,0,0:0:0:0:
107,202,66822,1,0,0:0:0:0:
110,194,66896,6,0,L|128:308,1,80.9999975280763,0|2,1:0|0:0,0:0:0:0:
316,312,67195,2,0,B|276:304|276:304|232:336|176:320,1,121.499996292114,12|0,0:0|0:0,0:0:0:0:
192,336,67493,6,0,P|236:336|280:372,1,80.9999975280763,0|2,1:0|1:2,0:0:0:0:
475,259,67792,2,0,P|419:255|371:203,1,121.499996292114,12|0,0:0|0:0,0:0:0:0:
366,216,68090,6,0,L|378:124,1,80.9999975280763,0|2,1:0|0:0,0:0:0:0:
129,19,68389,2,0,B|113:55|113:55|133:139,1,121.499996292114,12|0,0:0|0:0,0:0:0:0:
137,127,68687,6,0,P|89:111|49:123,1,80.9999975280763,0|2,1:0|1:2,0:0:0:0:
81,356,68986,2,0,P|121:354|154:332,1,80.9999975280763,12|2,0:0|0:0,0:0:0:0:
296,124,69284,6,0,B|248:112|248:112|212:172|252:228,1,161.999995056153,0|12,1:0|0:0,0:0:0:0:
245,218,69881,1,0,1:0:0:0:
332,236,70030,1,2,1:2:0:0:
165,246,70180,5,6,1:2:0:0:
412,208,70329,1,8,0:0:0:0:
251,340,70478,5,0,1:0:0:0:
325,104,70627,1,10,0:2:0:0:
332,321,70777,5,8,0:0:0:0:
329,341,70851,1,2,1:2:0:0:
326,361,70926,1,0,1:0:0:0:
213,162,71075,5,8,1:2:0:0:
210,148,71150,1,0,1:0:0:0:
208,135,71224,1,2,1:2:0:0:
92,288,71374,6,0,L|84:340,1,40.4999987640381,8|0,1:2|3:0,1:0:0:0:
60,180,71523,2,0,L|52:232,1,40.4999987640381,0|0,3:0|3:0,1:0:0:0:
29,67,71672,5,4,0:0:0:0:
25,89,71971,1,2,0:0:0:0:
21,111,72269,1,2,0:0:0:0:
17,133,72568,1,0,0:0:0:0:
145,147,72717,1,0,0:0:0:0:
273,161,72866,5,0,0:0:0:0:
277,183,73165,1,2,0:0:0:0:
281,205,73463,1,2,0:0:0:0:
285,227,73762,1,0,0:0:0:0:
157,241,73911,1,0,0:0:0:0:
29,255,74060,6,0,P|21:306|16:360,1,90,0|2,0:0|0:0,0:0:0:0:
104,356,74508,2,0,P|111:311|115:266,1,90,0|2,0:0|0:0,0:0:0:0:
32,124,74956,2,0,P|34:147|41:177,1,45
112,124,75254,5,0,0:0:0:0:
248,108,75553,1,2,0:0:0:0:
384,92,75851,1,0,0:0:0:0:
384,92,76150,5,2,0:0:0:0:
344,86,76249,1,0,0:0:0:0:
304,80,76349,1,0,0:0:0:0:
265,74,76448,1,0,3:0:0:0:
136,188,76747,6,0,L|204:176,1,60
208,172,77045,1,0,3:0:0:0:
368,248,77344,6,0,L|300:236,1,60
296,232,77642,6,0,P|282:258|280:288,1,60,0|0,1:0|1:0,0:0:0:0:
352,352,77841,1,8,0:3:0:0:
436,336,77941,2,0,B|421:266|457:294|437:206,1,120,4|0,0:0|0:0,0:0:0:0:
304,126,78239,6,0,L|364:120,1,60,0|0,1:0|1:0,1:0:0:0:
432,80,78438,1,4,0:3:0:0:
499,39,78538,2,0,L|344:20,1,120,4|0,0:0|0:0,0:0:0:0:
264,8,78836,5,0,3:0:0:0:
176,88,79135,6,0,P|168:128|176:152,1,60
180,156,79433,1,0,3:0:0:0:
304,231,79732,6,0,P|312:271|304:295,1,60
300,299,80030,6,0,L|376:291,1,60,0|0,1:0|1:0,1:0:0:0:
244,364,80229,1,8,0:3:0:0:
168,332,80329,2,0,B|96:328|120:364|44:360,1,120,4|0,0:0|0:0,0:0:0:0:
24,164,80627,6,0,P|46:183|59:210,1,60,0|0,1:0|1:0,1:0:0:0:
64,284,80826,1,4,0:3:0:0:
96,216,80926,2,0,P|152:192|216:224,1,120,4|0,0:0|0:0,0:0:0:0:
304,232,81224,6,0,L|400:220,1,90.0000034332277,6|0,0:3|0:0,0:0:0:0:
464,188,81523,1,0,0:0:0:0:
476,145,81622,1,0,0:0:0:0:
465,102,81722,1,0,0:0:0:0:
433,71,81822,6,0,P|392:86|347:87,1,90.0000034332277,6|0,0:3|0:0,0:0:0:0:
332,164,82120,2,0,P|311:155|293:142,1,45.0000017166138
272,68,82319,1,0,0:0:0:0:
216,124,82419,6,0,L|108:140,1,90.0000034332277,6|0,0:3|0:0,0:0:0:0:
73,83,82717,1,0,0:0:0:0:
51,117,82816,1,0,0:0:0:0:
51,157,82916,1,0,0:0:0:0:
72,192,83015,5,6,0:3:0:0:
68,348,83215,1,0,1:0:0:0:
27,284,83314,2,0,P|59:272|107:280,1,45.0000017166138,0|0,1:0|1:0,0:0:0:0:
139,296,83513,1,0,1:0:0:0:
188,356,83613,6,0,L|332:336,1,135.000005149842,6|0,0:3|1:0,0:0:0:0:
336,308,84011,1,0,1:0:0:0:
348,280,84110,1,0,1:0:0:0:
360,252,84210,6,0,L|226:270,1,135.000005149842,6|0,0:3|1:0,0:0:0:0:
212,300,84608,1,0,1:0:0:0:
200,328,84707,1,0,1:0:0:0:
188,356,84807,6,0,L|321:337,1,135.000005149842,6|0,0:3|1:0,0:0:0:0:
336,308,85205,1,0,1:0:0:0:
348,280,85304,1,0,1:0:0:0:
360,252,85404,6,0,L|352:203,1,45.0000017166138,6|0,1:3|0:0,0:0:0:0:
259,145,85603,1,0,1:0:0:0:
336,134,85702,2,0,L|388:126,2,45.0000017166138,0|0|0,3:0|3:0|3:0,3:0:0:0:
183,157,86001,5,4,1:0:0:0:
256,192,86075,12,0,87792,0:0:0:0:
400,243,88090,5,0,1:0:0:0:
112,141,88389,1,4,1:0:0:0:
256,192,88463,12,0,89433,0:0:0:0:
112,141,89583,5,2,1:0:0:0:
182,108,89682,5,2,3:1:0:0:
244,155,89782,5,2,3:1:0:0:
268,229,89881,5,2,1:1:0:0:
330,276,89981,5,2,3:1:0:0:
400,243,90080,5,2,3:1:0:0:
338,196,90180,5,4,1:0:0:0:
338,196,90478,2,0,L|330:152,1,33.7500012874604,2|0,0:0|0:0,0:0:0:0:
475,118,90627,2,0,L|481:151,1,33.7500012874604,2|0,0:0|0:0,0:0:0:0:
420,228,90777,6,0,P|401:133|384:43,1,180,4|8,1:0|0:0,0:0:0:0:
492,24,91224,1,2,0:0:0:0:
492,24,91299,1,0,0:0:0:0:
492,24,91374,2,0,P|504:80|492:128,1,90,0|2,3:0|1:2,0:0:0:0:
304,192,91672,2,0,P|292:136|304:88,1,90,8|0,0:0|0:0,0:0:0:0:
420,228,91971,5,0,1:0:0:0:
344,288,92120,1,0,0:0:0:0:
316,284,92195,1,0,0:0:0:0:
288,280,92269,1,8,0:0:0:0:
212,340,92419,1,2,0:0:0:0:
180,144,92568,5,0,3:0:0:0:
200,236,92717,1,2,1:2:0:0:
108,256,92866,1,8,0:0:0:0:
88,164,93016,6,0,B|152:168|152:168|200:200|200:200|276:204,1,180,4|0,1:2|0:0,0:0:0:0:
480,112,93463,1,8,0:0:0:0:
404,72,93613,1,2,0:0:0:0:
404,72,93687,1,0,0:0:0:0:
404,72,93762,1,0,3:0:0:0:
408,158,93911,1,2,1:2:0:0:
476,26,94060,1,8,0:0:0:0:
408,158,94210,1,0,0:0:0:0:
331,119,94359,6,0,L|224:112,1,90,0|0,1:0|0:0,0:0:0:0:
36,232,94657,2,0,P|87:241|136:217,1,90,8|2,0:0|0:0,0:0:0:0:
180,172,94881,1,0,0:0:0:0:
180,172,94956,1,0,3:0:0:0:
144,4,95105,2,0,L|162:92,1,90,2|8,1:2|0:0,0:0:0:0:
197,251,95404,1,0,0:0:0:0:
220,268,95478,1,0,0:0:0:0:
244,284,95553,6,0,B|304:276|304:276|352:240|352:240|440:228,1,180,0|8,1:0|0:0,0:0:0:0:
512,128,96001,1,2,0:0:0:0:
489,144,96075,1,2,0:0:0:0:
465,160,96150,2,0,B|405:152|405:152|357:116|357:116|269:104,1,180,2|8,3:2|0:0,0:0:0:0:
220,84,96548,2,0,L|232:164,1,60,2|2,0:0|0:0,0:0:0:0:
160,200,96747,6,0,L|144:88,1,90,0|0,1:0|0:0,0:0:0:0:
286,18,97045,2,0,L|298:107,1,90,8|2,0:0|0:0,0:0:0:0:
315,128,97269,1,2,0:0:0:0:
333,146,97344,2,0,P|385:162|441:142,1,90,2|0,3:2|1:0,0:0:0:0:
472,56,97642,2,0,P|420:40|364:60,1,90,8|0,0:0|0:0,0:0:0:0:
320,256,97941,6,0,B|416:288|400:208|496:244,2,180,0|8|0,1:0|0:0|3:0,0:0:0:0:
152,280,98687,1,0,1:0:0:0:
244,316,98836,1,8,0:0:0:0:
76,340,98986,1,2,0:0:0:0:
60,320,99060,1,2,0:0:0:0:
44,300,99135,6,0,L|56:192,1,90,2|0,1:2|0:0,0:0:0:0:
468,84,99433,2,0,L|456:192,1,90,10|0,0:0|0:0,0:0:0:0:
164,236,99732,6,0,L|172:172,1,45,2|0,1:2|0:0,0:0:0:0:
348,148,99881,2,0,L|340:212,1,45,2|0,1:2|0:0,0:0:0:0:
260,218,100030,1,8,0:0:0:0:
258,205,100105,1,0,0:0:0:0:
256,192,100180,1,0,0:0:0:0:
254,179,100254,1,0,0:0:0:0:
252,166,100329,6,0,P|196:108|96:150,1,180,4|8,1:0|0:0,0:0:0:0:
81,261,100777,2,0,P|137:319|237:277,1,180,2|0,0:0|1:0,0:0:0:0:
300,240,101224,2,0,L|404:228,1,90,8|0,0:0|0:0,0:0:0:0:
468,220,101448,1,0,0:0:0:0:
468,220,101523,5,0,1:0:0:0:
456,132,101672,1,0,0:0:0:0:
272,36,101822,5,8,0:0:0:0:
284,124,101971,1,2,0:0:0:0:
355,70,102120,1,0,3:0:0:0:
201,90,102269,1,0,1:0:0:0:
201,90,102344,1,0,0:0:0:0:
201,90,102419,1,8,0:0:0:0:
284,124,102568,6,0,B|344:120|344:120|388:148|388:148|466:142,1,180,0|0,1:0|0:0,0:0:0:0:
228,212,103016,2,0,L|340:204,1,90,8|2,0:0|0:0,0:0:0:0:
317,205,103314,1,0,3:0:0:0:
172,300,103463,2,0,L|284:292,1,90,0|8,1:0|0:0,0:0:0:0:
332,324,103712,2,0,L|320:396,1,60,2|2,0:0|0:0,0:0:0:0:
412,336,103911,6,0,L|392:156,1,180,2|8,1:2|0:0,0:0:0:0:
312,116,104359,1,0,0:0:0:0:
284,120,104433,1,0,0:0:0:0:
256,124,104508,1,2,3:2:0:0:
176,83,104657,1,0,1:0:0:0:
100,236,104807,2,0,L|112:304,2,60,8|0|0,0:0|0:0|0:0,0:0:0:0:
34,187,105105,5,0,1:0:0:0:
83,155,105204,1,2,0:0:0:0:
141,165,105304,1,2,0:0:0:0:
178,210,105404,1,12,0:0:0:0:
215,255,105503,1,2,0:0:0:0:
273,265,105603,1,2,0:0:0:0:
323,234,105702,5,0,3:0:0:0:
320,196,105802,1,2,0:0:0:0:
316,160,105901,1,2,0:0:0:0:
336,116,106001,1,12,0:0:0:0:
333,78,106101,1,2,0:0:0:0:
329,42,106200,1,2,0:0:0:0:
296,16,106299,6,0,L|216:28,2,60,0|2|2,1:0|0:0|0:0,0:0:0:0:
400,172,106598,2,0,L|480:184,2,60,12|2|2,0:0|0:0|0:0,0:0:0:0:
252,104,106896,5,0,3:0:0:0:
328,248,107045,2,0,L|312:128,1,90,0|8,1:0|0:0,0:0:0:0:
168,72,107344,1,2,0:0:0:0:
144,84,107419,1,2,0:0:0:0:
120,96,107493,6,0,L|16:88,1,90,2|0,1:2|0:0,0:0:0:0:
243,161,107792,2,0,B|307:153|307:153|355:169|355:169|447:157,1,180,12|0,0:0|3:0,0:0:0:0:
299,269,108239,1,0,1:0:0:0:
191,217,108389,1,8,0:0:0:0:
191,217,108488,2,0,L|183:289,1,60,2|2,0:0|0:0,0:0:0:0:
132,332,108687,5,0,3:0:0:0:
383,261,108836,1,0,3:0:0:0:
167,173,108986,5,12,1:2:0:0:
419,333,109135,1,0,3:0:0:0:
151,253,109284,5,4,1:2:0:0:
351,185,109433,1,0,3:0:0:0:
183,93,109583,1,8,1:2:0:0:
263,305,109732,2,0,L|255:237,1,45,0|0,1:0|1:0,1:0:0:0:
247,181,109881,5,4,1:0:0:0:
380,68,114060,6,0,L|360:128,1,45,0|0,1:0|1:0,1:0:0:0:
420,172,114210,2,0,L|400:232,1,45,0|0,1:0|1:0,1:0:0:0:
460,276,114359,1,0,1:0:0:0:
460,276,114657,6,0,B|372:268|372:268|284:304|284:304|180:296,1,270.000010299683,6|0,1:0|0:0,0:0:0:0:
197,297,115553,5,2,1:0:0:0:
248,124,115702,2,0,B|268:64|268:64|304:192|304:192|276:280,1,270.000010299683,6|0,1:0|0:0,0:0:0:0:
148,193,116448,6,0,L|216:200,1,67.5000025749208,2|0,0:0|0:0,0:0:0:0:
336,344,116747,2,0,L|268:350,1,67.5000025749208,2|0,0:0|0:0,0:0:0:0:
104,320,117045,6,0,B|52:276|52:276|208:292,1,202.500007724762,6|0,1:0|0:0,0:0:0:0:
364,232,117642,2,0,B|416:276|416:276|260:260,1,202.500007724762,6|0,1:0|0:0,0:0:0:0:
128,196,118239,5,4,1:2:0:0:
127,141,118339,5,0,3:0:0:0:
152,98,118438,5,0,3:0:0:0:
196,75,118538,5,2,3:0:0:0:
242,79,118637,5,2,3:0:0:0:
276,108,118736,5,2,3:0:0:0:
289,148,118836,5,8,3:0:0:0:
302,181,118937,5,8,3:0:0:0:
327,201,119036,5,8,3:0:0:0:
352,207,119135,5,4,3:0:0:0:
373,202,119235,5,4,3:0:0:0:
386,193,119334,5,4,3:0:0:0:
391,183,119433,6,0,B|325:181|325:181|277:205|277:205|199:203,1,180,4|8,1:2|0:0,0:0:0:0:
92,112,119881,1,0,0:0:0:0:
88,87,119956,1,0,0:0:0:0:
84,61,120030,1,0,3:0:0:0:
127,185,120180,5,0,1:0:0:0:
0,96,120329,1,8,0:0:0:0:
152,12,120478,1,0,0:0:0:0:
152,12,120553,1,0,0:0:0:0:
152,12,120627,6,0,P|198:18|256:24,1,90,0|0,1:0|0:0,0:0:0:0:
380,144,120926,2,0,L|316:156,2,60,8|0|0,0:0|0:0|0:0,3:0:0:0:
456,128,121224,1,0,3:0:0:0:
245,171,121374,1,0,1:0:0:0:
298,317,121523,2,0,L|402:329,1,90,8|0,0:0|3:0,0:0:0:0:
465,333,121747,1,0,3:0:0:0:
465,333,121822,5,0,1:0:0:0:
240,260,121971,1,0,1:0:0:0:
240,260,122045,1,0,1:0:0:0:
240,260,122120,1,12,0:0:0:0:
464,192,122269,1,0,1:0:0:0:
298,317,122419,5,0,3:0:0:0:
458,93,122568,1,0,1:0:0:0:
458,93,122642,1,0,1:0:0:0:
458,93,122717,1,12,0:0:0:0:
266,125,122866,1,0,1:0:0:0:
490,285,123016,6,0,L|382:273,1,90,0|0,1:0|1:0,0:0:0:0:
322,265,123239,1,0,1:0:0:0:
322,265,123314,1,12,0:0:0:0:
388,152,123463,1,2,1:2:0:0:
386,378,123613,1,2,1:0:0:0:
192,248,123762,6,0,L|105:233,1,67.5000025749208,4|2,1:2|3:0,0:0:0:0:
53,185,123911,2,0,P|53:149|85:97,1,67.5000025749208,2|8,3:0|3:0,0:0:0:0:
264,299,124060,2,0,P|264:335|232:387,1,67.5000025749208,8|4,3:0|3:0,0:0:0:0:
140,352,124210,5,4,1:0:0:0:
