osu file format v14

[General]
AudioFilename: iconoclasm.mp3
AudioLeadIn: 0
PreviewTime: 90358
Countdown: 0
SampleSet: Soft
StackLeniency: 0.3
Mode: 0
LetterboxInBreaks: 0
WidescreenStoryboard: 0

[Editor]
DistanceSpacing: 1
BeatDivisor: 4
GridSize: 4
TimelineZoom: 1.4

[Metadata]
Title:Idola
TitleUnicode:Idola
Artist:iconoclasm feat.GUMI
ArtistUnicode:iconoclasm feat.GUMI
Creator:toybot
Version:Beginner
Source:beatmania IIDX 21 SPADA
Tags:meg image- dj TAKA wac megpoid vocaloid bemani メグッポイド グミ ボーカロイド
BeatmapID:1161823
BeatmapSetID:547821

[Difficulty]
HPDrainRate:3
CircleSize:2.5
OverallDifficulty:3
ApproachRate:4
SliderMultiplier:0.9
SliderTickRate:1

[Events]
//Background and Video events
0,0,"BG.jpg",0,0
//Break Periods
2,10977,14233
2,47992,51248
2,110081,113337
//Storyboard Layer 0 (Background)
//Storyboard Layer 1 (Fail)
//Storyboard Layer 2 (Pass)
//Storyboard Layer 3 (Foreground)
//Storyboard Sound Samples

[TimingPoints]
1225,298.507462686567,4,2,1,60,1,0
1225,-100,4,2,1,60,0,0
8239,-100,4,2,1,50,0,0
8836,-100,4,2,1,60,0,0
9433,-100,4,2,1,70,0,0
10030,-100,4,2,1,70,0,0
10329,-100,4,2,1,70,0,0
15105,-100,4,2,1,50,0,0
20329,-100,4,2,1,60,0,0
23911,-100,4,2,1,60,0,0
24210,-100,4,2,1,60,0,0
24508,-100,4,2,1,60,0,0
24807,-100,4,2,1,60,0,0
28836,-100,4,2,1,40,0,0
29732,-100,4,2,1,45,0,0
30926,-100,4,2,1,50,0,0
32120,-100,4,2,1,55,0,0
33463,-100,4,2,1,60,0,0
48090,-100,4,2,1,40,0,0
50478,-100,4,2,1,20,0,0
50627,-100,4,2,1,40,0,0
50926,-100,4,2,1,20,0,0
51075,-100,4,2,1,40,0,0
52568,-100,4,2,1,60,0,0
61822,-100,4,2,1,60,0,0
62120,-100,4,2,1,60,0,0
71672,-111.111111111111,4,2,1,40,0,0
77642,-100,4,2,1,60,0,0
78836,-100,4,2,1,40,0,0
80030,-100,4,2,1,60,0,0
81224,-100,4,2,1,50,0,0
87792,-100,4,2,1,5,0,0
88090,-100,4,2,1,50,0,0
88389,-100,4,2,1,50,0,0
89583,-100,4,2,1,70,0,0
90777,-100,4,2,1,70,0,1
109881,-100,4,2,1,60,0,0
114657,-100,4,2,1,60,0,0
119433,-100,4,2,1,60,0,1
124210,-100,4,2,1,60,0,0

[Colours]
Combo1 : 141,69,228
Combo2 : 137,227,243
Combo3 : 72,154,255
Combo4 : 10,53,143

[HitObjects]
88,200,1225,6,0,B|144:172|196:196|196:196|234:191|260:168|260:168|244:256|328:280,2,315,4|2|0,0:0|0:0|0:0,0:0:0:0:
16,256,3613,6,0,P|-4:212|68:108,2,180,2|2|2,0:0|0:0|0:0,0:0:0:0:
88,308,5105,1,0,0:0:0:0:
172,280,5404,2,0,L|268:268,1,90,2|0,0:0|0:0,0:0:0:0:
340,312,6001,6,0,L|356:120,1,180,2|2,0:0|0:0,0:0:0:0:
192,52,7195,2,0,P|136:68|120:184,1,180,2|2,0:0|0:0,0:0:0:0:
184,232,8090,1,2,0:0:0:0:
268,200,8389,6,0,B|396:180|396:180|368:228,2,180,4|4|4,3:2|3:2|3:2,0:0:0:0:
100,264,10180,2,0,B|68:208|68:208|96:80,1,180,8|4,3:2|1:0,0:0:0:0:
92,95,15553,6,0,P|140:71|228:155,1,180,2|2,0:0|0:0,0:0:0:0:
288,208,16448,1,2,3:2:0:0:
368,168,16747,2,0,B|392:128|388:80|388:80|420:128|464:132,1,180,2|2,0:0|0:0,0:0:0:0:
448,312,17941,6,0,B|384:320|384:320|336:300|336:300|259:309,1,180,0|0,1:0|1:0,0:0:0:0:
96,340,19135,2,0,P|52:288|104:192,1,180,0|0,1:0|1:0,0:0:0:0:
176,156,20030,1,8,1:2:0:0:
260,192,20329,6,0,B|360:208|332:144|440:160,1,180,4|0,1:0|0:0,0:0:0:0:
444,340,21523,2,0,P|396:352|348:332,1,90,0|8,3:0|0:0,0:0:0:0:
288,284,22120,2,0,L|196:296,1,90,0|8,0:0|0:0,0:0:0:0:
137,361,22717,6,0,P|109:313|168:210,1,180,0|0,3:0|3:0,0:0:0:0:
244,176,23613,1,8,0:0:0:0:
196,100,23911,2,0,P|147:95|100:88,1,90,0|8,1:0|0:0,0:0:0:0:
24,56,24508,2,0,P|19:104|12:152,1,90,0|8,3:0|0:0,0:0:0:0:
28,236,25105,6,0,B|92:248|144:204|144:204|192:256,1,180,4|0,3:2|0:0,0:0:0:0:
256,296,26001,1,8,0:0:0:0:
344,292,26299,2,0,P|380:256|384:208,1,90,0|8,3:0|0:0,0:0:0:0:
476,212,26896,2,0,P|462:162|423:135,1,90,0|8,3:0|0:0,0:0:0:0:
356,92,27493,6,0,L|168:120,1,180,0|2,3:0|3:2,0:0:0:0:
128,196,28389,1,10,3:2:0:0:
80,272,28687,6,0,B|148:300|200:248|200:248|192:296,1,180,4|8,1:2|3:2,0:0:0:0:
364,352,29881,2,0,L|388:168,1,180,8|8,3:2|3:2,0:0:0:0:
332,104,30777,1,8,3:2:0:0:
256,152,31075,6,0,P|216:160|132:64,1,180,8|8,3:2|3:2,0:0:0:0:
12,204,32269,2,0,B|48:260|116:256|116:256|88:288|96:328,1,180,8|8,3:2|3:2,0:0:0:0:
184,320,33165,1,8,3:2:0:0:
260,272,33463,6,0,L|456:252,1,180,8|8,3:2|3:2,0:0:0:0:
476,76,34657,2,0,P|408:56|320:128,1,180,8|8,3:2|3:2,0:0:0:0:
156,180,35851,6,0,L|136:88,2,90,8|8|8,3:2|3:2|3:2,0:0:0:0:
140,268,36747,1,8,3:2:0:0:
212,320,37045,2,0,P|268:332|352:240,2,180,8|0|4,1:2|1:0|1:0,0:0:0:0:
140,268,38538,6,0,L|164:80,1,180,8|8,0:0|0:0,0:0:0:0:
228,28,39433,2,0,P|252:72|248:120,1,90,0|8,1:0|0:0,0:0:0:0:
316,172,40030,2,0,P|340:128|336:80,1,90,2|8,3:2|0:0,0:0:0:0:
412,40,40627,6,0,P|440:72|432:212,1,180,0|2,1:0|3:2,0:0:0:0:
364,252,41523,1,10,0:0:0:0:
284,216,41822,2,0,L|184:200,2,90,0|8|0,1:0|0:0|3:0,0:0:0:0:
356,164,42717,1,8,1:2:0:0:
384,80,43016,6,0,B|284:64|316:136|208:112,1,180,4|2,1:2|3:2,0:0:0:0:
128,80,43911,1,8,0:0:0:0:
68,148,44210,2,0,P|48:204|116:300,1,180,0|2,1:0|3:2,0:0:0:0:
288,316,45404,6,0,L|432:296,2,135,0|0|8,1:0|0:0|0:0,0:0:0:0:
211,263,46598,2,0,P|192:223|197:179,1,90,0|8,1:0|0:0,0:0:0:0:
268,124,47195,2,0,P|312:127|347:153,1,90,8|8,3:2|3:2,0:0:0:0:
352,244,47792,5,4,1:0:0:0:
352,244,52568,6,0,B|329:182|361:126|361:126|298:81,1,180,4|0,1:2|3:0,0:0:0:0:
176,208,53762,2,0,P|124:224|16:156,1,180,0|0,1:0|3:0,0:0:0:0:
12,76,54657,1,8,0:0:0:0:
88,28,54956,6,0,P|172:36|272:28,1,180,0|0,1:0|3:0,0:0:0:0:
436,96,56150,2,0,P|452:152|444:184,1,90,0|8,1:0|0:0,0:0:0:0:
360,216,56747,2,0,P|344:272|352:304,1,90,0|8,3:0|0:0,0:0:0:0:
428,348,57344,6,0,L|236:336,1,180,2|2,1:0|3:1,0:0:0:0:
160,328,58239,1,8,0:0:0:0:
106,255,58538,2,0,B|158:219|216:256|216:256|248:188,1,180,2|2,1:0|3:1,0:0:0:0:
280,116,59433,1,8,0:0:0:0:
204,64,59732,6,0,P|144:60|96:160,2,180,2|2|2,1:0|3:1|1:0,0:0:0:0:
280,116,61224,1,8,0:0:0:0:
368,92,61523,2,0,P|408:88|456:96,1,90,2|0,1:0|1:0,0:0:0:0:
500,176,62120,6,0,P|464:220|352:196,1,180,4|0,1:2|1:2,0:0:0:0:
280,144,63016,1,8,0:0:0:0:
205,88,63314,2,0,P|125:57|60:112,1,180,0|0,0:0|1:0,0:0:0:0:
32,196,64210,1,8,0:0:0:0:
100,256,64508,6,0,P|186:248|288:232,1,180,0|0,1:0|1:0,0:0:0:0:
444,164,65702,2,0,L|456:72,1,90,0|8,1:0|0:0,0:0:0:0:
380,24,66299,2,0,P|324:16|280:40,1,90,0|8,1:0|0:0,0:0:0:0:
224,84,66896,6,0,P|168:104|72:28,1,180,0|0,1:0|1:0,0:0:0:0:
24,212,68090,2,0,L|212:216,1,180,0|0,1:0|1:0,0:0:0:0:
280,264,68986,1,12,0:0:0:0:
364,228,69284,6,0,P|376:176|272:168,1,180,0|0,1:0|1:0,0:0:0:0:
204,108,70180,1,6,1:2:0:0:
276,56,70478,2,0,P|356:52|440:108,1,180,0|8,1:0|1:2,0:0:0:0:
496,172,71374,1,8,1:2:0:0:
484,260,71672,6,0,L|320:228,1,161.999995056153,4|2,0:0|0:0,0:0:0:0:
200,332,72866,2,0,L|36:300,1,161.999995056153,0|2,0:0|0:0,0:0:0:0:
12,140,74060,6,0,P|68:104|164:128,1,161.999995056153,0|2,0:0|0:0,0:0:0:0:
264,244,75254,2,0,P|320:280|416:256,1,161.999995056153,0|0,0:0|0:0,0:0:0:0:
471,201,76150,1,2,0:0:0:0:
443,121,76448,5,0,3:0:0:0:
296,52,77045,1,0,3:0:0:0:
310,214,77642,2,0,L|416:200,2,90,0|4|0,1:0|0:0|1:0,0:0:0:0:
232,260,78538,1,4,0:0:0:0:
148,232,78836,5,0,3:0:0:0:
88,60,79433,1,0,3:0:0:0:
266,94,80030,2,0,L|252:0,2,90,0|4|0,1:0|0:0|1:0,0:0:0:0:
244,180,80926,1,4,0:0:0:0:
312,240,81224,6,0,P|360:248|444:152,1,180,6|6,0:3|0:3,0:0:0:0:
324,24,82419,2,0,B|232:4|248:80|152:60,1,180,6|0,0:3|0:0,0:0:0:0:
72,28,83314,1,0,1:0:0:0:
28,108,83613,6,0,L|36:208,1,90,6|0,0:3|1:0,0:0:0:0:
116,240,84210,2,0,P|156:240|200:204,1,90,6|0,0:3|1:0,0:0:0:0:
224,124,84807,2,0,L|313:131,2,90,6|0|6,0:3|1:0|1:3,0:0:0:0:
72,28,86001,5,4,1:0:0:0:
72,28,88090,2,0,L|170:19,1,90,0|4,1:0|1:0,0:0:0:0:
401,156,89583,6,0,P|350:176|256:101,1,180,2|4,1:0|1:0,0:0:0:0:
83,62,90777,6,0,B|55:124|55:124|75:236,1,180,4|0,1:0|3:0,0:0:0:0:
148,285,91672,1,8,0:0:0:0:
220,230,91971,2,0,P|274:220|343:276,2,135,0|2|8,1:0|0:0|0:0,0:0:0:0:
148,285,93165,6,0,P|132:245|204:141,1,180,0|0,0:0|3:0,0:0:0:0:
288,116,94060,1,8,0:0:0:0:
368,160,94359,2,0,L|468:148,2,90,0|8|0,1:0|0:0|3:0,0:0:0:0:
252,296,95553,6,0,B|320:288|320:288|360:304|360:304|448:293,2,180,0|2|0,1:0|3:2|1:0,0:0:0:0:
172,340,97045,1,8,0:0:0:0:
100,288,97344,2,0,L|80:200,1,90,2|8,3:2|0:0,0:0:0:0:
132,124,97941,6,0,P|184:112|264:200,1,180,0|0,1:0|3:0,0:0:0:0:
420,284,99135,2,0,L|428:192,1,90,2|10,1:2|0:0,0:0:0:0:
356,140,99732,2,0,L|364:48,1,90,2|8,1:2|0:0,0:0:0:0:
280,20,100329,6,0,B|232:28|192:12|192:12|168:60|116:72,1,180,4|0,1:0|0:0,0:0:0:0:
36,56,101224,1,8,0:0:0:0:
4,140,101523,2,0,P|0:196|24:236,1,90,0|8,1:0|0:0,0:0:0:0:
96,264,102120,6,0,L|240:236,2,135,0|0|8,3:0|1:0|0:0,0:0:0:0:
104,352,103314,2,0,L|197:334,1,90,0|8,3:0|0:0,0:0:0:0:
276,368,103911,2,0,P|324:376|404:272,1,180,2|2,1:2|3:2,0:0:0:0:
348,116,105105,6,0,L|152:88,1,180,0|0,1:0|3:0,0:0:0:0:
128,172,106001,1,12,0:0:0:0:
200,224,106299,2,0,L|396:196,1,180,0|0,1:0|3:0,0:0:0:0:
420,280,107195,1,8,0:0:0:0:
496,232,107493,6,0,P|501:192|512:132,1,90,2|12,1:2|0:0,0:0:0:0:
448,76,108090,2,0,P|403:82|344:88,1,90,0|8,3:0|0:0,0:0:0:0:
276,48,108687,2,0,P|240:88|112:72,2,180,0|4|4,3:0|1:2|1:0,0:0:0:0:
328,276,114657,6,0,B|380:284|440:244|440:176|408:140|408:140|360:192|296:176,1,315,6|6,1:0|1:0,0:0:0:0:
92,112,116448,2,0,P|116:80|176:68,1,90,2|2,0:0|0:0,0:0:0:0:
244,108,117045,6,0,L|220:292,1,180,6|6,1:0|1:0,0:0:0:0:
392,340,118239,2,0,P|437:335|488:328,1,90,4|2,1:2|3:0,0:0:0:0:
484,240,118836,2,0,P|479:194|472:144,1,90,8|4,3:0|3:0,0:0:0:0:
400,100,119433,6,0,B|304:88|332:156|224:140,1,180,4|0,1:2|3:0,0:0:0:0:
152,96,120329,1,8,0:0:0:0:
104,172,120627,2,0,P|88:240|164:316,1,180,0|0,1:0|3:0,0:0:0:0:
240,276,121523,1,8,0:0:0:0:
324,308,121822,6,0,L|508:284,2,180,0|0|0,1:0|3:0|1:0,0:0:0:0:
240,276,123314,1,12,0:0:0:0:
216,188,123613,2,0,B|254:173|278:125|278:125|280:184|315:219,1,180,2|4,1:0|1:0,0:0:0:0:
