osu file format v14

[General]
AudioFilename: audio.mp3
AudioLeadIn: 0
PreviewTime: 90163
Countdown: 1
SampleSet: None
StackLeniency: 0.7
Mode: 1
LetterboxInBreaks: 0
WidescreenStoryboard: 0

[Editor]
Bookmarks: 10462
DistanceSpacing: 1.1
BeatDivisor: 4
GridSize: 32
TimelineZoom: 1.7

[Metadata]
Title:Idola
TitleUnicode:Idola
Artist:iconoclasm feat.GUMI
ArtistUnicode:iconoclasm feat.GUMI
Creator:L y s
Version:Inner Oni
Source:GUMI 5th Anniversary
Tags:beatmania IIDX 21 SPADA DanceDanceRevolution (2014) GITADORA OverDrive jubeat saucer fulfill pop'n music ラピストリア REFLEC BEAT groovin'!! SOUND VOLTEX II -infinite infection- ポップンリズミン
BeatmapID:1788624
BeatmapSetID:856075

[Difficulty]
HPDrainRate:5
CircleSize:6
OverallDifficulty:6
ApproachRate:6
SliderMultiplier:1.4
SliderTickRate:1

[Events]
//Background and Video events
0,0,"Idola.png",0,0
//Break Periods
//Storyboard Layer 0 (Background)
//Storyboard Layer 1 (Fail)
//Storyboard Layer 2 (Pass)
//Storyboard Layer 3 (Foreground)
//Storyboard Sound Samples

[TimingPoints]
910,298.507462686567,4,1,0,100,1,0
910,-133.333333333333,4,1,0,100,0,0
7775,-100,4,1,0,100,0,0
37924,-100,4,1,0,100,0,1
47477,-100,4,1,0,100,0,0
71357,-133.333333333333,4,1,0,75,0,0
89268,-66.6666666666667,4,1,0,100,0,0
90163,-100,4,1,0,100,0,0
90462,-100,4,1,0,100,0,1
109566,-100,4,1,0,100,0,0
114342,-83.3333333333333,4,1,0,100,0,1
123895,-66.6666666666667,4,1,0,100,0,0

[HitObjects]
256,192,611,5,8,0:0:0:0:
256,192,910,1,4,0:0:0:0:
256,192,1507,1,0,0:0:0:0:
256,192,1805,1,0,0:0:0:0:
256,192,1954,1,8,0:0:0:0:
256,192,2701,1,0,0:0:0:0:
256,192,2999,1,8,0:0:0:0:
256,192,3298,1,0,0:0:0:0:
256,192,3745,1,0,0:0:0:0:
256,192,3895,1,8,0:0:0:0:
256,192,4342,1,0,0:0:0:0:
256,192,4492,1,8,0:0:0:0:
256,192,4790,1,8,0:0:0:0:
256,192,5089,1,8,0:0:0:0:
256,192,5238,1,8,0:0:0:0:
256,192,5536,1,8,0:0:0:0:
256,192,5686,1,0,0:0:0:0:
256,192,6283,1,0,0:0:0:0:
256,192,6730,1,0,0:0:0:0:
256,192,6880,1,8,0:0:0:0:
256,192,7327,1,8,0:0:0:0:
256,192,7477,1,8,0:0:0:0:
256,192,7775,1,0,0:0:0:0:
256,192,7850,1,0,0:0:0:0:
256,192,7924,1,0,0:0:0:0:
256,192,7999,1,0,0:0:0:0:
256,192,8074,1,0,0:0:0:0:
256,192,8372,1,0,0:0:0:0:
256,192,8447,1,0,0:0:0:0:
256,192,8521,1,0,0:0:0:0:
256,192,8596,1,0,0:0:0:0:
256,192,8671,1,8,0:0:0:0:
256,192,8969,1,0,0:0:0:0:
256,192,9044,1,0,0:0:0:0:
256,192,9118,1,0,0:0:0:0:
256,192,9193,1,8,0:0:0:0:
256,192,9268,1,8,0:0:0:0:
256,192,9566,1,0,0:0:0:0:
256,192,9641,1,0,0:0:0:0:
256,192,9715,1,8,0:0:0:0:
256,192,9790,1,8,0:0:0:0:
256,192,9865,1,8,0:0:0:0:
256,192,10014,1,8,0:0:0:0:
256,192,10312,1,8,0:0:0:0:
256,192,10462,1,4,0:0:0:0:
256,192,10760,1,0,0:0:0:0:
256,192,11059,1,0,0:0:0:0:
256,192,11357,1,0,0:0:0:0:
256,192,11507,1,0,0:0:0:0:
256,192,11656,1,8,0:0:0:0:
256,192,11954,1,0,0:0:0:0:
256,192,12253,1,0,0:0:0:0:
256,192,12551,1,0,0:0:0:0:
256,192,12701,1,0,0:0:0:0:
256,192,12850,1,8,0:0:0:0:
256,192,13148,1,0,0:0:0:0:
256,192,13447,1,0,0:0:0:0:
256,192,13596,1,0,0:0:0:0:
256,192,13745,1,0,0:0:0:0:
256,192,13895,1,0,0:0:0:0:
256,192,14044,1,8,0:0:0:0:
256,192,14342,1,0,0:0:0:0:
256,192,14641,1,0,0:0:0:0:
256,192,14790,1,0,0:0:0:0:
256,192,14939,1,8,0:0:0:0:
256,192,15089,1,8,0:0:0:0:
256,192,15238,1,0,0:0:0:0:
256,192,15387,1,0,0:0:0:0:
256,192,15536,1,8,0:0:0:0:
256,192,15686,1,0,0:0:0:0:
256,192,15835,1,0,0:0:0:0:
256,192,15984,1,0,0:0:0:0:
256,192,16133,1,8,0:0:0:0:
256,192,16283,1,0,0:0:0:0:
256,192,16357,1,0,0:0:0:0:
256,192,16432,1,0,0:0:0:0:
256,192,16581,1,0,0:0:0:0:
256,192,16730,1,8,0:0:0:0:
256,192,16880,1,0,0:0:0:0:
256,192,17029,1,0,0:0:0:0:
256,192,17178,1,0,0:0:0:0:
256,192,17327,1,8,0:0:0:0:
256,192,17477,1,8,0:0:0:0:
256,192,17551,1,8,0:0:0:0:
256,192,17626,1,0,0:0:0:0:
256,192,17775,1,0,0:0:0:0:
256,192,17924,1,8,0:0:0:0:
256,192,18074,1,0,0:0:0:0:
256,192,18148,1,0,0:0:0:0:
256,192,18223,1,0,0:0:0:0:
256,192,18372,1,0,0:0:0:0:
256,192,18521,1,8,0:0:0:0:
256,192,18671,1,0,0:0:0:0:
256,192,18820,1,0,0:0:0:0:
256,192,18895,1,0,0:0:0:0:
256,192,18969,1,8,0:0:0:0:
256,192,19118,1,8,0:0:0:0:
256,192,19268,1,0,0:0:0:0:
256,192,19417,1,0,0:0:0:0:
256,192,19492,1,0,0:0:0:0:
256,192,19566,1,8,0:0:0:0:
256,192,19715,1,0,0:0:0:0:
256,192,19865,1,0,0:0:0:0:
256,192,19939,1,0,0:0:0:0:
256,192,20014,1,0,0:0:0:0:
256,192,20312,1,8,0:0:0:0:
256,192,20462,1,0,0:0:0:0:
256,192,20536,1,0,0:0:0:0:
256,192,20611,1,0,0:0:0:0:
256,192,20909,1,8,0:0:0:0:
256,192,21059,1,0,0:0:0:0:
256,192,21133,1,0,0:0:0:0:
256,192,21208,1,8,0:0:0:0:
256,192,21507,1,8,0:0:0:0:
256,192,21656,1,0,0:0:0:0:
256,192,21730,1,0,0:0:0:0:
256,192,21805,1,8,0:0:0:0:
256,192,22104,1,8,0:0:0:0:
256,192,22253,1,0,0:0:0:0:
256,192,22327,1,0,0:0:0:0:
256,192,22402,1,0,0:0:0:0:
256,192,22551,1,0,0:0:0:0:
256,192,22701,1,8,0:0:0:0:
256,192,22850,1,0,0:0:0:0:
256,192,22999,1,8,0:0:0:0:
256,192,23148,1,8,0:0:0:0:
256,192,23298,1,0,0:0:0:0:
256,192,23447,1,8,0:0:0:0:
256,192,23596,1,0,0:0:0:0:
256,192,23895,1,0,0:0:0:0:
256,192,24193,1,0,0:0:0:0:
256,192,24492,1,8,0:0:0:0:
256,192,24641,1,0,0:0:0:0:
256,192,24715,1,0,0:0:0:0:
256,192,24790,1,0,0:0:0:0:
256,192,24939,1,0,0:0:0:0:
256,192,25089,1,8,0:0:0:0:
256,192,25238,1,0,0:0:0:0:
256,192,25312,1,0,0:0:0:0:
256,192,25387,1,8,0:0:0:0:
256,192,25536,1,0,0:0:0:0:
256,192,25686,1,8,0:0:0:0:
256,192,25984,1,0,0:0:0:0:
256,192,26133,1,0,0:0:0:0:
256,192,26283,1,8,0:0:0:0:
256,192,26581,1,0,0:0:0:0:
256,192,26730,1,0,0:0:0:0:
256,192,26880,1,8,0:0:0:0:
256,192,27178,1,0,0:0:0:0:
256,192,27327,1,0,0:0:0:0:
256,192,27477,1,8,0:0:0:0:
256,192,27775,1,4,0:0:0:0:
256,192,27924,1,4,0:0:0:0:
256,192,28074,1,12,0:0:0:0:
256,192,28223,1,12,0:0:0:0:
256,192,28372,1,4,0:0:0:0:
256,192,28521,1,0,0:0:0:0:
256,192,28596,1,0,0:0:0:0:
256,192,28671,1,0,0:0:0:0:
256,192,28820,1,0,0:0:0:0:
256,192,28895,1,0,0:0:0:0:
256,192,28969,1,0,0:0:0:0:
256,192,29118,1,0,0:0:0:0:
256,192,29193,1,0,0:0:0:0:
256,192,29268,1,0,0:0:0:0:
256,192,29417,1,8,0:0:0:0:
256,192,29492,1,8,0:0:0:0:
256,192,29566,1,0,0:0:0:0:
256,192,29715,1,0,0:0:0:0:
256,192,29790,1,0,0:0:0:0:
256,192,29865,1,0,0:0:0:0:
256,192,30014,1,0,0:0:0:0:
256,192,30089,1,0,0:0:0:0:
256,192,30163,1,0,0:0:0:0:
256,192,30312,1,0,0:0:0:0:
256,192,30387,1,0,0:0:0:0:
256,192,30462,1,0,0:0:0:0:
256,192,30611,1,8,0:0:0:0:
256,192,30686,1,8,0:0:0:0:
256,192,30760,1,0,0:0:0:0:
256,192,30909,1,0,0:0:0:0:
256,192,30984,1,0,0:0:0:0:
256,192,31059,1,0,0:0:0:0:
256,192,31208,1,0,0:0:0:0:
256,192,31283,1,0,0:0:0:0:
256,192,31357,1,0,0:0:0:0:
256,192,31507,1,0,0:0:0:0:
256,192,31581,1,0,0:0:0:0:
256,192,31656,1,0,0:0:0:0:
256,192,31805,1,8,0:0:0:0:
256,192,31880,1,8,0:0:0:0:
256,192,31954,1,0,0:0:0:0:
256,192,32104,1,0,0:0:0:0:
256,192,32178,1,0,0:0:0:0:
256,192,32253,1,0,0:0:0:0:
256,192,32402,1,0,0:0:0:0:
256,192,32477,1,0,0:0:0:0:
256,192,32551,1,0,0:0:0:0:
256,192,32701,1,0,0:0:0:0:
256,192,32775,1,0,0:0:0:0:
256,192,32850,1,0,0:0:0:0:
256,192,32999,1,8,0:0:0:0:
256,192,33148,1,0,0:0:0:0:
256,192,33298,1,0,0:0:0:0:
256,192,33372,1,0,0:0:0:0:
256,192,33447,1,0,0:0:0:0:
256,192,33596,1,0,0:0:0:0:
256,192,33671,1,8,0:0:0:0:
256,192,33745,1,0,0:0:0:0:
256,192,33895,1,0,0:0:0:0:
256,192,33969,1,0,0:0:0:0:
256,192,34044,1,0,0:0:0:0:
256,192,34193,1,8,0:0:0:0:
256,192,34268,1,8,0:0:0:0:
256,192,34342,1,0,0:0:0:0:
256,192,34492,1,0,0:0:0:0:
256,192,34566,1,0,0:0:0:0:
256,192,34641,1,0,0:0:0:0:
256,192,34790,1,0,0:0:0:0:
256,192,34865,1,8,0:0:0:0:
256,192,34939,1,0,0:0:0:0:
256,192,35089,1,0,0:0:0:0:
256,192,35163,1,0,0:0:0:0:
256,192,35238,1,0,0:0:0:0:
256,192,35387,1,8,0:0:0:0:
256,192,35462,1,8,0:0:0:0:
256,192,35536,1,0,0:0:0:0:
256,192,35835,1,0,0:0:0:0:
256,192,36133,1,8,0:0:0:0:
256,192,36432,1,8,0:0:0:0:
256,192,36730,1,0,0:0:0:0:
256,192,36805,1,0,0:0:0:0:
256,192,36879,1,0,0:0:0:0:
256,192,36954,1,0,0:0:0:0:
256,192,37028,1,8,0:0:0:0:
256,192,37103,1,8,0:0:0:0:
256,192,37178,1,0,0:0:0:0:
256,192,37252,1,8,0:0:0:0:
256,192,37327,1,0,0:0:0:0:
256,192,37402,1,0,0:0:0:0:
256,192,37477,1,8,0:0:0:0:
256,192,37551,1,8,0:0:0:0:
256,192,37626,1,0,0:0:0:0:
256,192,37701,1,8,0:0:0:0:
256,192,37775,1,8,0:0:0:0:
256,192,37850,1,8,0:0:0:0:
256,192,37924,1,0,0:0:0:0:
256,192,38074,1,0,0:0:0:0:
256,192,38223,1,0,0:0:0:0:
256,192,38298,1,0,0:0:0:0:
256,192,38372,1,0,0:0:0:0:
256,192,38447,1,8,0:0:0:0:
256,192,38521,1,8,0:0:0:0:
256,192,38596,1,8,0:0:0:0:
256,192,38671,1,0,0:0:0:0:
256,192,38745,1,0,0:0:0:0:
256,192,38820,1,0,0:0:0:0:
256,192,38919,1,0,0:0:0:0:
256,192,39019,1,8,0:0:0:0:
256,192,39118,1,0,0:0:0:0:
256,192,39268,1,0,0:0:0:0:
256,192,39417,1,0,0:0:0:0:
256,192,39492,1,0,0:0:0:0:
256,192,39566,1,8,0:0:0:0:
256,192,39641,1,8,0:0:0:0:
256,192,39715,1,8,0:0:0:0:
256,192,39790,1,8,0:0:0:0:
256,192,39865,1,0,0:0:0:0:
256,192,39939,1,8,0:0:0:0:
256,192,40014,1,0,0:0:0:0:
256,192,40163,1,8,0:0:0:0:
256,192,40312,1,0,0:0:0:0:
256,192,40462,1,0,0:0:0:0:
256,192,40611,1,0,0:0:0:0:
256,192,40686,1,0,0:0:0:0:
256,192,40760,1,0,0:0:0:0:
256,192,40835,1,8,0:0:0:0:
256,192,40909,1,8,0:0:0:0:
256,192,40984,1,8,0:0:0:0:
256,192,41059,1,0,0:0:0:0:
256,192,41133,1,8,0:0:0:0:
256,192,41208,1,0,0:0:0:0:
256,192,41308,1,0,0:0:0:0:
256,192,41407,1,0,0:0:0:0:
256,192,41507,1,8,0:0:0:0:
256,192,41581,1,8,0:0:0:0:
256,192,41657,1,0,0:0:0:0:
256,192,41730,1,8,0:0:0:0:
256,192,41806,1,0,0:0:0:0:
256,192,41881,1,8,0:0:0:0:
256,192,41955,1,8,0:0:0:0:
256,192,42030,1,8,0:0:0:0:
256,192,42104,1,8,0:0:0:0:
256,192,42179,1,8,0:0:0:0:
256,192,42254,1,0,0:0:0:0:
256,192,42403,1,0,0:0:0:0:
256,192,42477,1,8,0:0:0:0:
256,192,42551,1,8,0:0:0:0:
256,192,42701,1,0,0:0:0:0:
256,192,42850,1,0,0:0:0:0:
256,192,42999,1,0,0:0:0:0:
256,192,43074,1,0,0:0:0:0:
256,192,43148,1,8,0:0:0:0:
256,192,43223,1,8,0:0:0:0:
256,192,43298,1,0,0:0:0:0:
256,192,43372,1,8,0:0:0:0:
256,192,43447,1,8,0:0:0:0:
256,192,43596,1,0,0:0:0:0:
256,192,43745,1,0,0:0:0:0:
256,192,43820,1,8,0:0:0:0:
256,192,43895,1,0,0:0:0:0:
256,192,44044,1,0,0:0:0:0:
256,192,44193,1,0,0:0:0:0:
256,192,44268,1,0,0:0:0:0:
256,192,44342,1,0,0:0:0:0:
256,192,44417,1,0,0:0:0:0:
256,192,44492,1,8,0:0:0:0:
256,192,44566,1,8,0:0:0:0:
256,192,44641,1,8,0:0:0:0:
256,192,44790,1,0,0:0:0:0:
256,192,44939,1,0,0:0:0:0:
256,192,45014,1,0,0:0:0:0:
256,192,45089,1,0,0:0:0:0:
256,192,45238,1,0,0:0:0:0:
256,192,45387,1,0,0:0:0:0:
256,192,45462,1,0,0:0:0:0:
256,192,45536,1,8,0:0:0:0:
256,192,45611,1,8,0:0:0:0:
256,192,45686,1,0,0:0:0:0:
256,192,45760,1,8,0:0:0:0:
256,192,45835,1,8,0:0:0:0:
256,192,45984,1,0,0:0:0:0:
256,192,46133,1,0,0:0:0:0:
256,192,46283,1,0,0:0:0:0:
256,192,46581,1,0,0:0:0:0:
256,192,46880,1,8,0:0:0:0:
256,192,47178,1,8,0:0:0:0:
256,192,47253,1,8,0:0:0:0:
256,192,47327,1,8,0:0:0:0:
256,192,47477,1,4,0:0:0:0:
256,192,47775,1,8,0:0:0:0:
256,192,48223,1,8,0:0:0:0:
256,192,48671,1,8,0:0:0:0:
256,192,49118,1,8,0:0:0:0:
256,192,49566,1,8,0:0:0:0:
256,192,49865,1,0,0:0:0:0:
256,192,50312,1,0,0:0:0:0:
256,192,50760,1,8,0:0:0:0:
256,192,51208,1,8,0:0:0:0:
256,192,51656,1,0,0:0:0:0:
256,192,51730,1,0,0:0:0:0:
256,192,51805,1,0,0:0:0:0:
256,192,51880,1,0,0:0:0:0:
256,192,51954,1,0,0:0:0:0:
256,192,52253,1,0,0:0:0:0:
256,192,52402,1,0,0:0:0:0:
256,192,52551,1,8,0:0:0:0:
256,192,52701,1,0,0:0:0:0:
256,192,52850,1,0,0:0:0:0:
256,192,52999,1,0,0:0:0:0:
256,192,53148,1,8,0:0:0:0:
256,192,53298,1,8,0:0:0:0:
256,192,53447,1,0,0:0:0:0:
256,192,53596,1,0,0:0:0:0:
256,192,53745,1,8,0:0:0:0:
256,192,53895,1,0,0:0:0:0:
256,192,54044,1,0,0:0:0:0:
256,192,54193,1,0,0:0:0:0:
256,192,54342,1,8,0:0:0:0:
256,192,54492,1,0,0:0:0:0:
256,192,54566,1,0,0:0:0:0:
256,192,54641,1,0,0:0:0:0:
256,192,54790,1,0,0:0:0:0:
256,192,54939,1,8,0:0:0:0:
256,192,55089,1,0,0:0:0:0:
256,192,55238,1,0,0:0:0:0:
256,192,55387,1,0,0:0:0:0:
256,192,55536,1,8,0:0:0:0:
256,192,55686,1,8,0:0:0:0:
256,192,55760,1,8,0:0:0:0:
256,192,55835,1,0,0:0:0:0:
256,192,55984,1,0,0:0:0:0:
256,192,56133,1,8,0:0:0:0:
256,192,56283,1,0,0:0:0:0:
256,192,56432,1,8,0:0:0:0:
256,192,56581,1,8,0:0:0:0:
256,192,56730,1,0,0:0:0:0:
256,192,56805,1,0,0:0:0:0:
256,192,56880,1,0,0:0:0:0:
256,192,56954,1,0,0:0:0:0:
256,192,57029,1,0,0:0:0:0:
256,192,57327,1,0,0:0:0:0:
256,192,57626,1,12,0:0:0:0:
256,192,57775,1,12,0:0:0:0:
256,192,58074,1,0,0:0:0:0:
256,192,58148,1,0,0:0:0:0:
256,192,58223,1,0,0:0:0:0:
256,192,58521,1,0,0:0:0:0:
256,192,58820,1,12,0:0:0:0:
256,192,58969,1,12,0:0:0:0:
256,192,59268,1,0,0:0:0:0:
256,192,59342,1,0,0:0:0:0:
256,192,59417,1,0,0:0:0:0:
256,192,59715,1,8,0:0:0:0:
256,192,60014,1,0,0:0:0:0:
256,192,60163,1,0,0:0:0:0:
256,192,60312,1,8,0:0:0:0:
256,192,60462,1,8,0:0:0:0:
256,192,60536,1,8,0:0:0:0:
256,192,60611,1,0,0:0:0:0:
256,192,60760,1,8,0:0:0:0:
256,192,60909,1,8,0:0:0:0:
256,192,61059,1,0,0:0:0:0:
256,192,61208,1,8,0:0:0:0:
256,192,61357,1,8,0:0:0:0:
256,192,61507,1,0,0:0:0:0:
256,192,61581,1,0,0:0:0:0:
256,192,61656,1,0,0:0:0:0:
256,192,61730,1,0,0:0:0:0:
256,192,61805,1,0,0:0:0:0:
256,192,61954,1,0,0:0:0:0:
256,192,62104,1,8,0:0:0:0:
256,192,62253,1,0,0:0:0:0:
256,192,62402,1,0,0:0:0:0:
256,192,62551,1,0,0:0:0:0:
256,192,62701,1,8,0:0:0:0:
256,192,62850,1,8,0:0:0:0:
256,192,62924,1,8,0:0:0:0:
256,192,62999,1,0,0:0:0:0:
256,192,63148,1,0,0:0:0:0:
256,192,63298,1,8,0:0:0:0:
256,192,63447,1,0,0:0:0:0:
256,192,63596,1,0,0:0:0:0:
256,192,63745,1,0,0:0:0:0:
256,192,63895,1,8,0:0:0:0:
256,192,64044,1,0,0:0:0:0:
256,192,64118,1,0,0:0:0:0:
256,192,64193,1,0,0:0:0:0:
256,192,64342,1,0,0:0:0:0:
256,192,64492,1,8,0:0:0:0:
256,192,64641,1,0,0:0:0:0:
256,192,64790,1,0,0:0:0:0:
256,192,64939,1,0,0:0:0:0:
256,192,65089,1,8,0:0:0:0:
256,192,65238,1,0,0:0:0:0:
256,192,65312,1,0,0:0:0:0:
256,192,65387,1,8,0:0:0:0:
256,192,65536,1,0,0:0:0:0:
256,192,65686,1,8,0:0:0:0:
256,192,65835,1,0,0:0:0:0:
256,192,65984,1,0,0:0:0:0:
256,192,66133,1,0,0:0:0:0:
256,192,66283,1,8,0:0:0:0:
256,192,66432,1,0,0:0:0:0:
256,192,66507,1,0,0:0:0:0:
256,192,66581,1,8,0:0:0:0:
256,192,66730,1,0,0:0:0:0:
256,192,66880,1,0,0:0:0:0:
256,192,66979,1,0,0:0:0:0:
256,192,67079,1,0,0:0:0:0:
256,192,67178,1,8,0:0:0:0:
256,192,67327,1,0,0:0:0:0:
256,192,67477,1,0,0:0:0:0:
256,192,67576,1,0,0:0:0:0:
256,192,67676,1,0,0:0:0:0:
256,192,67775,1,8,0:0:0:0:
256,192,67924,1,0,0:0:0:0:
256,192,68074,1,0,0:0:0:0:
256,192,68148,1,0,0:0:0:0:
256,192,68223,1,0,0:0:0:0:
256,192,68298,1,0,0:0:0:0:
256,192,68372,1,8,0:0:0:0:
256,192,68521,1,0,0:0:0:0:
256,192,68671,1,0,0:0:0:0:
256,192,68745,1,0,0:0:0:0:
256,192,68820,1,0,0:0:0:0:
256,192,68895,1,0,0:0:0:0:
256,192,68969,1,8,0:0:0:0:
256,192,69268,1,0,0:0:0:0:
256,192,69566,1,8,0:0:0:0:
256,192,69715,1,8,0:0:0:0:
256,192,69865,1,0,0:0:0:0:
256,192,70014,1,8,0:0:0:0:
256,192,70163,1,8,0:0:0:0:
256,192,70312,1,0,0:0:0:0:
256,192,70462,1,0,0:0:0:0:
256,192,70611,1,8,0:0:0:0:
256,192,70760,1,8,0:0:0:0:
256,192,71059,1,0,0:0:0:0:
256,192,71208,1,0,0:0:0:0:
256,192,71357,1,8,0:0:0:0:
256,192,71656,1,0,0:0:0:0:
256,192,71755,1,0,0:0:0:0:
256,192,71855,1,0,0:0:0:0:
256,192,71954,1,0,0:0:0:0:
256,192,72253,1,8,0:0:0:0:
256,192,72402,1,8,0:0:0:0:
256,192,72551,1,8,0:0:0:0:
256,192,72850,1,0,0:0:0:0:
256,192,72949,1,0,0:0:0:0:
256,192,73049,1,0,0:0:0:0:
256,192,73148,1,0,0:0:0:0:
256,192,73447,1,0,0:0:0:0:
256,192,73596,1,0,0:0:0:0:
256,192,73745,1,8,0:0:0:0:
256,192,74193,1,0,0:0:0:0:
256,192,74641,1,0,0:0:0:0:
256,192,74790,1,0,0:0:0:0:
256,192,74939,1,8,0:0:0:0:
256,192,75238,1,0,0:0:0:0:
256,192,75536,1,8,0:0:0:0:
256,192,75835,1,8,0:0:0:0:
256,192,76034,1,8,0:0:0:0:
256,192,76133,1,0,0:0:0:0:
256,192,76432,1,0,0:0:0:0:
256,192,76631,1,8,0:0:0:0:
256,192,76730,1,0,0:0:0:0:
256,192,77029,1,0,0:0:0:0:
256,192,77327,1,0,0:0:0:0:
256,192,77427,1,0,0:0:0:0:
256,192,77526,1,8,0:0:0:0:
256,192,77626,1,0,0:0:0:0:
256,192,77924,1,0,0:0:0:0:
256,192,78024,1,0,0:0:0:0:
256,192,78123,1,8,0:0:0:0:
256,192,78223,1,0,0:0:0:0:
256,192,78422,1,8,0:0:0:0:
256,192,78521,1,0,0:0:0:0:
256,192,78820,1,8,0:0:0:0:
256,192,79019,1,8,0:0:0:0:
256,192,79118,1,0,0:0:0:0:
256,192,79417,1,8,0:0:0:0:
256,192,79715,1,8,0:0:0:0:
256,192,79815,1,8,0:0:0:0:
256,192,79914,1,0,0:0:0:0:
256,192,80014,1,8,0:0:0:0:
256,192,80312,1,8,0:0:0:0:
256,192,80412,1,8,0:0:0:0:
256,192,80511,1,0,0:0:0:0:
256,192,80611,1,8,0:0:0:0:
256,192,80909,1,0,0:0:0:0:
256,192,81208,1,0,0:0:0:0:
256,192,81308,1,0,0:0:0:0:
256,192,81407,1,8,0:0:0:0:
256,192,81507,1,0,0:0:0:0:
256,192,81656,1,0,0:0:0:0:
256,192,81805,1,8,0:0:0:0:
256,192,81905,1,0,0:0:0:0:
256,192,82004,1,0,0:0:0:0:
256,192,82104,1,8,0:0:0:0:
256,192,82253,1,0,0:0:0:0:
256,192,82402,1,0,0:0:0:0:
256,192,82502,1,0,0:0:0:0:
256,192,82601,1,0,0:0:0:0:
256,192,82701,1,8,0:0:0:0:
256,192,82800,1,8,0:0:0:0:
256,192,82900,1,0,0:0:0:0:
256,192,82999,1,8,0:0:0:0:
256,192,83099,1,0,0:0:0:0:
256,192,83198,1,0,0:0:0:0:
256,192,83298,1,8,0:0:0:0:
256,192,83596,1,8,0:0:0:0:
256,192,83895,1,8,0:0:0:0:
256,192,84193,1,0,0:0:0:0:
256,192,84392,1,0,0:0:0:0:
256,192,84492,1,8,0:0:0:0:
256,192,84790,1,0,0:0:0:0:
256,192,84890,1,0,0:0:0:0:
256,192,84989,1,0,0:0:0:0:
256,192,85089,1,8,0:0:0:0:
256,192,85387,1,8,0:0:0:0:
256,192,85686,1,4,0:0:0:0:
256,192,86283,1,0,0:0:0:0:
256,192,86880,1,8,0:0:0:0:
256,192,87477,1,0,0:0:0:0:
256,192,87775,1,4,0:0:0:0:
256,192,88074,1,4,0:0:0:0:
256,192,88671,1,0,0:0:0:0:
256,192,89268,1,4,0:0:0:0:
256,192,89367,1,8,0:0:0:0:
256,192,89467,1,8,0:0:0:0:
256,192,89566,1,4,0:0:0:0:
256,192,89666,1,8,0:0:0:0:
256,192,89765,1,8,0:0:0:0:
256,192,89865,1,4,0:0:0:0:
256,192,90163,1,8,0:0:0:0:
256,192,90238,1,8,0:0:0:0:
256,192,90312,1,0,0:0:0:0:
256,192,90387,1,0,0:0:0:0:
256,192,90462,1,0,0:0:0:0:
256,192,90611,1,0,0:0:0:0:
256,192,90760,1,8,0:0:0:0:
256,192,90909,1,0,0:0:0:0:
256,192,90984,1,0,0:0:0:0:
256,192,91059,1,8,0:0:0:0:
256,192,91208,1,0,0:0:0:0:
256,192,91357,1,8,0:0:0:0:
256,192,91507,1,8,0:0:0:0:
256,192,91581,1,8,0:0:0:0:
256,192,91656,1,0,0:0:0:0:
256,192,91805,1,8,0:0:0:0:
256,192,91880,1,0,0:0:0:0:
256,192,92104,1,0,0:0:0:0:
256,192,92253,1,8,0:0:0:0:
256,192,92327,1,8,0:0:0:0:
256,192,92402,1,8,0:0:0:0:
256,192,92551,1,8,0:0:0:0:
256,192,92701,1,0,0:0:0:0:
256,192,92999,1,0,0:0:0:0:
256,192,93148,1,8,0:0:0:0:
256,192,93248,1,0,0:0:0:0:
256,192,93347,1,0,0:0:0:0:
256,192,93447,1,8,0:0:0:0:
256,192,93596,1,0,0:0:0:0:
256,192,93745,1,0,0:0:0:0:
256,192,93895,1,8,0:0:0:0:
256,192,94044,1,8,0:0:0:0:
256,192,94342,1,8,0:0:0:0:
256,192,94492,1,0,0:0:0:0:
256,192,94566,1,0,0:0:0:0:
256,192,94641,1,8,0:0:0:0:
256,192,94790,1,0,0:0:0:0:
256,192,94939,1,0,0:0:0:0:
256,192,95089,1,8,0:0:0:0:
256,192,95163,1,8,0:0:0:0:
256,192,95238,1,0,0:0:0:0:
256,192,95387,1,0,0:0:0:0:
256,192,95536,1,8,0:0:0:0:
256,192,95686,1,0,0:0:0:0:
256,192,95760,1,0,0:0:0:0:
256,192,95835,1,8,0:0:0:0:
256,192,95984,1,0,0:0:0:0:
256,192,96133,1,0,0:0:0:0:
256,192,96233,1,0,0:0:0:0:
256,192,96332,1,8,0:0:0:0:
256,192,96432,1,0,0:0:0:0:
256,192,96581,1,0,0:0:0:0:
256,192,96730,1,0,0:0:0:0:
256,192,96805,1,0,0:0:0:0:
256,192,96880,1,0,0:0:0:0:
256,192,96954,1,0,0:0:0:0:
256,192,97029,1,8,0:0:0:0:
256,192,97178,1,0,0:0:0:0:
256,192,97327,1,0,0:0:0:0:
256,192,97402,1,8,0:0:0:0:
256,192,97477,1,8,0:0:0:0:
256,192,97551,1,8,0:0:0:0:
256,192,97626,1,0,0:0:0:0:
256,192,97775,1,0,0:0:0:0:
256,192,97924,1,8,0:0:0:0:
256,192,98074,1,0,0:0:0:0:
256,192,98148,1,8,0:0:0:0:
256,192,98223,1,0,0:0:0:0:
256,192,98372,1,8,0:0:0:0:
256,192,98521,1,0,0:0:0:0:
256,192,98596,1,0,0:0:0:0:
256,192,98671,1,8,0:0:0:0:
256,192,98745,1,8,0:0:0:0:
256,192,98820,1,0,0:0:0:0:
256,192,98895,1,8,0:0:0:0:
256,192,98969,1,0,0:0:0:0:
256,192,99118,1,8,0:0:0:0:
256,192,99193,1,8,0:0:0:0:
256,192,99268,1,0,0:0:0:0:
256,192,99417,1,8,0:0:0:0:
256,192,99492,1,0,0:0:0:0:
256,192,99566,1,8,0:0:0:0:
256,192,99715,1,0,0:0:0:0:
256,192,99790,1,0,0:0:0:0:
256,192,99865,1,8,0:0:0:0:
256,192,99939,1,8,0:0:0:0:
256,192,100014,1,0,0:0:0:0:
256,192,100163,1,0,0:0:0:0:
256,192,100312,1,8,0:0:0:0:
256,192,100462,1,0,0:0:0:0:
256,192,100536,1,0,0:0:0:0:
256,192,100611,1,8,0:0:0:0:
256,192,100760,1,0,0:0:0:0:
256,192,100909,1,8,0:0:0:0:
256,192,101059,1,8,0:0:0:0:
256,192,101133,1,8,0:0:0:0:
256,192,101208,1,0,0:0:0:0:
256,192,101357,1,8,0:0:0:0:
256,192,101507,1,0,0:0:0:0:
256,192,101656,1,0,0:0:0:0:
256,192,101730,1,0,0:0:0:0:
256,192,101805,1,8,0:0:0:0:
256,192,101954,1,8,0:0:0:0:
256,192,102104,1,0,0:0:0:0:
256,192,102253,1,0,0:0:0:0:
256,192,102551,1,0,0:0:0:0:
256,192,102701,1,8,0:0:0:0:
256,192,102800,1,8,0:0:0:0:
256,192,102900,1,0,0:0:0:0:
256,192,102999,1,8,0:0:0:0:
256,192,103099,1,8,0:0:0:0:
256,192,103198,1,0,0:0:0:0:
256,192,103298,1,8,0:0:0:0:
256,192,103397,1,0,0:0:0:0:
256,192,103497,1,0,0:0:0:0:
256,192,103596,1,0,0:0:0:0:
256,192,103895,1,0,0:0:0:0:
256,192,104193,1,0,0:0:0:0:
256,192,104268,1,0,0:0:0:0:
256,192,104342,1,0,0:0:0:0:
256,192,104492,1,0,0:0:0:0:
256,192,104566,1,0,0:0:0:0:
256,192,104641,1,8,0:0:0:0:
256,192,104790,1,0,0:0:0:0:
256,192,104890,1,0,0:0:0:0:
256,192,104989,1,8,0:0:0:0:
256,192,105089,1,0,0:0:0:0:
256,192,105189,1,8,0:0:0:0:
256,192,105288,1,8,0:0:0:0:
256,192,105387,1,0,0:0:0:0:
256,192,105487,1,0,0:0:0:0:
256,192,105586,1,8,0:0:0:0:
256,192,105686,1,0,0:0:0:0:
256,192,105786,1,8,0:0:0:0:
256,192,105885,1,8,0:0:0:0:
256,192,105984,1,0,0:0:0:0:
256,192,106084,1,0,0:0:0:0:
256,192,106183,1,8,0:0:0:0:
256,192,106283,1,0,0:0:0:0:
256,192,106383,1,8,0:0:0:0:
256,192,106482,1,8,0:0:0:0:
256,192,106581,1,0,0:0:0:0:
256,192,106730,1,0,0:0:0:0:
256,192,107029,1,8,0:0:0:0:
256,192,107103,1,8,0:0:0:0:
256,192,107178,1,0,0:0:0:0:
256,192,107477,1,12,0:0:0:0:
256,192,107775,1,8,0:0:0:0:
256,192,107875,1,8,0:0:0:0:
256,192,107974,1,0,0:0:0:0:
256,192,108074,1,8,0:0:0:0:
256,192,108173,1,8,0:0:0:0:
256,192,108273,1,0,0:0:0:0:
256,192,108372,1,0,0:0:0:0:
256,192,108671,1,4,0:0:0:0:
256,192,108969,1,8,0:0:0:0:
256,192,109118,1,0,0:0:0:0:
256,192,109268,1,0,0:0:0:0:
256,192,109342,1,0,0:0:0:0:
256,192,109417,1,0,0:0:0:0:
256,192,109492,1,0,0:0:0:0:
256,192,109566,1,8,0:0:0:0:
256,192,109865,1,0,0:0:0:0:
256,192,110163,1,0,0:0:0:0:
256,192,110462,1,0,0:0:0:0:
256,192,110760,1,0,0:0:0:0:
256,192,111059,1,0,0:0:0:0:
256,192,111357,1,0,0:0:0:0:
256,192,111656,1,0,0:0:0:0:
256,192,111880,1,0,0:0:0:0:
256,192,111954,1,8,0:0:0:0:
256,192,112253,1,0,0:0:0:0:
256,192,112551,1,0,0:0:0:0:
256,192,112850,1,0,0:0:0:0:
256,192,113148,1,8,0:0:0:0:
256,192,113447,1,8,0:0:0:0:
256,192,113745,1,0,0:0:0:0:
256,192,113820,1,0,0:0:0:0:
256,192,113895,1,0,0:0:0:0:
256,192,113969,1,0,0:0:0:0:
256,192,114044,1,8,0:0:0:0:
256,192,114342,1,4,0:0:0:0:
256,192,114641,1,0,0:0:0:0:
256,192,114740,1,0,0:0:0:0:
256,192,114840,1,0,0:0:0:0:
256,192,114939,1,8,0:0:0:0:
256,192,115089,1,0,0:0:0:0:
256,192,115237,1,4,0:0:0:0:
256,192,115386,1,12,0:0:0:0:
256,192,115835,1,8,0:0:0:0:
256,192,115934,1,8,0:0:0:0:
256,192,116034,1,8,0:0:0:0:
256,192,116133,1,4,0:0:0:0:
256,192,116431,1,12,0:0:0:0:
256,192,116730,1,4,0:0:0:0:
256,192,117177,1,4,0:0:0:0:
256,192,117327,1,4,0:0:0:0:
256,192,117774,1,0,0:0:0:0:
256,192,117924,1,0,0:0:0:0:
256,192,118024,1,8,0:0:0:0:
256,192,118123,1,8,0:0:0:0:
256,192,118222,1,0,0:0:0:0:
256,192,118322,1,8,0:0:0:0:
256,192,118422,1,8,0:0:0:0:
256,192,118521,1,0,0:0:0:0:
256,192,118621,1,0,0:0:0:0:
256,192,118720,1,0,0:0:0:0:
256,192,118820,1,8,0:0:0:0:
256,192,118919,1,0,0:0:0:0:
256,192,119019,1,0,0:0:0:0:
256,192,119118,1,0,0:0:0:0:
256,192,119268,1,0,0:0:0:0:
256,192,119417,1,8,0:0:0:0:
256,192,119566,1,0,0:0:0:0:
256,192,119641,1,0,0:0:0:0:
256,192,119715,1,0,0:0:0:0:
256,192,119865,1,0,0:0:0:0:
256,192,120014,1,8,0:0:0:0:
256,192,120163,1,0,0:0:0:0:
256,192,120238,1,0,0:0:0:0:
256,192,120312,1,8,0:0:0:0:
256,192,120462,1,0,0:0:0:0:
256,192,120611,1,8,0:0:0:0:
256,192,120710,1,8,0:0:0:0:
256,192,120810,1,0,0:0:0:0:
256,192,120909,1,0,0:0:0:0:
256,192,121207,1,0,0:0:0:0:
256,192,121283,1,8,0:0:0:0:
256,192,121356,1,0,0:0:0:0:
256,192,121431,1,8,0:0:0:0:
256,192,121506,1,0,0:0:0:0:
256,192,121656,1,0,0:0:0:0:
256,192,121804,1,8,0:0:0:0:
256,192,121879,1,0,0:0:0:0:
256,192,121953,1,0,0:0:0:0:
256,192,122028,1,0,0:0:0:0:
256,192,122103,1,8,0:0:0:0:
256,192,122253,1,0,0:0:0:0:
256,192,122401,1,8,0:0:0:0:
256,192,122476,1,0,0:0:0:0:
256,192,122550,1,0,0:0:0:0:
256,192,122625,1,8,0:0:0:0:
256,192,122700,1,8,0:0:0:0:
256,192,122850,1,0,0:0:0:0:
256,192,122998,1,8,0:0:0:0:
256,192,123073,1,0,0:0:0:0:
256,192,123147,1,8,0:0:0:0:
256,192,123222,1,8,0:0:0:0:
256,192,123297,1,8,0:0:0:0:
256,192,123446,1,8,0:0:0:0:
256,192,123745,1,8,0:0:0:0:
256,192,123820,1,8,0:0:0:0:
256,192,123895,1,4,0:0:0:0:
