osu file format v14

[General]
AudioFilename: audio.mp3
AudioLeadIn: 0
PreviewTime: 89508
Countdown: 0
SampleSet: Soft
StackLeniency: 0.7
Mode: 3
LetterboxInBreaks: 0
SpecialStyle: 0
WidescreenStoryboard: 1

[Editor]
DistanceSpacing: 0.6
BeatDivisor: 4
GridSize: 4
TimelineZoom: 1.699999

[Metadata]
Title:Idola
TitleUnicode:Idola
Artist:iconoclasm feat. GUMI
ArtistUnicode:iconoclasm feat. GUMI
Creator:Kyousuke-
Version:Hyper
Source:beatmania IIDX 21 SPADA
Tags:5th Anniversary party wac dj TAKA あさき 96 REPLICANT CORE BEMANI vocaloid megpoid メグッポイド Arzenvald Noch Einen FAMoss japanese video game
BeatmapID:2451400
BeatmapSetID:1173565

[Difficulty]
HPDrainRate:7.5
CircleSize:7
OverallDifficulty:7.5
ApproachRate:5
SliderMultiplier:1.4
SliderTickRate:1

[Events]
//Background and Video events
0,0,"BG.png",0,0
//Break Periods
//Storyboard Layer 0 (Background)
//Storyboard Layer 1 (Fail)
//Storyboard Layer 2 (Pass)
//Storyboard Layer 3 (Foreground)
//Storyboard Layer 4 (Overlay)
//Storyboard Sound Samples
Sample,37120,0,"LR_Snare Drum 2.wav",70
Sample,37419,0,"LR_Snare Drum 2.wav",70
Sample,37717,0,"LR_Snare Drum 2.wav",70
Sample,38016,0,"LR_Snare Drum 2.wav",70
Sample,85702,0,"LR_Snare Drum 2.wav",50
Sample,89682,0,"LR_Snare Drum 2.wav",70
Sample,89881,0,"LR_Snare Drum 2.wav",70
Sample,90080,0,"LR_Snare Drum 2.wav",70

[TimingPoints]
1225,298.507462686567,4,2,1,60,1,0
10926,-100,4,2,1,50,0,0
17941,-100,4,2,1,60,0,0
20329,-100,4,2,1,70,0,0
47941,-100,4,2,1,60,0,0
52568,-100,4,2,1,70,0,0
71672,-100,4,2,1,50,0,0
89284,-100,4,2,1,60,0,0
90777,-100,4,2,1,70,0,1
109881,-100,4,2,1,60,0,0
119433,-100,4,2,1,70,0,1
124210,-100,4,2,1,70,0,0

[HitObjects]
402,192,926,5,0,0:0:0:100:00FW.wav
36,192,1225,1,4,0:0:0:0:
109,192,1225,1,0,0:0:0:100:00FX.wav
475,192,1225,1,0,0:0:0:0:
182,192,1523,1,0,0:0:0:0:
329,192,1822,1,0,0:0:0:0:
256,192,2120,1,0,0:0:0:100:00FZ.wav
109,192,2269,1,0,0:0:0:100:00FZ.wav
475,192,2269,1,0,0:0:0:0:
402,192,2717,1,0,0:0:0:0:
182,192,3016,1,0,0:0:0:100:00G0.wav
256,192,3314,1,0,0:0:0:100:00G1.wav
36,192,3613,1,0,0:0:0:100:00G2.wav
329,192,3613,1,0,0:0:0:0:
109,192,3911,1,0,0:0:0:0:
182,192,4210,1,0,0:0:0:100:00G3.wav
402,192,4210,1,0,0:0:0:0:
475,192,4508,1,0,0:0:0:0:
109,192,4807,1,0,0:0:0:100:00G4.wav
329,192,4807,1,0,0:0:0:0:
36,192,5105,1,0,0:0:0:100:00G5.wav
182,192,5404,1,0,0:0:0:100:00G6.wav
402,192,5404,1,0,0:0:0:0:
329,192,5702,1,0,0:0:0:100:00G7.wav
36,192,6001,1,0,0:0:0:100:00G8.wav
475,192,6001,1,0,0:0:0:0:
182,192,6299,1,0,0:0:0:0:
329,192,6598,1,0,0:0:0:100:00G9.wav
402,192,6598,1,0,0:0:0:0:
182,192,6896,1,0,0:0:0:0:
256,192,7045,1,0,0:0:0:100:00GA.wav
36,192,7195,1,0,0:0:0:100:00GA.wav
475,192,7195,1,0,0:0:0:0:
329,192,7493,1,0,0:0:0:0:
109,192,7792,1,0,0:0:0:100:00GC.wav
182,192,7792,1,0,0:0:0:0:
256,192,8090,1,0,0:0:0:0:
36,192,8239,1,2,0:0:0:0:
109,192,8239,1,0,0:0:0:0:
329,192,8389,1,2,0:0:0:0:
402,192,8389,1,4,0:0:0:0:
475,192,8389,1,0,0:0:0:0:
182,192,8836,1,2,0:0:0:0:
256,192,8836,1,0,0:0:0:0:
36,192,8986,1,4,0:0:0:0:
109,192,8986,1,2,0:0:0:0:
475,192,8986,1,0,0:0:0:0:
329,192,9433,1,2,0:0:0:0:
402,192,9433,1,0,0:0:0:0:
36,192,9583,1,2,0:0:0:0:
109,192,9583,1,4,0:0:0:0:
182,192,9583,1,0,0:0:0:0:
256,192,10030,1,0,0:0:0:70:tom01.wav
329,192,10030,1,0,0:0:0:0:
36,192,10180,1,0,0:0:0:70:tom02.wav
182,192,10254,1,0,0:0:0:70:tom03.wav
329,192,10329,1,4,0:0:0:0:
402,192,10329,1,2,0:0:0:0:
475,192,10329,1,0,0:0:0:0:
475,192,10627,1,0,0:0:0:0:
329,192,10702,1,0,0:0:0:0:
36,192,10777,1,2,0:0:0:0:
109,192,10777,1,4,0:0:0:0:
182,192,10777,1,0,0:0:0:0:
402,192,11075,1,0,0:0:0:0:
182,192,11374,1,0,0:0:0:0:
402,192,11672,1,0,0:0:0:0:
329,192,11971,1,0,0:0:0:0:
109,192,12269,1,0,0:0:0:0:
329,192,12568,1,0,0:0:0:0:
109,192,12866,1,0,0:0:0:0:
182,192,13165,1,0,0:0:0:0:
256,192,13314,1,0,0:0:0:0:
402,192,13463,1,0,0:0:0:0:
329,192,13613,1,0,0:0:0:0:
109,192,13762,1,0,0:0:0:0:
256,192,13911,1,0,0:0:0:0:
402,192,14060,1,0,0:0:0:0:
256,192,14210,1,0,0:0:0:0:
36,192,14359,1,0,0:0:0:0:
109,192,14359,1,0,0:0:0:0:
402,192,14657,1,0,0:0:0:0:
475,192,14657,1,0,0:0:0:0:
36,192,14956,1,0,0:0:0:0:
109,192,14956,1,0,0:0:0:0:
182,192,15105,1,0,0:0:0:0:
256,192,15254,1,0,0:0:0:0:
329,192,15404,1,0,0:0:0:0:
36,192,15553,1,0,0:0:0:0:
402,192,15553,1,0,0:0:0:0:
256,192,15702,1,0,0:0:0:0:
475,192,15851,1,0,0:0:0:0:
329,192,16001,1,0,0:0:0:0:
182,192,16150,1,0,0:0:0:0:
402,192,16150,1,0,0:0:0:0:
182,192,16299,1,0,0:0:0:0:
109,192,16448,1,0,0:0:0:0:
329,192,16448,1,0,0:0:0:0:
109,192,16598,1,0,0:0:0:0:
36,192,16747,1,0,0:0:0:0:
475,192,16747,1,0,0:0:0:0:
256,192,16896,1,0,0:0:0:0:
109,192,17045,1,0,0:0:0:0:
329,192,17195,1,0,0:0:0:0:
182,192,17344,1,0,0:0:0:0:
402,192,17344,1,0,0:0:0:0:
402,192,17493,1,0,0:0:0:0:
109,192,17642,1,0,0:0:0:0:
256,192,17642,1,0,0:0:0:0:
402,192,17792,1,0,0:0:0:0:
36,192,17941,1,2,0:0:0:0:
475,192,17941,1,0,0:0:0:0:
36,192,18090,1,2,0:0:0:0:
475,192,18090,1,0,0:0:0:0:
182,192,18239,1,2,0:0:0:0:
329,192,18239,1,0,0:0:0:0:
256,192,18389,1,2,0:0:0:0:
109,192,18538,1,2,0:0:0:0:
402,192,18538,1,0,0:0:0:0:
109,192,18687,1,2,0:0:0:0:
402,192,18687,1,0,0:0:0:0:
36,192,18836,1,2,0:0:0:0:
475,192,18836,1,0,0:0:0:0:
256,192,18986,1,2,0:0:0:0:
182,192,19060,1,2,0:0:0:0:
329,192,19135,1,2,0:0:0:0:
475,192,19135,1,0,0:0:0:70:LR_Snare Drum 2.wav
182,192,19210,1,0,0:0:0:70:LR_Snare Drum 2.wav
329,192,19284,1,2,0:0:0:0:
475,192,19284,1,0,0:0:0:0:
36,192,19433,1,2,0:0:0:0:
182,192,19433,1,0,0:0:0:70:LR_Snare Drum 2.wav
402,192,19583,1,2,0:0:0:0:
475,192,19583,1,0,0:0:0:0:
36,192,19732,1,2,0:0:0:0:
109,192,19732,1,0,0:0:0:70:LR_Snare Drum 2.wav
329,192,19881,1,2,0:0:0:0:
402,192,19881,1,0,0:0:0:0:
109,192,20030,1,2,0:0:0:0:
182,192,20030,1,0,0:0:0:70:LR_Snare Drum 2.wav
256,192,20180,1,2,0:0:0:0:
329,192,20180,1,0,0:0:0:0:
36,192,20329,1,2,0:0:0:0:
182,192,20329,1,4,0:0:0:0:
475,192,20329,1,0,0:0:0:0:
329,192,20627,1,8,0:0:0:0:
402,192,20627,1,0,0:0:0:0:
109,192,20777,1,0,0:0:0:0:
256,192,20851,1,0,0:0:0:0:
182,192,20926,1,0,0:0:0:0:
329,192,21001,1,0,0:0:0:0:
402,192,21075,1,2,0:0:0:0:
475,192,21075,1,0,0:0:0:0:
36,192,21224,1,8,0:0:0:0:
109,192,21224,1,0,0:0:0:0:
329,192,21374,1,0,0:0:0:0:
256,192,21448,1,0,0:0:0:0:
36,192,21523,1,2,0:0:0:0:
182,192,21523,1,0,0:0:0:0:
256,192,21672,1,2,0:0:0:0:
329,192,21672,1,0,0:0:0:0:
402,192,21822,1,8,0:0:0:0:
475,192,21822,1,0,0:0:0:0:
329,192,21971,1,0,0:0:0:0:
256,192,22045,1,0,0:0:0:0:
182,192,22120,1,0,0:0:0:0:
329,192,22195,1,0,0:0:0:0:
109,192,22269,1,2,0:0:0:0:
402,192,22269,1,0,0:0:0:0:
36,192,22419,1,8,0:0:0:0:
256,192,22419,1,0,0:0:0:0:
329,192,22568,1,0,0:0:0:0:
402,192,22642,1,0,0:0:0:0:
109,192,22717,1,2,0:0:0:0:
475,192,22717,1,0,0:0:0:0:
256,192,22866,1,2,0:0:0:0:
329,192,22866,1,0,0:0:0:0:
36,192,23016,1,8,0:0:0:0:
182,192,23016,1,0,0:0:0:0:
329,192,23165,1,0,0:0:0:0:
256,192,23314,1,2,0:0:0:0:
475,192,23314,1,0,0:0:0:0:
109,192,23463,1,2,0:0:0:0:
182,192,23463,1,0,0:0:0:0:
329,192,23613,1,8,0:0:0:0:
402,192,23613,1,0,0:0:0:0:
182,192,23762,1,0,0:0:0:0:
36,192,23911,1,2,0:0:0:0:
256,192,23911,1,0,0:0:0:0:
329,192,24060,1,0,0:0:0:0:
109,192,24210,1,8,0:0:0:0:
475,192,24210,1,0,0:0:0:0:
182,192,24359,1,0,0:0:0:0:
402,192,24433,1,0,0:0:0:0:
256,192,24508,1,0,0:0:0:0:
329,192,24583,1,0,0:0:0:0:
36,192,24657,1,2,0:0:0:0:
109,192,24657,1,0,0:0:0:0:
402,192,24807,1,8,0:0:0:0:
475,192,24807,1,0,0:0:0:0:
182,192,24956,1,0,0:0:0:0:
256,192,25030,1,0,0:0:0:0:
36,192,25105,1,2,0:0:0:0:
329,192,25105,1,4,0:0:0:0:
475,192,25105,1,0,0:0:0:0:
109,192,25404,1,8,0:0:0:0:
402,192,25404,1,0,0:0:0:0:
256,192,25553,1,0,0:0:0:0:
329,192,25627,1,0,0:0:0:0:
402,192,25702,1,2,0:0:0:0:
182,192,25777,1,0,0:0:0:0:
109,192,25851,1,2,0:0:0:0:
329,192,25851,1,0,0:0:0:0:
256,192,26001,1,8,0:0:0:0:
475,192,26001,1,0,0:0:0:0:
182,192,26150,1,0,0:0:0:0:
36,192,26299,1,2,0:0:0:0:
329,192,26299,1,0,0:0:0:0:
109,192,26448,1,2,0:0:0:0:
256,192,26448,1,0,0:0:0:0:
182,192,26598,1,8,0:0:0:0:
475,192,26598,1,0,0:0:0:0:
402,192,26747,1,0,0:0:0:0:
36,192,26896,1,2,0:0:0:0:
256,192,26896,1,0,0:0:0:0:
182,192,27045,1,2,0:0:0:0:
329,192,27045,1,0,0:0:0:0:
109,192,27195,1,8,0:0:0:0:
402,192,27195,1,0,0:0:0:0:
256,192,27344,1,0,0:0:0:0:
182,192,27493,1,2,0:0:0:0:
475,192,27493,1,0,0:0:0:0:
36,192,27642,1,2,0:0:0:0:
109,192,27642,1,0,0:0:0:0:
329,192,27792,1,8,0:0:0:0:
402,192,27792,1,0,0:0:0:0:
182,192,27941,1,2,0:0:0:0:
256,192,27941,1,0,0:0:0:0:
36,192,28090,1,0,0:0:0:0:
109,192,28090,1,0,0:0:0:0:
402,192,28239,1,2,0:0:0:0:
475,192,28239,1,0,0:0:0:0:
256,192,28389,1,8,0:0:0:0:
329,192,28389,1,0,0:0:0:0:
182,192,28538,1,8,0:0:0:0:
329,192,28613,1,8,0:0:0:0:
36,192,28687,1,2,0:0:0:0:
109,192,28687,1,4,0:0:0:0:
256,192,28687,1,0,0:0:0:0:
36,192,28986,1,2,0:0:0:0:
402,192,28986,1,0,0:0:0:0:
36,192,29284,1,2,0:0:0:0:
256,192,29284,1,0,0:0:0:0:
36,192,29583,1,2,0:0:0:0:
402,192,29583,1,0,0:0:0:0:
256,192,29881,1,2,0:0:0:0:
475,192,29881,1,0,0:0:0:0:
109,192,30180,1,2,0:0:0:0:
475,192,30180,1,0,0:0:0:0:
256,192,30478,1,2,0:0:0:0:
475,192,30478,1,0,0:0:0:0:
109,192,30777,1,2,0:0:0:0:
475,192,30777,1,0,0:0:0:0:
36,192,31075,1,2,0:0:0:0:
182,192,31075,1,0,0:0:0:0:
36,192,31374,1,2,0:0:0:0:
402,192,31374,1,0,0:0:0:0:
36,192,31672,1,2,0:0:0:0:
182,192,31672,1,0,0:0:0:0:
36,192,31971,1,2,0:0:0:0:
402,192,31971,1,0,0:0:0:0:
329,192,32269,1,2,0:0:0:0:
475,192,32269,1,0,0:0:0:0:
109,192,32568,1,2,0:0:0:0:
475,192,32568,1,0,0:0:0:0:
329,192,32866,1,2,0:0:0:0:
475,192,32866,1,0,0:0:0:0:
109,192,33165,1,2,0:0:0:0:
475,192,33165,1,0,0:0:0:0:
36,192,33463,1,2,0:0:0:0:
256,192,33463,1,0,0:0:0:0:
36,192,33762,1,2,0:0:0:0:
402,192,33762,1,0,0:0:0:0:
36,192,34060,1,2,0:0:0:0:
329,192,34060,1,0,0:0:0:0:
109,192,34359,1,2,0:0:0:0:
329,192,34359,1,0,0:0:0:0:
256,192,34657,1,2,0:0:0:0:
475,192,34657,1,0,0:0:0:0:
109,192,34956,1,2,0:0:0:0:
475,192,34956,1,0,0:0:0:0:
182,192,35254,1,2,0:0:0:0:
475,192,35254,1,0,0:0:0:0:
182,192,35553,1,2,0:0:0:0:
402,192,35553,1,0,0:0:0:0:
36,192,35851,1,2,0:0:0:0:
256,192,35851,1,0,0:0:0:0:
402,192,36001,1,2,0:0:0:0:
475,192,36001,1,0,0:0:0:0:
36,192,36150,1,2,0:0:0:0:
256,192,36150,1,0,0:0:0:0:
402,192,36299,1,2,0:0:0:0:
475,192,36299,1,0,0:0:0:0:
109,192,36448,1,2,0:0:0:0:
182,192,36448,1,0,0:0:0:0:
329,192,36598,1,2,0:0:0:0:
402,192,36598,1,0,0:0:0:0:
109,192,36747,1,2,0:0:0:0:
182,192,36747,1,0,0:0:0:0:
329,192,36896,1,2,0:0:0:0:
402,192,36896,1,0,0:0:0:0:
36,192,37045,1,2,0:0:0:0:
475,192,37045,1,0,0:0:0:70:LR_Snare Drum 2.wav
329,192,37120,1,2,0:0:0:0:
182,192,37195,1,2,0:0:0:0:
36,192,37344,1,2,0:0:0:0:
475,192,37344,1,0,0:0:0:70:LR_Snare Drum 2.wav
329,192,37419,1,2,0:0:0:0:
182,192,37493,1,2,0:0:0:0:
36,192,37642,1,2,0:0:0:0:
109,192,37642,1,0,0:0:0:70:LR_Snare Drum 2.wav
256,192,37717,1,2,0:0:0:0:
402,192,37792,1,2,0:0:0:0:
36,192,37941,1,2,0:0:0:0:
109,192,37941,1,0,0:0:0:70:LR_Snare Drum 2.wav
256,192,38016,1,2,0:0:0:0:
402,192,38090,1,2,0:0:0:0:
475,192,38165,1,2,0:0:0:0:
36,192,38239,1,2,0:0:0:0:
182,192,38239,1,4,0:0:0:0:
256,192,38239,1,0,0:0:0:0:
109,192,38538,1,8,0:0:0:0:
402,192,38538,1,0,0:0:0:0:
329,192,38613,1,0,0:0:0:0:
256,192,38687,1,0,0:0:0:0:
182,192,38762,1,0,0:0:0:0:
475,192,38836,1,0,0:0:0:0:
402,192,38911,1,0,0:0:0:0:
329,192,38986,1,2,0:0:0:0:
256,192,39060,1,0,0:0:0:0:
109,192,39135,1,8,0:0:0:0:
182,192,39135,1,0,0:0:0:0:
402,192,39284,1,0,0:0:0:0:
36,192,39433,1,2,0:0:0:0:
475,192,39433,1,0,0:0:0:0:
256,192,39583,1,2,0:0:0:0:
329,192,39583,1,0,0:0:0:0:
109,192,39732,1,8,0:0:0:0:
402,192,39732,1,0,0:0:0:0:
182,192,39807,1,0,0:0:0:0:
256,192,39881,1,0,0:0:0:0:
329,192,39956,1,0,0:0:0:0:
36,192,40030,1,0,0:0:0:0:
109,192,40105,1,0,0:0:0:0:
182,192,40180,1,2,0:0:0:0:
256,192,40254,1,0,0:0:0:0:
329,192,40329,1,8,0:0:0:0:
475,192,40329,1,0,0:0:0:0:
182,192,40478,1,0,0:0:0:0:
36,192,40627,1,2,0:0:0:0:
109,192,40627,1,0,0:0:0:0:
256,192,40777,1,2,0:0:0:0:
329,192,40777,1,0,0:0:0:0:
182,192,40926,1,8,0:0:0:0:
475,192,40926,1,0,0:0:0:0:
402,192,41001,1,0,0:0:0:0:
329,192,41075,1,0,0:0:0:0:
256,192,41150,1,0,0:0:0:0:
109,192,41224,1,2,0:0:0:0:
182,192,41299,1,0,0:0:0:0:
256,192,41374,1,2,0:0:0:0:
329,192,41448,1,0,0:0:0:0:
36,192,41523,1,8,0:0:0:0:
109,192,41523,1,0,0:0:0:0:
256,192,41672,1,0,0:0:0:0:
402,192,41822,1,2,0:0:0:0:
475,192,41822,1,0,0:0:0:0:
36,192,41971,1,2,0:0:0:0:
109,192,41971,1,0,0:0:0:0:
329,192,42120,1,8,0:0:0:0:
475,192,42120,1,0,0:0:0:0:
36,192,42269,1,2,0:0:0:0:
182,192,42269,1,0,0:0:0:0:
256,192,42419,1,8,0:0:0:0:
402,192,42419,1,0,0:0:0:0:
109,192,42568,1,2,0:0:0:0:
329,192,42568,1,0,0:0:0:0:
402,192,42717,128,8,43016:0:0:0:0:
256,192,42866,128,8,43016:0:0:0:0:
36,192,43016,1,2,0:0:0:0:
109,192,43016,1,4,0:0:0:0:
475,192,43016,1,0,0:0:0:0:
182,192,43314,1,8,0:0:0:0:
402,192,43314,1,2,0:0:0:0:
109,192,43389,1,0,0:0:0:0:
329,192,43463,1,2,0:0:0:0:
402,192,43538,1,0,0:0:0:70:tom01.wav
182,192,43613,1,2,0:0:0:0:
109,192,43687,1,0,0:0:0:70:tom02.wav
256,192,43762,1,2,0:0:0:0:
475,192,43762,1,0,0:0:0:0:
36,192,43911,1,2,0:0:0:0:
329,192,43911,1,8,0:0:0:0:
256,192,44060,1,0,0:0:0:70:tom03.wav
182,192,44135,1,0,0:0:0:70:tom04.wav
109,192,44210,1,2,0:0:0:0:
475,192,44210,1,0,0:0:0:0:
256,192,44359,1,2,0:0:0:0:
329,192,44359,1,0,0:0:0:0:
182,192,44508,1,8,0:0:0:0:
402,192,44508,1,2,0:0:0:0:
329,192,44583,1,8,0:0:0:0:
109,192,44657,1,2,0:0:0:0:
182,192,44732,1,0,0:0:0:70:tom02.wav
402,192,44807,1,2,0:0:0:0:
329,192,44881,1,0,0:0:0:70:tom03.wav
36,192,44956,1,2,0:0:0:0:
256,192,44956,1,0,0:0:0:0:
182,192,45105,1,2,0:0:0:0:
475,192,45105,1,8,0:0:0:0:
256,192,45254,1,8,0:0:0:0:
329,192,45329,1,8,0:0:0:0:
36,192,45404,1,2,0:0:0:0:
402,192,45404,1,0,0:0:0:0:
109,192,45553,1,2,0:0:0:0:
329,192,45553,1,0,0:0:0:0:
182,192,45702,1,2,0:0:0:0:
256,192,45702,1,8,0:0:0:0:
36,192,45777,1,0,0:0:0:0:
329,192,45851,1,2,0:0:0:0:
475,192,45926,1,0,0:0:0:70:tom01.wav
182,192,46001,1,2,0:0:0:0:
256,192,46075,1,0,0:0:0:70:tom02.wav
329,192,46150,1,2,0:0:0:0:
402,192,46150,1,0,0:0:0:0:
36,192,46299,1,8,0:0:0:0:
182,192,46299,1,2,0:0:0:0:
256,192,46448,1,0,0:0:0:70:tom03.wav
329,192,46598,1,2,0:0:0:0:
475,192,46598,1,0,0:0:0:0:
36,192,46747,1,2,0:0:0:0:
109,192,46747,1,0,0:0:0:0:
402,192,46896,1,2,0:0:0:0:
475,192,46896,1,8,0:0:0:0:
182,192,47045,1,2,0:0:0:0:
329,192,47045,1,0,0:0:0:0:
36,192,47195,1,2,0:0:0:0:
109,192,47195,1,8,0:0:0:0:
402,192,47344,1,2,0:0:0:0:
475,192,47344,1,0,0:0:0:0:
182,192,47493,1,10,0:0:0:0:
329,192,47568,1,0,0:0:0:0:
182,192,47642,1,8,0:0:0:0:
329,192,47717,1,8,0:0:0:0:
36,192,47792,1,2,0:0:0:0:
109,192,47792,1,4,0:0:0:0:
475,192,47792,1,0,0:0:0:0:
402,192,48090,1,0,0:0:0:100:00JN.wav
256,192,48538,1,0,0:0:0:100:00JO.wav
329,192,48986,1,0,0:0:0:100:00JP.wav
109,192,49433,1,0,0:0:0:100:00JQ.wav
182,192,49881,1,0,0:0:0:100:00JR.wav
329,192,50030,1,0,0:0:0:0:
402,192,50180,1,0,0:0:0:100:00JS.wav
109,192,50627,1,0,0:0:0:100:00JT.wav
329,192,51075,1,0,0:0:0:100:00JU.wav
256,192,51523,1,0,0:0:0:100:00JV.wav
109,192,51971,1,2,0:0:0:0:
402,192,52045,1,8,0:0:0:0:
182,192,52120,1,8,0:0:0:0:
329,192,52195,1,8,0:0:0:0:
36,192,52269,1,8,0:0:0:0:
475,192,52269,1,2,0:0:0:0:
109,192,52568,1,2,0:0:0:0:
256,192,52568,1,4,0:0:0:0:
402,192,52568,1,0,0:0:0:0:
182,192,52866,1,8,0:0:0:0:
329,192,52866,1,2,0:0:0:0:
256,192,53016,1,0,0:0:0:0:
36,192,53165,1,2,0:0:0:0:
475,192,53165,1,0,0:0:0:0:
182,192,53314,1,2,0:0:0:0:
329,192,53314,1,0,0:0:0:0:
402,192,53463,1,8,0:0:0:0:
475,192,53463,1,0,0:0:0:0:
36,192,53613,1,2,0:0:0:0:
182,192,53613,1,0,0:0:0:0:
109,192,53762,1,2,0:0:0:0:
329,192,53762,1,0,0:0:0:0:
256,192,53911,1,0,0:0:0:0:
182,192,54060,1,8,0:0:0:0:
475,192,54060,1,2,0:0:0:0:
109,192,54210,1,0,0:0:0:0:
256,192,54359,1,2,0:0:0:0:
329,192,54359,1,0,0:0:0:0:
402,192,54508,1,2,0:0:0:0:
475,192,54508,1,0,0:0:0:0:
36,192,54657,1,8,0:0:0:0:
182,192,54657,1,0,0:0:0:0:
475,192,54807,1,2,0:0:0:0:
329,192,54881,1,2,0:0:0:0:
109,192,54956,1,2,0:0:0:0:
182,192,54956,1,0,0:0:0:0:
256,192,55105,1,0,0:0:0:0:
36,192,55254,1,2,0:0:0:0:
329,192,55254,1,8,0:0:0:0:
475,192,55404,1,0,0:0:0:0:
182,192,55553,1,2,0:0:0:0:
256,192,55553,1,0,0:0:0:0:
36,192,55702,1,2,0:0:0:0:
109,192,55702,1,0,0:0:0:0:
329,192,55851,1,8,0:0:0:0:
475,192,55851,1,0,0:0:0:0:
109,192,56001,1,2,0:0:0:0:
256,192,56075,1,2,0:0:0:0:
402,192,56150,1,2,0:0:0:0:
475,192,56150,1,0,0:0:0:0:
329,192,56299,1,0,0:0:0:0:
36,192,56448,1,2,0:0:0:0:
182,192,56448,1,8,0:0:0:0:
256,192,56598,1,0,0:0:0:0:
329,192,56747,1,2,0:0:0:0:
475,192,56747,1,8,0:0:0:0:
109,192,56896,1,2,0:0:0:0:
182,192,56896,1,0,0:0:0:0:
402,192,57045,1,8,0:0:0:0:
475,192,57045,1,0,0:0:0:0:
36,192,57120,1,0,0:0:0:0:
182,192,57195,1,8,0:0:0:0:
329,192,57269,1,8,0:0:0:0:
36,192,57344,1,2,0:0:0:0:
475,192,57344,1,0,0:0:0:0:
256,192,57493,1,2,0:0:0:0:
109,192,57642,1,8,0:0:0:0:
182,192,57642,1,0,0:0:0:0:
402,192,57792,1,0,0:0:0:0:
36,192,57941,1,2,0:0:0:0:
329,192,57941,1,0,0:0:0:0:
182,192,58090,1,2,0:0:0:0:
475,192,58090,128,0,58538:0:0:0:0:
256,192,58239,1,8,0:0:0:0:
402,192,58239,1,0,0:0:0:0:
109,192,58389,1,0,0:0:0:0:
36,192,58538,1,2,0:0:0:0:
329,192,58538,1,0,0:0:0:0:
402,192,58687,1,2,0:0:0:0:
109,192,58836,1,8,0:0:0:0:
475,192,58836,1,0,0:0:0:0:
256,192,58986,1,0,0:0:0:0:
182,192,59135,1,2,0:0:0:0:
402,192,59135,1,0,0:0:0:0:
36,192,59284,128,2,59732:0:0:0:0:
329,192,59284,1,0,0:0:0:0:
256,192,59433,1,8,0:0:0:0:
475,192,59433,1,0,0:0:0:0:
329,192,59583,1,0,0:0:0:0:
109,192,59732,1,2,0:0:0:0:
402,192,59732,1,0,0:0:0:0:
182,192,59881,1,2,0:0:0:0:
36,192,60030,1,8,0:0:0:0:
329,192,60030,1,0,0:0:0:0:
256,192,60180,1,0,0:0:0:0:
182,192,60329,1,2,0:0:0:0:
475,192,60329,1,0,0:0:0:0:
36,192,60478,1,2,0:0:0:0:
402,192,60478,1,0,0:0:0:0:
109,192,60627,1,8,0:0:0:0:
256,192,60627,1,0,0:0:0:0:
329,192,60777,1,0,0:0:0:0:
36,192,60926,1,2,0:0:0:0:
475,192,60926,1,0,0:0:0:0:
109,192,61075,1,8,0:0:0:0:
182,192,61075,1,2,0:0:0:0:
109,192,61224,1,2,0:0:0:0:
182,192,61224,1,8,0:0:0:0:
329,192,61523,1,2,0:0:0:0:
402,192,61523,1,8,0:0:0:0:
182,192,61672,1,2,0:0:0:0:
402,192,61822,1,8,0:0:0:0:
109,192,61896,1,8,0:0:0:0:
329,192,61971,1,8,0:0:0:0:
182,192,62045,1,8,0:0:0:0:
36,192,62120,1,2,0:0:0:0:
256,192,62120,1,4,0:0:0:0:
475,192,62120,1,0,0:0:0:0:
329,192,62269,1,0,0:0:0:0:
109,192,62419,1,8,0:0:0:0:
182,192,62419,1,0,0:0:0:0:
402,192,62568,1,0,0:0:0:0:
256,192,62717,1,2,0:0:0:0:
475,192,62717,1,0,0:0:0:0:
36,192,62866,1,2,0:0:0:0:
109,192,62866,1,0,0:0:0:0:
329,192,63016,1,8,0:0:0:0:
402,192,63016,1,0,0:0:0:0:
109,192,63165,1,2,0:0:0:0:
182,192,63165,1,0,0:0:0:0:
36,192,63314,1,2,0:0:0:0:
475,192,63314,1,0,0:0:0:0:
256,192,63463,1,0,0:0:0:0:
109,192,63613,1,8,0:0:0:0:
329,192,63613,1,0,0:0:0:0:
402,192,63762,1,0,0:0:0:0:
36,192,63911,1,2,0:0:0:0:
182,192,63911,1,0,0:0:0:0:
329,192,64060,1,2,0:0:0:0:
475,192,64060,1,0,0:0:0:0:
36,192,64210,1,8,0:0:0:0:
109,192,64210,1,0,0:0:0:0:
329,192,64359,1,2,0:0:0:0:
182,192,64433,1,2,0:0:0:0:
402,192,64508,1,2,0:0:0:0:
475,192,64508,1,0,0:0:0:0:
36,192,64657,1,0,0:0:0:0:
109,192,64807,1,8,0:0:0:0:
329,192,64807,1,0,0:0:0:0:
256,192,64956,1,0,0:0:0:0:
182,192,65105,1,2,0:0:0:0:
475,192,65105,1,0,0:0:0:0:
36,192,65254,1,2,0:0:0:0:
329,192,65254,1,0,0:0:0:0:
109,192,65404,1,8,0:0:0:0:
402,192,65404,1,0,0:0:0:0:
329,192,65553,1,2,0:0:0:0:
256,192,65627,1,2,0:0:0:0:
36,192,65702,1,2,0:0:0:0:
182,192,65702,128,0,65851:0:0:0:0:
329,192,65851,1,0,0:0:0:0:
182,192,66001,1,8,0:0:0:0:
475,192,66001,128,0,66150:0:0:0:0:
329,192,66150,1,0,0:0:0:0:
36,192,66299,128,2,66448:0:0:0:0:
182,192,66299,1,8,0:0:0:0:
329,192,66448,1,2,0:0:0:0:
475,192,66448,1,0,0:0:0:0:
109,192,66598,1,8,0:0:0:0:
182,192,66672,1,0,0:0:0:0:
402,192,66747,1,8,0:0:0:0:
329,192,66822,1,8,0:0:0:0:
36,192,66896,1,2,0:0:0:0:
256,192,66896,1,0,0:0:0:0:
475,192,66896,1,0,0:0:0:0:
182,192,67045,1,2,0:0:0:0:
329,192,67045,1,0,0:0:0:0:
109,192,67195,1,8,0:0:0:0:
402,192,67195,1,0,0:0:0:0:
182,192,67294,1,0,0:0:0:0:
256,192,67394,1,0,0:0:0:0:
329,192,67493,1,2,0:0:0:0:
475,192,67493,1,0,0:0:0:0:
182,192,67642,1,2,0:0:0:0:
256,192,67642,1,0,0:0:0:0:
109,192,67792,1,8,0:0:0:0:
402,192,67792,1,0,0:0:0:0:
329,192,67891,1,0,0:0:0:0:
256,192,67991,1,0,0:0:0:0:
36,192,68090,1,2,0:0:0:0:
182,192,68090,1,0,0:0:0:0:
256,192,68239,1,2,0:0:0:0:
402,192,68239,1,0,0:0:0:0:
109,192,68389,1,8,0:0:0:0:
475,192,68389,1,0,0:0:0:0:
402,192,68488,1,0,0:0:0:0:
329,192,68588,1,0,0:0:0:0:
36,192,68687,1,2,0:0:0:0:
256,192,68687,1,0,0:0:0:0:
182,192,68836,1,2,0:0:0:0:
402,192,68836,1,0,0:0:0:0:
109,192,68986,1,8,0:0:0:0:
475,192,68986,1,0,0:0:0:0:
182,192,69085,1,0,0:0:0:0:
256,192,69185,1,0,0:0:0:0:
36,192,69284,1,2,0:0:0:0:
329,192,69284,1,0,0:0:0:0:
402,192,69433,1,2,0:0:0:0:
475,192,69433,1,0,0:0:0:0:
109,192,69583,1,8,0:0:0:0:
182,192,69583,1,0,0:0:0:0:
256,192,69732,1,0,0:0:0:0:
36,192,69881,1,2,0:0:0:0:
402,192,69881,1,0,0:0:0:0:
182,192,70030,1,2,0:0:0:0:
329,192,70030,1,0,0:0:0:0:
109,192,70180,1,8,0:0:0:0:
475,192,70180,1,0,0:0:0:0:
402,192,70329,1,0,0:0:0:0:
36,192,70478,1,2,0:0:0:0:
256,192,70478,1,0,0:0:0:0:
109,192,70627,1,2,0:0:0:0:
182,192,70627,1,8,0:0:0:0:
109,192,70777,1,8,0:0:0:0:
402,192,70777,1,0,0:0:0:0:
329,192,70926,1,0,0:0:0:0:
256,192,71001,1,0,0:0:0:0:
182,192,71075,1,2,0:0:0:0:
475,192,71075,128,0,71374:0:0:0:0:
256,192,71224,1,2,0:0:0:0:
329,192,71374,1,8,0:0:0:0:
182,192,71448,1,8,0:0:0:0:
402,192,71523,1,8,0:0:0:0:
109,192,71598,1,8,0:0:0:0:
256,192,71672,1,8,0:0:0:0:
182,192,71971,1,0,0:0:0:100:012D.wav
402,192,72269,128,0,72568:0:0:0:100:012E.wav
256,192,72866,1,0,0:0:0:0:
109,192,73165,1,0,0:0:0:100:012H.wav
402,192,73264,1,0,0:0:0:0:
329,192,73364,1,0,0:0:0:0:
256,192,73463,128,0,73762:0:0:0:100:012I.wav
182,192,74060,1,0,0:0:0:0:
36,192,74359,1,0,0:0:0:100:012L.wav
329,192,74458,1,0,0:0:0:0:
256,192,74558,1,0,0:0:0:0:
182,192,74657,1,0,0:0:0:100:012M.wav
329,192,74956,1,0,0:0:0:100:012N.wav
475,192,75254,1,0,0:0:0:100:012O.wav
329,192,75553,1,0,0:0:0:100:012P.wav
182,192,75851,1,0,0:0:0:100:012R.wav
36,192,76150,1,0,0:0:0:100:012S.wav
182,192,76448,1,0,0:0:0:0:
256,192,76448,128,0,76747:0:0:0:0:
475,192,76747,1,2,0:0:0:0:
329,192,77045,1,0,0:0:0:0:
402,192,77045,128,0,77344:0:0:0:0:
36,192,77642,1,2,0:0:0:0:
182,192,77642,1,0,0:0:0:50:LR_Snare Drum 2.wav
256,192,77742,1,0,0:0:0:50:LR_Snare Drum 2.wav
329,192,77841,1,0,0:0:0:50:LR_Snare Drum 2.wav
109,192,77941,1,2,0:0:0:0:
402,192,77941,1,0,0:0:0:50:LR_Snare Drum 2.wav
182,192,78239,1,0,0:0:0:50:LR_Snare Drum 2.wav
256,192,78239,1,0,0:0:0:0:
329,192,78339,1,0,0:0:0:50:LR_Snare Drum 2.wav
402,192,78438,1,0,0:0:0:50:LR_Snare Drum 2.wav
36,192,78538,1,2,0:0:0:0:
475,192,78538,1,0,0:0:0:50:LR_Snare Drum 2.wav
256,192,78836,128,0,79135:0:0:0:0:
329,192,78836,1,0,0:0:0:0:
109,192,79135,1,0,0:0:0:0:
182,192,79433,128,0,79732:0:0:0:0:
402,192,79433,1,0,0:0:0:0:
256,192,79732,1,0,0:0:0:0:
109,192,80030,1,2,0:0:0:0:
402,192,80030,1,0,0:0:0:50:LR_Snare Drum 2.wav
329,192,80130,1,0,0:0:0:50:LR_Snare Drum 2.wav
256,192,80229,1,0,0:0:0:50:LR_Snare Drum 2.wav
182,192,80329,1,2,0:0:0:0:
475,192,80329,1,0,0:0:0:50:LR_Snare Drum 2.wav
36,192,80627,1,2,0:0:0:0:
329,192,80627,1,0,0:0:0:50:LR_Snare Drum 2.wav
256,192,80727,1,0,0:0:0:50:LR_Snare Drum 2.wav
182,192,80826,1,0,0:0:0:50:LR_Snare Drum 2.wav
109,192,80926,1,0,0:0:0:50:LR_Snare Drum 2.wav
402,192,80926,1,0,0:0:0:0:
329,192,81125,1,0,0:0:0:0:
36,192,81224,1,2,0:0:0:0:
256,192,81224,1,0,0:0:0:50:LR_Snare Drum 2.wav
475,192,81224,1,0,0:0:0:0:
109,192,81374,1,0,0:0:0:0:
182,192,81523,1,0,0:0:0:0:
402,192,81623,1,0,0:0:0:0:
329,192,81722,1,0,0:0:0:0:
36,192,81822,1,2,0:0:0:0:
256,192,81822,1,0,0:0:0:50:LR_Snare Drum 2.wav
475,192,81822,1,0,0:0:0:0:
182,192,81971,1,0,0:0:0:0:
109,192,82120,1,0,0:0:0:0:
329,192,82220,1,0,0:0:0:0:
402,192,82319,1,0,0:0:0:0:
36,192,82419,1,2,0:0:0:0:
256,192,82419,1,0,0:0:0:50:LR_Snare Drum 2.wav
475,192,82419,1,0,0:0:0:0:
182,192,82568,1,0,0:0:0:0:
329,192,82717,1,0,0:0:0:0:
256,192,82817,1,0,0:0:0:0:
182,192,82916,1,0,0:0:0:0:
36,192,83016,1,2,0:0:0:0:
109,192,83016,1,0,0:0:0:50:LR_Snare Drum 2.wav
475,192,83016,1,0,0:0:0:0:
402,192,83115,1,0,0:0:0:0:
329,192,83215,1,0,0:0:0:0:
182,192,83314,1,2,0:0:0:0:
256,192,83314,1,0,0:0:0:50:LR_Snare Drum 2.wav
402,192,83414,1,2,0:0:0:0:
475,192,83414,1,0,0:0:0:50:LR_Snare Drum 2.wav
36,192,83513,1,2,0:0:0:0:
109,192,83513,1,0,0:0:0:50:LR_Snare Drum 2.wav
256,192,83613,1,2,0:0:0:0:
329,192,83613,1,0,0:0:0:50:LR_Snare Drum 2.wav
182,192,83911,1,0,0:0:0:0:
402,192,84011,1,0,0:0:0:0:
329,192,84110,1,0,0:0:0:0:
256,192,84210,1,2,0:0:0:0:
475,192,84210,1,0,0:0:0:50:LR_Snare Drum 2.wav
329,192,84508,1,0,0:0:0:50:LR_Snare Drum 2.wav
109,192,84608,1,0,0:0:0:50:LR_Snare Drum 2.wav
182,192,84707,1,0,0:0:0:50:LR_Snare Drum 2.wav
36,192,84807,1,2,0:0:0:0:
256,192,84807,1,0,0:0:0:50:LR_Snare Drum 2.wav
329,192,85105,1,0,0:0:0:50:LR_Snare Drum 2.wav
182,192,85205,1,0,0:0:0:50:LR_Snare Drum 2.wav
256,192,85304,1,0,0:0:0:50:LR_Snare Drum 2.wav
329,192,85404,1,2,0:0:0:0:
475,192,85404,1,0,0:0:0:50:LR_Snare Drum 2.wav
182,192,85702,1,2,0:0:0:0:
329,192,85802,1,0,0:0:0:50:LR_Snare Drum 2.wav
256,192,85901,1,0,0:0:0:50:LR_Snare Drum 2.wav
36,192,86001,1,2,0:0:0:0:
182,192,86001,1,4,0:0:0:0:
475,192,86001,128,0,87195:0:0:0:0:
329,192,86598,128,0,87195:0:0:0:0:
36,192,87195,128,0,88389:0:0:0:0:
182,192,87792,128,0,88389:0:0:0:0:
329,192,88090,1,4,0:0:0:0:
475,192,88090,1,2,0:0:0:0:
256,192,88389,128,2,89583:0:0:0:0:
329,192,88389,1,4,0:0:0:0:
475,192,88389,1,0,0:0:0:0:
182,192,88986,128,0,89583:0:0:0:0:
402,192,89384,1,2,0:0:0:0:
109,192,89483,1,2,0:0:0:0:
329,192,89583,1,2,0:0:0:0:
475,192,89583,1,0,0:0:0:70:LR_Snare Drum 2.wav
36,192,89682,1,2,0:0:0:0:
182,192,89782,1,2,0:0:0:0:
329,192,89782,1,0,0:0:0:70:LR_Snare Drum 2.wav
475,192,89881,1,2,0:0:0:0:
36,192,89981,1,2,0:0:0:0:
182,192,89981,1,0,0:0:0:70:LR_Snare Drum 2.wav
329,192,90080,1,2,0:0:0:0:
36,192,90180,1,2,0:0:0:0:
475,192,90180,1,0,0:0:0:70:LR_Snare Drum 2.wav
402,192,90478,1,0,0:0:0:0:
329,192,90553,1,0,0:0:0:0:
109,192,90627,1,0,0:0:0:0:
182,192,90702,1,0,0:0:0:0:
36,192,90777,1,2,0:0:0:0:
256,192,90777,1,4,0:0:0:0:
475,192,90777,1,0,0:0:0:0:
329,192,90926,1,0,0:0:0:0:
109,192,91075,1,8,0:0:0:0:
402,192,91075,1,0,0:0:0:0:
475,192,91075,1,0,0:0:0:0:
256,192,91224,1,0,0:0:0:0:
182,192,91374,1,0,0:0:0:0:
329,192,91448,1,0,0:0:0:0:
36,192,91523,1,2,0:0:0:0:
256,192,91523,1,0,0:0:0:0:
109,192,91672,1,8,0:0:0:0:
182,192,91672,1,0,0:0:0:0:
475,192,91672,1,0,0:0:0:0:
402,192,91822,1,0,0:0:0:0:
329,192,91896,1,0,0:0:0:0:
36,192,91971,1,2,0:0:0:0:
256,192,91971,1,0,0:0:0:0:
109,192,92120,1,0,0:0:0:0:
182,192,92269,1,8,0:0:0:0:
402,192,92269,1,0,0:0:0:0:
475,192,92269,1,0,0:0:0:0:
329,192,92419,1,0,0:0:0:0:
256,192,92493,1,0,0:0:0:0:
36,192,92568,1,0,0:0:0:0:
182,192,92568,1,0,0:0:0:0:
256,192,92642,1,0,0:0:0:0:
329,192,92717,1,2,0:0:0:0:
475,192,92717,1,0,0:0:0:0:
36,192,92866,1,8,0:0:0:0:
109,192,92866,1,0,0:0:0:0:
182,192,92866,1,0,0:0:0:0:
402,192,93016,1,2,0:0:0:0:
475,192,93016,128,0,93762:0:0:0:0:
329,192,93165,1,0,0:0:0:0:
36,192,93314,1,2,0:0:0:0:
109,192,93314,1,0,0:0:0:0:
182,192,93463,1,8,0:0:0:0:
256,192,93463,1,0,0:0:0:0:
329,192,93613,1,0,0:0:0:0:
109,192,93687,1,0,0:0:0:0:
36,192,93762,1,2,0:0:0:0:
402,192,93762,1,0,0:0:0:0:
182,192,93911,1,2,0:0:0:0:
329,192,93911,1,0,0:0:0:0:
109,192,94060,1,8,0:0:0:0:
402,192,94060,1,0,0:0:0:0:
475,192,94060,1,0,0:0:0:0:
256,192,94210,1,0,0:0:0:0:
36,192,94359,1,2,0:0:0:0:
182,192,94359,1,0,0:0:0:0:
329,192,94508,1,0,0:0:0:0:
109,192,94657,1,8,0:0:0:0:
402,192,94657,1,0,0:0:0:0:
475,192,94657,1,0,0:0:0:0:
182,192,94807,1,0,0:0:0:0:
256,192,94881,1,0,0:0:0:0:
36,192,94956,1,0,0:0:0:0:
329,192,94956,1,0,0:0:0:0:
256,192,95030,1,0,0:0:0:0:
182,192,95105,1,2,0:0:0:0:
475,192,95105,1,0,0:0:0:0:
109,192,95254,1,8,0:0:0:0:
329,192,95254,1,0,0:0:0:0:
402,192,95254,1,0,0:0:0:0:
256,192,95404,1,0,0:0:0:0:
36,192,95553,1,2,0:0:0:0:
182,192,95553,1,0,0:0:0:0:
402,192,95702,1,2,0:0:0:0:
475,192,95702,1,0,0:0:0:0:
36,192,95851,1,8,0:0:0:0:
109,192,95851,1,0,0:0:0:0:
256,192,95851,1,0,0:0:0:0:
329,192,96001,1,0,0:0:0:0:
402,192,96075,1,0,0:0:0:0:
182,192,96150,1,2,0:0:0:0:
475,192,96150,1,0,0:0:0:0:
36,192,96299,1,2,0:0:0:0:
109,192,96299,1,0,0:0:0:0:
256,192,96448,1,8,0:0:0:0:
402,192,96448,1,0,0:0:0:0:
475,192,96448,1,0,0:0:0:0:
182,192,96548,1,0,0:0:0:0:
109,192,96647,1,0,0:0:0:0:
36,192,96747,1,2,0:0:0:0:
329,192,96747,1,0,0:0:0:0:
182,192,96896,1,2,0:0:0:0:
256,192,96896,1,0,0:0:0:0:
109,192,97045,1,8,0:0:0:0:
402,192,97045,1,0,0:0:0:0:
475,192,97045,1,0,0:0:0:0:
182,192,97195,1,0,0:0:0:0:
256,192,97269,1,0,0:0:0:0:
36,192,97344,1,2,0:0:0:0:
329,192,97344,1,0,0:0:0:0:
402,192,97493,1,2,0:0:0:0:
475,192,97493,1,0,0:0:0:0:
36,192,97642,1,8,0:0:0:0:
109,192,97642,1,0,0:0:0:0:
256,192,97642,1,0,0:0:0:0:
329,192,97792,1,0,0:0:0:0:
182,192,97941,1,2,0:0:0:0:
402,192,97941,1,0,0:0:0:0:
109,192,98090,1,2,0:0:0:0:
256,192,98090,1,0,0:0:0:0:
36,192,98239,1,8,0:0:0:0:
329,192,98239,1,0,0:0:0:0:
475,192,98239,1,0,0:0:0:0:
182,192,98389,1,0,0:0:0:0:
256,192,98538,1,2,0:0:0:0:
402,192,98538,1,0,0:0:0:0:
36,192,98687,1,2,0:0:0:0:
109,192,98687,1,0,0:0:0:0:
329,192,98836,1,8,0:0:0:0:
402,192,98836,1,0,0:0:0:0:
475,192,98836,1,0,0:0:0:0:
109,192,98986,1,0,0:0:0:0:
256,192,99060,1,0,0:0:0:0:
36,192,99135,1,2,0:0:0:0:
475,192,99135,1,0,0:0:0:0:
329,192,99210,1,0,0:0:0:0:
182,192,99284,1,2,0:0:0:0:
36,192,99433,1,8,0:0:0:0:
402,192,99433,1,0,0:0:0:0:
475,192,99433,1,0,0:0:0:0:
182,192,99508,1,0,0:0:0:0:
329,192,99583,1,2,0:0:0:0:
36,192,99732,1,8,0:0:0:0:
109,192,99732,1,0,0:0:0:0:
475,192,99732,1,0,0:0:0:0:
329,192,99807,1,8,0:0:0:0:
182,192,99881,1,2,0:0:0:0:
256,192,100030,1,8,0:0:0:0:
402,192,100105,1,8,0:0:0:0:
182,192,100180,1,8,0:0:0:0:
329,192,100254,1,8,0:0:0:0:
36,192,100329,1,2,0:0:0:0:
109,192,100329,1,4,0:0:0:0:
475,192,100329,1,0,0:0:0:0:
256,192,100478,1,0,0:0:0:0:
36,192,100627,1,8,0:0:0:0:
329,192,100627,1,0,0:0:0:0:
402,192,100627,1,0,0:0:0:0:
182,192,100777,1,0,0:0:0:0:
256,192,100926,1,0,0:0:0:0:
109,192,101001,1,0,0:0:0:0:
402,192,101075,1,2,0:0:0:0:
475,192,101075,1,0,0:0:0:0:
36,192,101224,1,8,0:0:0:0:
256,192,101224,1,0,0:0:0:0:
329,192,101224,1,0,0:0:0:0:
182,192,101374,1,0,0:0:0:0:
109,192,101448,1,0,0:0:0:0:
36,192,101523,1,2,0:0:0:0:
475,192,101523,1,0,0:0:0:0:
329,192,101672,1,0,0:0:0:0:
109,192,101822,1,8,0:0:0:0:
182,192,101822,1,0,0:0:0:0:
402,192,101822,1,0,0:0:0:0:
256,192,101971,1,0,0:0:0:0:
182,192,102045,1,0,0:0:0:0:
329,192,102120,1,0,0:0:0:0:
475,192,102120,1,0,0:0:0:0:
256,192,102195,1,0,0:0:0:0:
36,192,102269,1,2,0:0:0:0:
182,192,102269,1,0,0:0:0:0:
329,192,102419,1,8,0:0:0:0:
402,192,102419,1,0,0:0:0:0:
475,192,102419,1,0,0:0:0:0:
36,192,102568,128,2,103314:0:0:0:0:
109,192,102568,1,0,0:0:0:0:
182,192,102717,1,0,0:0:0:0:
402,192,102866,1,2,0:0:0:0:
475,192,102866,1,0,0:0:0:0:
256,192,103016,1,8,0:0:0:0:
329,192,103016,1,0,0:0:0:0:
182,192,103115,1,0,0:0:0:0:
402,192,103215,1,0,0:0:0:0:
109,192,103314,1,2,0:0:0:0:
475,192,103314,1,0,0:0:0:0:
182,192,103463,1,2,0:0:0:0:
329,192,103463,1,0,0:0:0:0:
36,192,103613,1,8,0:0:0:0:
402,192,103613,1,0,0:0:0:0:
475,192,103613,1,0,0:0:0:0:
109,192,103712,1,0,0:0:0:0:
182,192,103812,1,0,0:0:0:0:
256,192,103911,1,2,0:0:0:0:
475,192,103911,1,0,0:0:0:0:
402,192,104060,1,0,0:0:0:0:
36,192,104210,1,8,0:0:0:0:
109,192,104210,1,0,0:0:0:0:
329,192,104210,1,0,0:0:0:0:
182,192,104359,1,0,0:0:0:0:
256,192,104433,1,0,0:0:0:0:
329,192,104508,1,0,0:0:0:0:
475,192,104508,1,0,0:0:0:0:
256,192,104583,1,0,0:0:0:0:
36,192,104657,1,2,0:0:0:0:
182,192,104657,1,0,0:0:0:0:
109,192,104807,1,8,0:0:0:0:
329,192,104807,1,0,0:0:0:0:
402,192,104807,1,0,0:0:0:0:
256,192,104881,1,0,0:0:0:0:
182,192,104956,1,0,0:0:0:0:
36,192,105105,1,2,0:0:0:0:
475,192,105105,1,0,0:0:0:0:
329,192,105205,1,0,0:0:0:0:
182,192,105304,1,0,0:0:0:70:tom02.wav
36,192,105404,1,8,0:0:0:0:
402,192,105404,1,0,0:0:0:0:
475,192,105404,1,0,0:0:0:0:
256,192,105503,1,0,0:0:0:70:tom01.wav
109,192,105603,1,0,0:0:0:70:tom02.wav
329,192,105702,1,2,0:0:0:0:
402,192,105702,1,0,0:0:0:0:
182,192,105802,1,0,0:0:0:0:
256,192,105901,1,0,0:0:0:70:tom03.wav
109,192,106001,1,8,0:0:0:0:
329,192,106001,1,0,0:0:0:0:
475,192,106001,1,0,0:0:0:0:
182,192,106100,1,0,0:0:0:70:tom04.wav
256,192,106200,1,0,0:0:0:70:tom04.wav
36,192,106299,1,2,0:0:0:0:
475,192,106299,1,0,0:0:0:0:
329,192,106399,1,0,0:0:0:0:
182,192,106498,1,0,0:0:0:70:tom03.wav
36,192,106598,1,8,0:0:0:0:
402,192,106598,1,0,0:0:0:0:
475,192,106598,1,0,0:0:0:0:
256,192,106697,1,0,0:0:0:70:tom02.wav
109,192,106797,1,0,0:0:0:70:tom04.wav
182,192,106896,1,2,0:0:0:0:
329,192,106896,1,0,0:0:0:0:
402,192,107045,1,0,0:0:0:0:
36,192,107195,1,8,0:0:0:0:
109,192,107195,1,0,0:0:0:0:
475,192,107195,1,0,0:0:0:0:
182,192,107269,1,0,0:0:0:70:tom04.wav
256,192,107344,1,0,0:0:0:70:tom03.wav
329,192,107419,1,0,0:0:0:70:tom02.wav
109,192,107493,1,2,0:0:0:0:
402,192,107493,1,0,0:0:0:0:
256,192,107642,1,2,0:0:0:0:
329,192,107642,1,0,0:0:0:0:
36,192,107792,1,8,0:0:0:0:
182,192,107792,1,0,0:0:0:0:
475,192,107792,1,0,0:0:0:0:
329,192,107941,1,0,0:0:0:0:
256,192,108016,1,0,0:0:0:0:
182,192,108090,1,2,0:0:0:0:
475,192,108090,1,0,0:0:0:0:
402,192,108165,1,0,0:0:0:0:
36,192,108239,1,2,0:0:0:0:
329,192,108239,1,0,0:0:0:0:
109,192,108389,1,8,0:0:0:0:
182,192,108389,1,0,0:0:0:0:
475,192,108389,1,0,0:0:0:0:
256,192,108488,1,0,0:0:0:0:
329,192,108588,1,0,0:0:0:0:
36,192,108687,1,2,0:0:0:0:
402,192,108687,1,0,0:0:0:0:
182,192,108836,1,2,0:0:0:0:
329,192,108836,1,0,0:0:0:0:
36,192,108986,1,8,0:0:0:0:
109,192,108986,1,0,0:0:0:0:
475,192,108986,1,0,0:0:0:0:
402,192,109060,1,0,0:0:0:0:
329,192,109135,1,2,0:0:0:0:
256,192,109210,1,0,0:0:0:0:
36,192,109284,1,8,0:0:0:0:
182,192,109284,1,0,0:0:0:0:
475,192,109284,1,0,0:0:0:0:
329,192,109433,1,2,0:0:0:0:
36,192,109583,1,8,0:0:0:0:
402,192,109583,1,0,0:0:0:0:
475,192,109583,1,0,0:0:0:0:
182,192,109657,1,8,0:0:0:0:
329,192,109732,1,8,0:0:0:0:
182,192,109807,1,8,0:0:0:0:
36,192,109881,1,2,0:0:0:0:
109,192,109881,1,4,0:0:0:0:
475,192,109881,1,0,0:0:0:0:
256,192,110180,1,0,0:0:0:100:00QL.wav
475,192,110180,1,0,0:0:0:0:
109,192,110478,1,0,0:0:0:100:00QM.wav
475,192,110478,1,0,0:0:0:0:
256,192,110777,1,0,0:0:0:0:
475,192,110777,1,0,0:0:0:0:
36,192,111075,1,0,0:0:0:0:
402,192,111075,1,0,0:0:0:0:
36,192,111374,1,0,0:0:0:100:00QP.wav
256,192,111374,1,0,0:0:0:0:
36,192,111672,1,0,0:0:0:100:00QQ.wav
402,192,111672,1,0,0:0:0:0:
36,192,111971,1,0,0:0:0:0:
256,192,111971,1,0,0:0:0:0:
109,192,112269,1,4,0:0:0:0:
182,192,112269,1,0,0:0:0:0:
475,192,112269,1,0,0:0:0:0:
329,192,112568,1,0,0:0:0:100:00QT.wav
475,192,112568,1,0,0:0:0:0:
109,192,112866,1,0,0:0:0:100:00QU.wav
475,192,112866,1,0,0:0:0:0:
329,192,113165,1,0,0:0:0:100:00QV.wav
475,192,113165,1,0,0:0:0:0:
109,192,113463,1,0,0:0:0:100:00QW.wav
475,192,113463,1,0,0:0:0:0:
36,192,113762,1,0,0:0:0:100:00QX.wav
182,192,113762,1,0,0:0:0:0:
256,192,114060,1,8,0:0:0:0:
402,192,114135,1,8,0:0:0:0:
182,192,114210,1,10,0:0:0:0:
329,192,114284,1,10,0:0:0:0:
36,192,114359,1,8,0:0:0:0:
109,192,114359,1,2,0:0:0:0:
256,192,114657,128,2,115553:0:0:0:0:
402,192,114657,1,4,0:0:0:0:
475,192,114657,1,0,0:0:0:0:
36,192,115553,1,2,0:0:0:0:
182,192,115553,1,4,0:0:0:0:
475,192,115553,1,0,0:0:0:0:
36,192,115702,1,4,0:0:0:0:
182,192,115702,1,2,0:0:0:0:
475,192,115702,128,0,116448:0:0:0:0:
109,192,116448,128,0,116598:0:0:0:0:
256,192,116747,128,0,116896:0:0:0:0:
36,192,117045,1,2,0:0:0:0:
402,192,117045,1,4,0:0:0:0:
475,192,117045,1,0,0:0:0:0:
109,192,117642,1,4,0:0:0:0:
182,192,117642,1,2,0:0:0:0:
475,192,117642,1,0,0:0:0:0:
36,192,118239,1,2,0:0:0:0:
256,192,118239,1,4,0:0:0:0:
329,192,118239,1,0,0:0:0:0:
475,192,118339,1,0,0:0:0:70:LR_Snare Drum 2.wav
36,192,118438,1,0,0:0:0:70:LR_Snare Drum 2.wav
475,192,118538,1,0,0:0:0:70:LR_Snare Drum 2.wav
109,192,118637,1,0,0:0:0:70:LR_Snare Drum 2.wav
402,192,118737,1,0,0:0:0:70:LR_Snare Drum 2.wav
36,192,118836,1,0,0:0:0:70:tom01.wav
182,192,118836,1,0,0:0:0:0:
329,192,118936,1,0,0:0:0:70:tom02.wav
36,192,119035,1,0,0:0:0:70:tom03.wav
475,192,119035,1,0,0:0:0:0:
182,192,119135,1,0,0:0:0:70:tom01.wav
329,192,119135,1,0,0:0:0:0:
475,192,119234,1,0,0:0:0:70:tom04.wav
36,192,119334,1,0,0:0:0:70:tom02.wav
182,192,119334,1,0,0:0:0:0:
256,192,119433,1,2,0:0:0:0:
329,192,119433,1,4,0:0:0:0:
475,192,119433,1,0,0:0:0:0:
36,192,119732,1,8,0:0:0:0:
109,192,119732,1,0,0:0:0:0:
402,192,119732,1,0,0:0:0:0:
256,192,119881,1,0,0:0:0:0:
329,192,119956,1,0,0:0:0:0:
475,192,120030,1,0,0:0:0:0:
182,192,120105,1,0,0:0:0:0:
109,192,120180,1,2,0:0:0:0:
402,192,120180,1,0,0:0:0:0:
36,192,120329,1,8,0:0:0:0:
256,192,120329,1,0,0:0:0:0:
329,192,120329,1,0,0:0:0:0:
182,192,120478,1,0,0:0:0:0:
256,192,120553,1,0,0:0:0:0:
329,192,120627,1,2,0:0:0:0:
475,192,120627,1,0,0:0:0:0:
182,192,120777,1,0,0:0:0:0:
36,192,120926,1,8,0:0:0:0:
402,192,120926,1,0,0:0:0:0:
475,192,120926,1,0,0:0:0:0:
256,192,121075,1,0,0:0:0:0:
329,192,121150,1,0,0:0:0:0:
402,192,121224,1,0,0:0:0:0:
182,192,121299,1,0,0:0:0:0:
36,192,121374,1,2,0:0:0:0:
109,192,121374,1,0,0:0:0:0:
182,192,121523,1,8,0:0:0:0:
256,192,121523,1,0,0:0:0:0:
475,192,121523,1,0,0:0:0:0:
329,192,121598,1,0,0:0:0:0:
109,192,121672,1,0,0:0:0:0:
402,192,121747,1,0,0:0:0:0:
36,192,121822,1,2,0:0:0:0:
475,192,121822,1,0,0:0:0:0:
182,192,121971,1,2,0:0:0:0:
329,192,121971,1,0,0:0:0:0:
36,192,122120,1,8,0:0:0:0:
109,192,122120,1,0,0:0:0:0:
475,192,122120,1,0,0:0:0:0:
329,192,122269,1,0,0:0:0:0:
402,192,122344,1,0,0:0:0:0:
36,192,122419,1,2,0:0:0:0:
475,192,122419,1,0,0:0:0:0:
182,192,122568,1,2,0:0:0:0:
329,192,122568,1,0,0:0:0:0:
36,192,122717,1,8,0:0:0:0:
402,192,122717,1,0,0:0:0:0:
475,192,122717,1,0,0:0:0:0:
256,192,122866,1,0,0:0:0:0:
182,192,122941,1,0,0:0:0:0:
109,192,123016,1,2,0:0:0:0:
402,192,123016,1,0,0:0:0:0:
182,192,123165,1,2,0:0:0:0:
329,192,123165,1,0,0:0:0:0:
256,192,123314,1,8,0:0:0:0:
475,192,123314,1,2,0:0:0:0:
36,192,123463,1,2,0:0:0:0:
109,192,123463,1,0,0:0:0:0:
256,192,123613,1,4,0:0:0:0:
402,192,123613,1,8,0:0:0:0:
475,192,123613,1,0,0:0:0:0:
36,192,123762,1,2,0:0:0:0:
109,192,123762,1,0,0:0:0:0:
182,192,123911,1,8,0:0:0:0:
329,192,123986,1,8,0:0:0:0:
182,192,124060,1,8,0:0:0:0:
329,192,124135,1,8,0:0:0:0:
36,192,124210,1,2,0:0:0:0:
109,192,124210,1,4,0:0:0:0:
475,192,124210,1,0,0:0:0:0:
