osu file format v14

[General]
AudioFilename: perditus.mp3
AudioLeadIn: 0
PreviewTime: 30390
Countdown: 0
SampleSet: Soft
StackLeniency: 0.7
Mode: 3
LetterboxInBreaks: 0
SpecialStyle: 0
WidescreenStoryboard: 1

[Editor]
DistanceSpacing: 0.8
BeatDivisor: 6
GridSize: 32
TimelineZoom: 1.9

[Metadata]
Title:perditus paradisus
TitleUnicode:perditus†paradisus
Artist:iconoclasm
ArtistUnicode:iconoclasm
Creator:lemonguy
Version:Another
Source:beatmania IIDX 18 Resort Anthem
Tags:Dj taka wac wakita jun konami bemani instrumental true blue video game FAMoss stupud man elah gekido shxfted pop'n music ラピストリア REFLEC BEAT colette -Summer-
BeatmapID:2845681
BeatmapSetID:1302861

[Difficulty]
HPDrainRate:8
CircleSize:4
OverallDifficulty:8
ApproachRate:5
SliderMultiplier:1.4
SliderTickRate:1

[Events]
//Background and Video events
0,0,"bg.jpg",0,0
//Break Periods
//Storyboard Layer 0 (Background)
//Storyboard Layer 1 (Fail)
//Storyboard Layer 2 (Pass)
//Storyboard Layer 3 (Foreground)
//Storyboard Layer 4 (Overlay)
//Storyboard Sound Samples

[TimingPoints]
1088,348.837209,4,2,1,50,1,0
12250,-100,4,2,1,60,0,0
30390,-100,4,2,1,70,0,1
41553,-100,4,2,1,70,0,0
91785,-100,4,2,1,60,0,1
102948,-100,4,2,1,50,0,0
108529,-100,4,2,1,60,0,0
114111,-100,4,2,1,70,0,1
125274,-100,4,2,1,70,0,0

[HitObjects]
448,192,1088,128,0,2483:0:0:0:0:
192,192,2483,128,0,3878:0:0:0:0:
320,192,3878,128,0,4576:0:0:0:0:
64,192,4576,128,0,5274:0:0:0:0:
192,192,5274,128,0,6669:0:0:0:0:
448,192,6669,128,0,7367:0:0:0:0:
64,192,7367,128,0,8064:0:0:0:0:
320,192,8064,128,0,8762:0:0:0:0:
448,192,8762,128,0,9460:0:0:0:0:
320,192,9460,128,0,10157:0:0:0:0:
192,192,10157,128,0,11553:0:0:0:0:
64,192,11553,128,0,12076:0:0:0:0:
448,192,12076,1,2,0:0:0:0:
448,192,12250,1,0,0:0:0:100:Impacted.wav
192,192,12250,1,6,0:0:0:0:
64,192,12425,1,0,0:0:0:100:clap1.wav
448,192,12512,1,0,0:0:0:0:
320,192,12599,1,0,0:0:0:100:clap2.wav
64,192,12774,1,0,0:0:0:100:clap1.wav
320,192,12861,1,0,0:0:0:0:
192,192,12948,1,0,0:0:0:0:
64,192,13122,1,0,0:0:0:100:clap1.wav
448,192,13210,1,0,0:0:0:0:
320,192,13297,1,0,0:0:0:100:clap2.wav
64,192,13471,1,0,0:0:0:100:clap1.wav
320,192,13558,1,0,0:0:0:0:
192,192,13646,1,0,0:0:0:0:
192,192,13820,1,0,0:0:0:100:clap1.wav
448,192,13907,1,0,0:0:0:0:
320,192,13994,1,0,0:0:0:100:clap2.wav
192,192,14169,1,0,0:0:0:100:clap1.wav
320,192,14256,1,0,0:0:0:0:
64,192,14343,1,0,0:0:0:0:
192,192,14518,1,0,0:0:0:100:clap1.wav
448,192,14605,1,0,0:0:0:0:
320,192,14692,1,0,0:0:0:100:clap2.wav
192,192,14867,1,0,0:0:0:100:clap1.wav
320,192,14954,1,0,0:0:0:0:
64,192,15041,1,0,0:0:0:0:
448,192,15215,1,0,0:0:0:100:clap1.wav
64,192,15303,1,0,0:0:0:0:
192,192,15390,1,0,0:0:0:100:clap2.wav
448,192,15564,1,0,0:0:0:100:clap1.wav
192,192,15651,1,0,0:0:0:0:
320,192,15739,1,0,0:0:0:0:
320,192,15913,1,0,0:0:0:100:clap1.wav
64,192,16000,1,0,0:0:0:0:
192,192,16087,1,0,0:0:0:100:clap2.wav
320,192,16262,1,0,0:0:0:100:clap1.wav
192,192,16349,1,0,0:0:0:0:
448,192,16436,1,0,0:0:0:0:
64,192,16611,1,0,0:0:0:100:clap1.wav
320,192,16698,1,0,0:0:0:0:
448,192,16785,1,0,0:0:0:100:clap2.wav
64,192,16960,1,0,0:0:0:100:clap1.wav
448,192,17047,1,0,0:0:0:0:
192,192,17134,1,0,0:0:0:0:
64,192,17308,1,0,0:0:0:100:clap1.wav
320,192,17396,1,0,0:0:0:0:
448,192,17483,1,0,0:0:0:100:clap2.wav
64,192,17657,1,0,0:0:0:100:clap1.wav
448,192,17744,1,0,0:0:0:0:
64,192,17832,1,6,0:0:0:0:
320,192,17832,1,0,0:0:0:100:Impacted.wav
192,192,18006,1,0,0:0:0:100:clap1.wav
320,192,18093,1,0,0:0:0:0:
448,192,18181,1,0,0:0:0:100:clap2.wav
192,192,18355,1,0,0:0:0:100:clap1.wav
448,192,18442,1,0,0:0:0:0:
64,192,18529,1,0,0:0:0:0:
192,192,18704,1,0,0:0:0:100:clap1.wav
320,192,18791,1,0,0:0:0:0:
448,192,18878,1,0,0:0:0:100:clap2.wav
192,192,19053,1,0,0:0:0:100:clap1.wav
448,192,19140,1,0,0:0:0:0:
64,192,19227,1,0,0:0:0:0:
320,192,19401,1,0,0:0:0:100:clap1.wav
192,192,19489,1,0,0:0:0:0:
64,192,19576,1,0,0:0:0:100:clap2.wav
320,192,19750,1,0,0:0:0:100:clap1.wav
64,192,19837,1,0,0:0:0:0:
448,192,19925,1,0,0:0:0:0:
320,192,20099,1,0,0:0:0:100:clap1.wav
192,192,20186,1,0,0:0:0:0:
64,192,20274,1,0,0:0:0:100:clap2.wav
320,192,20448,1,0,0:0:0:100:clap1.wav
64,192,20535,1,0,0:0:0:0:
448,192,20622,1,0,0:0:0:0:
448,192,20797,1,0,0:0:0:100:clap1.wav
64,192,20884,1,0,0:0:0:0:
192,192,20971,1,0,0:0:0:100:clap2.wav
448,192,21146,1,0,0:0:0:100:clap1.wav
192,192,21233,1,0,0:0:0:0:
320,192,21320,1,0,0:0:0:0:
448,192,21494,1,0,0:0:0:100:clap1.wav
64,192,21582,1,0,0:0:0:0:
192,192,21669,1,0,0:0:0:100:clap2.wav
448,192,21843,1,0,0:0:0:100:clap1.wav
192,192,21931,1,0,0:0:0:0:
320,192,22018,1,0,0:0:0:0:
192,192,22192,1,0,0:0:0:100:clap1.wav
448,192,22279,1,0,0:0:0:0:
320,192,22367,1,0,0:0:0:100:clap2.wav
192,192,22541,1,0,0:0:0:100:clap1.wav
448,192,22628,1,0,0:0:0:0:
64,192,22715,1,0,0:0:0:0:
192,192,22890,1,0,0:0:0:100:clap1.wav
448,192,22977,1,0,0:0:0:0:
320,192,23064,1,0,0:0:0:100:clap2.wav
192,192,23239,1,0,0:0:0:100:clap1.wav
64,192,23239,1,2,0:0:0:0:
448,192,23326,1,0,0:0:0:0:
320,192,23413,1,0,0:0:0:100:Impacted.wav
192,192,23413,1,6,0:0:0:0:
64,192,23587,1,0,0:0:0:100:clap1.wav
448,192,23675,1,0,0:0:0:0:
192,192,23762,1,0,0:0:0:100:clap2.wav
320,192,23849,1,0,0:0:0:0:
64,192,23936,1,0,0:0:0:100:clap1.wav
320,192,24024,1,0,0:0:0:0:
192,192,24111,1,0,0:0:0:0:
448,192,24198,1,0,0:0:0:0:
64,192,24285,1,0,0:0:0:100:clap1.wav
448,192,24372,1,0,0:0:0:0:
192,192,24460,1,0,0:0:0:100:clap2.wav
320,192,24547,1,0,0:0:0:0:
64,192,24634,1,0,0:0:0:100:clap1.wav
320,192,24721,1,0,0:0:0:0:
192,192,24808,1,0,0:0:0:100:Impacted.wav
448,192,24808,1,6,0:0:0:0:
320,192,24983,1,0,0:0:0:100:clap1.wav
64,192,25070,1,0,0:0:0:0:
448,192,25157,1,0,0:0:0:100:clap2.wav
192,192,25244,1,0,0:0:0:0:
320,192,25332,1,0,0:0:0:100:clap1.wav
192,192,25419,1,0,0:0:0:0:
448,192,25506,1,0,0:0:0:0:
64,192,25593,1,0,0:0:0:0:
320,192,25681,1,0,0:0:0:100:clap1.wav
64,192,25768,1,0,0:0:0:0:
448,192,25855,1,0,0:0:0:100:clap2.wav
192,192,25942,1,0,0:0:0:0:
320,192,26029,1,0,0:0:0:100:clap1.wav
192,192,26117,1,0,0:0:0:0:
64,192,26204,1,0,0:0:0:100:Impacted.wav
448,192,26204,1,6,0:0:0:0:
448,192,26378,1,0,0:0:0:100:clap1.wav
192,192,26465,1,0,0:0:0:0:
320,192,26553,1,0,0:0:0:100:clap2.wav
64,192,26640,1,0,0:0:0:0:
448,192,26727,1,0,0:0:0:100:clap1.wav
64,192,26814,1,0,0:0:0:0:
320,192,26901,1,2,0:0:0:0:
192,192,26901,1,0,0:0:0:0:
448,192,27076,1,0,0:0:0:100:clap1.wav
64,192,27163,1,0,0:0:0:0:
320,192,27250,1,0,0:0:0:100:clap2.wav
192,192,27337,1,0,0:0:0:0:
448,192,27425,1,0,0:0:0:100:clap1.wav
192,192,27512,1,0,0:0:0:0:
64,192,27599,1,2,0:0:0:0:
320,192,27599,1,0,0:0:0:0:
192,192,27774,1,0,0:0:0:100:clap1.wav
320,192,27861,1,0,0:0:0:0:
448,192,27948,1,0,0:0:0:100:clap2.wav
64,192,27948,1,2,0:0:0:0:
192,192,28122,1,0,0:0:0:100:clap1.wav
448,192,28210,1,0,0:0:0:0:
64,192,28297,1,2,0:0:0:0:
320,192,28297,1,0,0:0:0:0:
64,192,28471,1,2,0:0:0:0:
192,192,28471,1,0,0:0:0:100:clap1.wav
320,192,28558,1,0,0:0:0:0:
64,192,28646,1,2,0:0:0:0:
448,192,28646,1,0,0:0:0:100:clap2.wav
64,192,28820,1,2,0:0:0:0:
192,192,28820,1,0,0:0:0:100:clap1.wav
448,192,28907,1,0,0:0:0:0:
320,192,28994,1,0,0:0:0:0:
448,192,29169,128,0,29343:0:0:0:0:
192,192,29343,1,0,0:0:0:0:
320,192,29518,128,0,29692:0:0:0:0:
64,192,29692,1,0,0:0:0:100:000F.wav
192,192,29867,1,0,0:0:0:100:000G.wav
192,192,29983,1,0,0:0:0:100:000H.wav
448,192,30041,128,0,30215:0:0:0:100:000I.wav
192,192,30215,128,0,30390:0:0:0:100:000K.wav
320,192,30390,1,6,0:0:0:0:
448,192,30390,1,0,0:0:0:100:Impacted.wav
64,192,30477,1,0,0:0:0:0:
192,192,30564,1,0,0:0:0:0:
320,192,30651,1,0,0:0:0:0:
64,192,30739,1,2,0:0:0:0:
64,192,30826,1,0,0:0:0:0:
320,192,30913,1,0,0:0:0:0:
448,192,31000,1,0,0:0:0:0:
320,192,31087,1,4,0:0:0:0:
192,192,31087,1,2,0:0:0:0:
192,192,31175,1,0,0:0:0:0:
448,192,31262,1,0,0:0:0:0:
64,192,31349,1,0,0:0:0:0:
320,192,31436,1,2,0:0:0:0:
320,192,31524,1,0,0:0:0:0:
64,192,31611,1,0,0:0:0:0:
192,192,31698,1,0,0:0:0:0:
448,192,31785,1,2,0:0:0:0:
64,192,31785,1,4,0:0:0:0:
448,192,31872,1,0,0:0:0:0:
192,192,31960,1,0,0:0:0:0:
320,192,32047,1,2,0:0:0:0:
64,192,32134,1,0,0:0:0:0:
64,192,32221,1,0,0:0:0:0:
448,192,32308,1,0,0:0:0:0:
192,192,32396,1,0,0:0:0:0:
320,192,32483,1,2,0:0:0:0:
64,192,32483,1,4,0:0:0:0:
320,192,32570,1,0,0:0:0:0:
192,192,32657,1,0,0:0:0:0:
448,192,32744,1,2,0:0:0:0:
192,192,32832,1,0,0:0:0:0:
320,192,32832,1,2,0:0:0:0:
192,192,32919,1,0,0:0:0:0:
448,192,33006,1,0,0:0:0:0:
64,192,33093,1,0,0:0:0:0:
448,192,33181,1,2,0:0:0:0:
320,192,33181,1,4,0:0:0:0:
64,192,33268,1,0,0:0:0:0:
192,192,33355,1,0,0:0:0:0:
320,192,33442,1,2,0:0:0:0:
448,192,33529,1,0,0:0:0:0:
64,192,33617,1,0,0:0:0:0:
320,192,33704,1,0,0:0:0:0:
64,192,33791,1,0,0:0:0:0:
192,192,33878,1,2,0:0:0:0:
448,192,33878,1,4,0:0:0:0:
320,192,33965,1,0,0:0:0:0:
192,192,34053,1,0,0:0:0:0:
64,192,34140,1,2,0:0:0:0:
448,192,34227,1,0,0:0:0:0:
64,192,34314,1,0,0:0:0:0:
320,192,34401,1,0,0:0:0:0:
192,192,34489,1,0,0:0:0:0:
64,192,34576,1,2,0:0:0:0:
448,192,34576,1,4,0:0:0:0:
320,192,34663,1,0,0:0:0:0:
192,192,34750,1,0,0:0:0:0:
448,192,34837,1,2,0:0:0:0:
320,192,34925,1,0,0:0:0:0:
64,192,35012,1,0,0:0:0:0:
448,192,35099,1,0,0:0:0:0:
192,192,35186,1,0,0:0:0:0:
64,192,35274,1,2,0:0:0:0:
320,192,35274,1,4,0:0:0:0:
448,192,35361,1,0,0:0:0:0:
192,192,35448,1,0,0:0:0:0:
64,192,35535,1,2,0:0:0:0:
320,192,35622,1,0,0:0:0:0:
448,192,35622,1,2,0:0:0:0:
192,192,35710,1,0,0:0:0:0:
448,192,35797,1,2,0:0:0:0:
320,192,35884,1,0,0:0:0:0:
448,192,35971,1,2,0:0:0:0:
64,192,35971,1,4,0:0:0:0:
64,192,36146,1,0,0:0:0:0:
448,192,36204,1,0,0:0:0:0:
320,192,36262,1,0,0:0:0:0:
192,192,36320,1,2,0:0:0:0:
192,192,36494,1,0,0:0:0:0:
320,192,36553,1,0,0:0:0:0:
64,192,36611,1,0,0:0:0:0:
448,192,36669,1,4,0:0:0:0:
192,192,36669,1,2,0:0:0:0:
448,192,36843,1,0,0:0:0:0:
64,192,36901,1,0,0:0:0:0:
192,192,36960,1,0,0:0:0:0:
320,192,37018,1,2,0:0:0:0:
320,192,37192,1,0,0:0:0:0:
64,192,37250,1,0,0:0:0:0:
448,192,37308,1,0,0:0:0:0:
320,192,37367,1,4,0:0:0:0:
192,192,37367,1,2,0:0:0:0:
320,192,37541,1,0,0:0:0:0:
192,192,37599,1,0,0:0:0:0:
448,192,37657,1,0,0:0:0:0:
64,192,37715,1,2,0:0:0:0:
64,192,37890,1,0,0:0:0:0:
320,192,37948,1,0,0:0:0:0:
192,192,38006,1,0,0:0:0:0:
448,192,38064,1,4,0:0:0:0:
64,192,38064,1,2,0:0:0:0:
448,192,38239,1,0,0:0:0:0:
64,192,38297,1,0,0:0:0:0:
320,192,38355,1,0,0:0:0:0:
192,192,38413,1,2,0:0:0:0:
192,192,38587,1,0,0:0:0:0:
64,192,38646,1,0,0:0:0:0:
448,192,38704,1,0,0:0:0:0:
192,192,38762,1,2,0:0:0:0:
320,192,38762,1,4,0:0:0:0:
320,192,38936,1,0,0:0:0:0:
64,192,39024,1,2,0:0:0:0:
192,192,39111,1,0,0:0:0:0:
192,192,39285,1,0,0:0:0:0:
448,192,39343,1,0,0:0:0:0:
320,192,39401,1,0,0:0:0:0:
192,192,39460,1,4,0:0:0:0:
64,192,39460,1,2,0:0:0:0:
192,192,39634,1,0,0:0:0:0:
320,192,39692,1,0,0:0:0:0:
448,192,39750,1,0,0:0:0:0:
64,192,39808,1,2,0:0:0:0:
64,192,39983,1,0,0:0:0:0:
448,192,40041,1,0,0:0:0:0:
192,192,40099,1,0,0:0:0:0:
64,192,40157,1,4,0:0:0:0:
320,192,40157,1,2,0:0:0:0:
192,192,40332,1,0,0:0:0:0:
320,192,40390,1,0,0:0:0:0:
448,192,40448,1,0,0:0:0:0:
64,192,40506,1,2,0:0:0:0:
192,192,40681,1,0,0:0:0:0:
320,192,40768,1,0,0:0:0:0:
64,192,40855,1,2,0:0:0:0:
448,192,40855,1,4,0:0:0:0:
320,192,40942,1,0,0:0:0:0:
64,192,41029,1,2,0:0:0:0:
192,192,41117,1,0,0:0:0:0:
64,192,41204,1,6,0:0:0:0:
448,192,41262,1,0,0:0:0:0:
320,192,41320,1,0,0:0:0:0:
64,192,41378,1,2,0:0:0:0:
192,192,41436,1,0,0:0:0:0:
320,192,41494,1,0,0:0:0:0:
64,192,41553,1,2,0:0:0:0:
448,192,41553,1,4,0:0:0:0:
192,192,41640,1,0,0:0:0:0:
448,192,41727,1,0,0:0:0:0:
320,192,41814,1,0,0:0:0:0:
64,192,41901,1,2,0:0:0:0:
192,192,41989,1,0,0:0:0:0:
320,192,42076,1,0,0:0:0:0:
448,192,42163,1,0,0:0:0:0:
64,192,42250,1,2,0:0:0:0:
320,192,42337,1,0,0:0:0:0:
192,192,42425,1,0,0:0:0:0:
448,192,42512,1,0,0:0:0:0:
64,192,42599,1,2,0:0:0:0:
192,192,42686,1,0,0:0:0:0:
320,192,42774,1,0,0:0:0:0:
64,192,42861,1,0,0:0:0:0:
448,192,42948,1,2,0:0:0:0:
320,192,43035,1,0,0:0:0:0:
192,192,43122,1,0,0:0:0:0:
448,192,43210,1,0,0:0:0:0:
448,192,43297,1,2,0:0:0:0:
192,192,43384,1,0,0:0:0:0:
320,192,43471,1,0,0:0:0:0:
64,192,43558,1,0,0:0:0:0:
448,192,43646,1,2,0:0:0:0:
192,192,43733,1,0,0:0:0:0:
320,192,43820,1,0,0:0:0:0:
64,192,43907,1,0,0:0:0:0:
320,192,43994,1,2,0:0:0:0:
192,192,44082,1,0,0:0:0:0:
448,192,44169,1,0,0:0:0:0:
192,192,44256,1,0,0:0:0:0:
192,192,44343,1,2,0:0:0:0:
320,192,44431,1,0,0:0:0:0:
64,192,44518,1,0,0:0:0:0:
448,192,44605,1,0,0:0:0:0:
64,192,44692,1,2,0:0:0:0:
192,192,44779,1,0,0:0:0:0:
320,192,44867,1,0,0:0:0:0:
448,192,44954,1,0,0:0:0:0:
64,192,45041,1,2,0:0:0:0:
448,192,45128,1,0,0:0:0:0:
192,192,45215,1,0,0:0:0:0:
320,192,45303,1,0,0:0:0:0:
64,192,45390,1,2,0:0:0:0:
192,192,45477,1,0,0:0:0:0:
320,192,45564,1,0,0:0:0:0:
64,192,45651,1,0,0:0:0:0:
448,192,45739,1,2,0:0:0:0:
192,192,45826,1,0,0:0:0:0:
64,192,45913,1,0,0:0:0:0:
320,192,46000,1,0,0:0:0:0:
320,192,46087,1,2,0:0:0:0:
192,192,46175,1,0,0:0:0:0:
448,192,46262,1,0,0:0:0:0:
64,192,46349,1,0,0:0:0:0:
448,192,46436,1,2,0:0:0:0:
192,192,46524,1,0,0:0:0:0:
320,192,46611,1,0,0:0:0:0:
64,192,46698,1,0,0:0:0:0:
64,192,46785,1,2,0:0:0:0:
448,192,46872,1,0,0:0:0:0:
320,192,46960,1,0,0:0:0:0:
192,192,47047,1,0,0:0:0:0:
64,192,47134,1,2,0:0:0:0:
192,192,47221,1,0,0:0:0:0:
320,192,47308,1,0,0:0:0:0:
448,192,47396,1,0,0:0:0:0:
64,192,47483,1,2,0:0:0:0:
320,192,47570,1,0,0:0:0:0:
192,192,47657,1,0,0:0:0:0:
448,192,47744,1,0,0:0:0:0:
320,192,47832,1,2,0:0:0:0:
64,192,47919,1,0,0:0:0:0:
448,192,48006,1,0,0:0:0:0:
192,192,48093,1,0,0:0:0:0:
320,192,48181,1,2,0:0:0:0:
448,192,48268,1,0,0:0:0:0:
64,192,48355,1,0,0:0:0:0:
192,192,48442,1,0,0:0:0:0:
320,192,48529,1,2,0:0:0:0:
192,192,48617,1,0,0:0:0:0:
448,192,48704,1,0,0:0:0:0:
64,192,48791,1,0,0:0:0:0:
320,192,48878,1,2,0:0:0:0:
64,192,48965,1,0,0:0:0:0:
448,192,49053,1,0,0:0:0:0:
192,192,49140,1,0,0:0:0:0:
448,192,49227,1,2,0:0:0:0:
64,192,49314,1,0,0:0:0:0:
320,192,49401,1,0,0:0:0:0:
192,192,49489,1,0,0:0:0:0:
192,192,49576,1,2,0:0:0:0:
448,192,49663,1,0,0:0:0:0:
320,192,49750,1,0,0:0:0:0:
64,192,49837,1,0,0:0:0:0:
192,192,49925,1,2,0:0:0:0:
448,192,50012,1,0,0:0:0:0:
64,192,50099,1,0,0:0:0:0:
320,192,50186,1,0,0:0:0:0:
64,192,50274,1,2,0:0:0:0:
192,192,50361,1,0,0:0:0:0:
320,192,50448,1,0,0:0:0:0:
448,192,50535,1,0,0:0:0:0:
192,192,50622,1,2,0:0:0:0:
320,192,50710,1,0,0:0:0:0:
64,192,50797,1,0,0:0:0:0:
448,192,50884,1,0,0:0:0:0:
192,192,50971,1,2,0:0:0:0:
64,192,51058,1,0,0:0:0:0:
320,192,51146,1,0,0:0:0:0:
192,192,51233,1,0,0:0:0:0:
448,192,51320,1,2,0:0:0:0:
320,192,51407,1,0,0:0:0:0:
192,192,51494,1,0,0:0:0:0:
320,192,51582,1,0,0:0:0:0:
64,192,51669,1,2,0:0:0:0:
448,192,51756,1,0,0:0:0:0:
192,192,51843,1,0,0:0:0:0:
320,192,51931,1,0,0:0:0:0:
448,192,52018,1,2,0:0:0:0:
64,192,52105,1,0,0:0:0:0:
448,192,52192,1,2,0:0:0:0:
192,192,52279,1,0,0:0:0:0:
448,192,52367,1,2,0:0:0:0:
64,192,52425,1,0,0:0:0:0:
192,192,52483,1,0,0:0:0:0:
448,192,52541,1,2,0:0:0:0:
320,192,52599,1,0,0:0:0:0:
192,192,52657,1,0,0:0:0:0:
448,192,52715,1,2,0:0:0:0:
64,192,52715,1,4,0:0:0:0:
320,192,52803,1,0,0:0:0:0:
192,192,52890,1,0,0:0:0:0:
448,192,52977,1,0,0:0:0:0:
448,192,53064,1,8,0:0:0:0:
320,192,53064,1,2,0:0:0:0:
64,192,53151,1,0,0:0:0:0:
192,192,53239,1,0,0:0:0:0:
448,192,53326,1,0,0:0:0:0:
64,192,53413,1,2,0:0:0:0:
320,192,53500,1,0,0:0:0:0:
448,192,53587,1,0,0:0:0:0:
192,192,53675,1,0,0:0:0:0:
192,192,53762,1,8,0:0:0:0:
64,192,53762,1,2,0:0:0:0:
448,192,53849,1,0,0:0:0:0:
64,192,53936,1,0,0:0:0:0:
320,192,54024,1,0,0:0:0:0:
448,192,54111,1,2,0:0:0:0:
192,192,54198,1,0,0:0:0:0:
64,192,54285,1,0,0:0:0:0:
320,192,54372,1,0,0:0:0:0:
320,192,54460,1,8,0:0:0:0:
448,192,54460,1,2,0:0:0:0:
64,192,54547,1,0,0:0:0:0:
448,192,54634,1,0,0:0:0:0:
192,192,54721,1,0,0:0:0:0:
320,192,54808,1,2,0:0:0:0:
192,192,54896,1,0,0:0:0:0:
448,192,54983,1,0,0:0:0:0:
64,192,55070,1,0,0:0:0:0:
64,192,55157,1,8,0:0:0:0:
192,192,55157,1,2,0:0:0:0:
448,192,55244,1,0,0:0:0:0:
320,192,55332,1,0,0:0:0:0:
64,192,55419,1,0,0:0:0:0:
192,192,55506,1,2,0:0:0:0:
320,192,55593,1,0,0:0:0:0:
64,192,55681,1,0,0:0:0:0:
448,192,55768,1,0,0:0:0:0:
448,192,55855,1,8,0:0:0:0:
320,192,55855,1,2,0:0:0:0:
64,192,55942,1,0,0:0:0:0:
192,192,56029,1,0,0:0:0:0:
448,192,56117,1,0,0:0:0:0:
64,192,56204,1,2,0:0:0:0:
320,192,56291,1,0,0:0:0:0:
448,192,56378,1,0,0:0:0:0:
64,192,56465,1,0,0:0:0:0:
64,192,56553,1,8,0:0:0:0:
192,192,56553,1,2,0:0:0:0:
448,192,56640,1,0,0:0:0:0:
192,192,56727,1,0,0:0:0:0:
320,192,56814,1,0,0:0:0:0:
448,192,56901,1,2,0:0:0:0:
192,192,56989,1,0,0:0:0:0:
64,192,57076,1,0,0:0:0:0:
320,192,57163,1,0,0:0:0:0:
320,192,57250,1,8,0:0:0:0:
448,192,57250,1,2,0:0:0:0:
64,192,57337,1,0,0:0:0:0:
320,192,57425,1,0,0:0:0:0:
192,192,57512,1,0,0:0:0:0:
448,192,57599,1,2,0:0:0:0:
64,192,57686,1,0,0:0:0:0:
448,192,57774,1,0,0:0:0:0:
192,192,57861,1,0,0:0:0:0:
192,192,57948,1,8,0:0:0:0:
64,192,57948,1,2,0:0:0:0:
448,192,58035,1,0,0:0:0:0:
320,192,58122,1,0,0:0:0:0:
64,192,58210,1,0,0:0:0:0:
192,192,58297,1,2,0:0:0:0:
320,192,58384,1,0,0:0:0:0:
448,192,58471,1,0,0:0:0:0:
192,192,58558,1,0,0:0:0:0:
192,192,58646,1,8,0:0:0:0:
64,192,58646,1,2,0:0:0:0:
320,192,58733,1,0,0:0:0:0:
64,192,58820,1,0,0:0:0:0:
192,192,58907,1,0,0:0:0:0:
320,192,58994,1,2,0:0:0:0:
192,192,59082,1,0,0:0:0:0:
448,192,59169,1,0,0:0:0:0:
64,192,59256,1,0,0:0:0:0:
64,192,59343,1,8,0:0:0:0:
192,192,59343,1,2,0:0:0:0:
448,192,59431,1,0,0:0:0:0:
192,192,59518,1,0,0:0:0:0:
320,192,59605,1,0,0:0:0:0:
448,192,59692,1,2,0:0:0:0:
192,192,59779,1,0,0:0:0:0:
64,192,59867,1,0,0:0:0:0:
448,192,59954,1,0,0:0:0:0:
448,192,60041,1,2,0:0:0:0:
320,192,60041,1,8,0:0:0:0:
192,192,60128,1,0,0:0:0:0:
320,192,60215,1,0,0:0:0:0:
64,192,60303,1,0,0:0:0:0:
448,192,60390,1,2,0:0:0:0:
192,192,60477,1,0,0:0:0:0:
64,192,60564,1,0,0:0:0:0:
320,192,60651,1,0,0:0:0:0:
320,192,60739,1,8,0:0:0:0:
448,192,60739,1,2,0:0:0:0:
192,192,60826,1,0,0:0:0:0:
448,192,60913,1,0,0:0:0:0:
64,192,61000,1,0,0:0:0:0:
192,192,61087,1,2,0:0:0:0:
448,192,61175,1,0,0:0:0:0:
64,192,61262,1,0,0:0:0:0:
320,192,61349,1,0,0:0:0:0:
320,192,61436,1,8,0:0:0:0:
448,192,61436,1,2,0:0:0:0:
192,192,61524,1,0,0:0:0:0:
448,192,61611,1,0,0:0:0:0:
64,192,61698,1,0,0:0:0:0:
320,192,61785,1,2,0:0:0:0:
448,192,61872,1,0,0:0:0:0:
192,192,61960,1,0,0:0:0:0:
320,192,62047,1,0,0:0:0:0:
320,192,62134,1,8,0:0:0:0:
448,192,62134,1,2,0:0:0:0:
64,192,62221,1,0,0:0:0:0:
192,192,62308,1,0,0:0:0:0:
320,192,62396,1,0,0:0:0:0:
448,192,62483,1,2,0:0:0:0:
64,192,62570,1,0,0:0:0:0:
320,192,62657,1,0,0:0:0:0:
192,192,62744,1,0,0:0:0:0:
64,192,62832,1,8,0:0:0:0:
448,192,62832,1,2,0:0:0:0:
192,192,62919,1,0,0:0:0:0:
320,192,63006,1,0,0:0:0:0:
64,192,63093,1,0,0:0:0:0:
448,192,63181,1,2,0:0:0:0:
192,192,63268,1,0,0:0:0:0:
448,192,63355,1,2,0:0:0:0:
320,192,63442,1,0,0:0:0:0:
448,192,63529,1,2,0:0:0:0:
192,192,63529,1,8,0:0:0:0:
64,192,63617,1,0,0:0:0:0:
448,192,63704,1,2,0:0:0:0:
192,192,63791,1,0,0:0:0:0:
64,192,63878,1,4,0:0:0:0:
448,192,63878,1,2,0:0:0:0:
320,192,63965,1,0,0:0:0:0:
192,192,64053,1,0,0:0:0:0:
448,192,64140,1,0,0:0:0:0:
192,192,64227,1,10,0:0:0:0:
320,192,64227,1,0,0:0:0:0:
64,192,64401,1,0,0:0:0:0:
192,192,64445,1,0,0:0:0:0:
320,192,64489,1,0,0:0:0:0:
64,192,64576,1,2,0:0:0:0:
448,192,64663,1,0,0:0:0:0:
64,192,64750,1,0,0:0:0:0:
320,192,64794,1,0,0:0:0:0:
448,192,64837,1,0,0:0:0:0:
192,192,64925,1,10,0:0:0:0:
320,192,65012,1,0,0:0:0:0:
64,192,65099,1,0,0:0:0:0:
192,192,65143,1,0,0:0:0:0:
448,192,65186,1,0,0:0:0:0:
64,192,65274,1,2,0:0:0:0:
320,192,65361,1,0,0:0:0:0:
192,192,65448,1,0,0:0:0:0:
448,192,65535,1,0,0:0:0:0:
192,192,65622,1,10,0:0:0:0:
320,192,65710,1,0,0:0:0:0:
64,192,65797,1,0,0:0:0:0:
320,192,65884,1,0,0:0:0:0:
192,192,65971,1,2,0:0:0:0:
64,192,66058,1,0,0:0:0:0:
448,192,66146,1,0,0:0:0:0:
320,192,66233,1,0,0:0:0:0:
192,192,66320,1,10,0:0:0:0:
448,192,66407,1,0,0:0:0:0:
64,192,66494,1,0,0:0:0:0:
320,192,66582,1,0,0:0:0:0:
448,192,66669,1,2,0:0:0:0:
192,192,66756,1,0,0:0:0:0:
320,192,66843,1,0,0:0:0:0:
64,192,66931,1,0,0:0:0:0:
320,192,67018,1,10,0:0:0:0:
192,192,67105,1,0,0:0:0:0:
448,192,67192,1,0,0:0:0:0:
192,192,67279,1,0,0:0:0:0:
64,192,67367,1,2,0:0:0:0:
448,192,67454,1,0,0:0:0:0:
64,192,67541,1,2,0:0:0:0:
320,192,67628,1,0,0:0:0:0:
64,192,67715,1,10,0:0:0:0:
192,192,67803,1,0,0:0:0:0:
64,192,67890,1,2,0:0:0:0:
448,192,67977,1,0,0:0:0:0:
320,192,68064,1,0,0:0:0:0:
192,192,68151,1,0,0:0:0:0:
320,192,68239,1,0,0:0:0:0:
320,192,68326,1,0,0:0:0:0:
192,192,68413,1,0,0:0:0:0:
448,192,68500,1,0,0:0:0:0:
64,192,68587,1,0,0:0:0:0:
320,192,68675,1,0,0:0:0:0:
448,192,68762,1,0,0:0:0:0:
64,192,68762,1,0,0:0:0:0:
192,192,68849,1,0,0:0:0:0:
448,192,68936,1,0,0:0:0:0:
320,192,68936,1,0,0:0:0:0:
64,192,69024,1,0,0:0:0:0:
320,192,69111,1,0,0:0:0:0:
192,192,69198,1,0,0:0:0:0:
448,192,69285,1,0,0:0:0:0:
320,192,69372,1,0,0:0:0:0:
64,192,69460,1,6,0:0:0:0:
448,192,69460,128,0,70768:0:0:0:0:
192,192,69547,1,0,0:0:0:0:
320,192,69634,1,0,0:0:0:0:
64,192,69721,1,0,0:0:0:0:
320,192,69808,1,10,0:0:0:0:
192,192,69896,1,0,0:0:0:0:
64,192,69983,1,0,0:0:0:0:
320,192,70070,1,0,0:0:0:0:
192,192,70157,1,2,0:0:0:0:
320,192,70244,1,0,0:0:0:0:
64,192,70332,1,0,0:0:0:0:
192,192,70419,1,0,0:0:0:0:
64,192,70506,1,10,0:0:0:0:
320,192,70593,1,0,0:0:0:0:
192,192,70681,1,0,0:0:0:0:
64,192,70768,1,0,0:0:0:0:
192,192,70855,128,0,72163:0:0:0:0:
448,192,70855,1,2,0:0:0:0:
320,192,70942,1,0,0:0:0:0:
64,192,71029,1,0,0:0:0:0:
448,192,71117,1,0,0:0:0:0:
64,192,71204,1,10,0:0:0:0:
320,192,71291,1,0,0:0:0:0:
448,192,71378,1,0,0:0:0:0:
64,192,71465,1,0,0:0:0:0:
320,192,71553,1,2,0:0:0:0:
64,192,71640,1,0,0:0:0:0:
448,192,71727,1,0,0:0:0:0:
320,192,71814,1,0,0:0:0:0:
448,192,71901,1,10,0:0:0:0:
64,192,71989,1,0,0:0:0:0:
320,192,72076,1,0,0:0:0:0:
448,192,72163,1,0,0:0:0:0:
320,192,72250,128,0,73558:0:0:0:0:
192,192,72250,1,2,0:0:0:0:
64,192,72337,1,0,0:0:0:0:
448,192,72425,1,0,0:0:0:0:
192,192,72512,1,0,0:0:0:0:
448,192,72599,1,10,0:0:0:0:
64,192,72686,1,0,0:0:0:0:
192,192,72774,1,0,0:0:0:0:
448,192,72861,1,0,0:0:0:0:
64,192,72948,1,2,0:0:0:0:
448,192,73035,1,0,0:0:0:0:
192,192,73122,1,0,0:0:0:0:
64,192,73210,1,0,0:0:0:0:
192,192,73297,1,10,0:0:0:0:
448,192,73384,1,0,0:0:0:0:
64,192,73471,1,0,0:0:0:0:
192,192,73558,1,0,0:0:0:0:
64,192,73646,128,0,74954:0:0:0:0:
320,192,73646,1,2,0:0:0:0:
448,192,73733,1,0,0:0:0:0:
192,192,73820,1,0,0:0:0:0:
320,192,73907,1,0,0:0:0:0:
192,192,73994,1,10,0:0:0:0:
448,192,74082,1,0,0:0:0:0:
320,192,74169,1,0,0:0:0:0:
192,192,74256,1,0,0:0:0:0:
448,192,74343,1,2,0:0:0:0:
192,192,74431,1,0,0:0:0:0:
320,192,74518,1,0,0:0:0:0:
448,192,74605,1,0,0:0:0:0:
320,192,74692,1,10,0:0:0:0:
192,192,74779,1,0,0:0:0:0:
448,192,74867,1,0,0:0:0:0:
320,192,74954,1,0,0:0:0:0:
64,192,75041,1,2,0:0:0:0:
192,192,75041,128,0,76349:0:0:0:0:
448,192,75128,1,0,0:0:0:0:
320,192,75215,1,0,0:0:0:0:
64,192,75303,1,0,0:0:0:0:
320,192,75390,1,10,0:0:0:0:
448,192,75477,1,0,0:0:0:0:
64,192,75564,1,0,0:0:0:0:
320,192,75651,1,0,0:0:0:0:
448,192,75739,1,2,0:0:0:0:
320,192,75826,1,0,0:0:0:0:
64,192,75913,1,0,0:0:0:0:
448,192,76000,1,0,0:0:0:0:
64,192,76087,1,10,0:0:0:0:
320,192,76175,1,0,0:0:0:0:
448,192,76262,1,0,0:0:0:0:
64,192,76349,1,0,0:0:0:0:
192,192,76436,1,2,0:0:0:0:
448,192,76436,128,0,77744:0:0:0:0:
320,192,76524,1,0,0:0:0:0:
64,192,76611,1,0,0:0:0:0:
192,192,76698,1,0,0:0:0:0:
64,192,76785,1,10,0:0:0:0:
320,192,76872,1,0,0:0:0:0:
192,192,76960,1,0,0:0:0:0:
64,192,77047,1,0,0:0:0:0:
320,192,77134,1,2,0:0:0:0:
64,192,77221,1,0,0:0:0:0:
192,192,77308,1,0,0:0:0:0:
320,192,77396,1,0,0:0:0:0:
192,192,77483,1,10,0:0:0:0:
64,192,77570,1,0,0:0:0:0:
320,192,77657,1,0,0:0:0:0:
192,192,77744,1,0,0:0:0:0:
320,192,77832,128,0,78878:0:0:0:0:
448,192,77832,1,2,0:0:0:0:
64,192,77919,1,0,0:0:0:0:
192,192,78006,1,0,0:0:0:0:
448,192,78093,1,0,0:0:0:0:
192,192,78181,1,10,0:0:0:0:
64,192,78268,1,0,0:0:0:0:
448,192,78355,1,0,0:0:0:0:
192,192,78442,1,0,0:0:0:0:
64,192,78529,1,2,0:0:0:0:
192,192,78617,1,0,0:0:0:0:
448,192,78704,1,0,0:0:0:0:
64,192,78791,1,0,0:0:0:0:
448,192,78878,1,10,0:0:0:0:
320,192,78936,1,0,0:0:0:0:
192,192,78994,1,0,0:0:0:0:
64,192,79053,1,2,0:0:0:0:
448,192,79111,1,0,0:0:0:0:
320,192,79169,1,0,0:0:0:0:
64,192,79227,1,0,0:0:0:0:
192,192,79285,1,0,0:0:0:0:
320,192,79343,1,0,0:0:0:0:
448,192,79401,1,0,0:0:0:0:
192,192,79489,1,0,0:0:0:0:
448,192,79576,1,0,0:0:0:0:
64,192,79663,1,0,0:0:0:0:
320,192,79750,1,0,0:0:0:0:
64,192,79837,1,0,0:0:0:0:
448,192,79925,1,2,0:0:0:0:
192,192,79983,1,0,0:0:0:0:
320,192,80041,1,0,0:0:0:0:
448,192,80099,1,2,0:0:0:0:
64,192,80157,1,0,0:0:0:0:
192,192,80215,1,0,0:0:0:0:
448,192,80274,1,10,0:0:0:0:
64,192,80332,1,0,0:0:0:0:
320,192,80390,1,0,0:0:0:0:
448,192,80448,1,2,0:0:0:0:
192,192,80535,1,0,0:0:0:0:
64,192,80622,1,4,0:0:0:0:
448,192,80622,1,2,0:0:0:0:
320,192,80710,1,0,0:0:0:0:
192,192,80797,1,0,0:0:0:0:
448,192,80884,1,0,0:0:0:0:
64,192,80971,1,8,0:0:0:0:
192,192,80971,1,2,0:0:0:0:
320,192,81058,1,0,0:0:0:0:
448,192,81146,1,0,0:0:0:0:
192,192,81233,1,0,0:0:0:0:
64,192,81320,1,2,0:0:0:0:
320,192,81407,1,0,0:0:0:0:
192,192,81494,1,0,0:0:0:0:
448,192,81582,1,0,0:0:0:0:
64,192,81669,1,8,0:0:0:0:
320,192,81669,1,2,0:0:0:0:
448,192,81756,1,0,0:0:0:0:
192,192,81843,1,0,0:0:0:0:
320,192,81931,1,0,0:0:0:0:
448,192,82018,1,2,0:0:0:0:
192,192,82105,1,0,0:0:0:0:
64,192,82192,1,0,0:0:0:0:
448,192,82279,1,0,0:0:0:0:
192,192,82367,1,8,0:0:0:0:
64,192,82367,1,2,0:0:0:0:
320,192,82454,1,0,0:0:0:0:
448,192,82541,1,0,0:0:0:0:
64,192,82628,1,0,0:0:0:0:
320,192,82715,1,2,0:0:0:0:
192,192,82803,1,0,0:0:0:0:
64,192,82890,1,0,0:0:0:0:
448,192,82977,1,0,0:0:0:0:
320,192,83064,1,2,0:0:0:0:
192,192,83064,1,8,0:0:0:0:
448,192,83151,1,0,0:0:0:0:
64,192,83239,1,0,0:0:0:0:
192,192,83326,1,0,0:0:0:0:
448,192,83413,1,2,0:0:0:0:
64,192,83500,1,0,0:0:0:0:
320,192,83587,1,0,0:0:0:0:
192,192,83675,1,0,0:0:0:0:
64,192,83762,1,8,0:0:0:0:
448,192,83762,1,2,0:0:0:0:
320,192,83849,1,0,0:0:0:0:
192,192,83936,1,0,0:0:0:0:
448,192,84024,1,0,0:0:0:0:
64,192,84111,1,2,0:0:0:0:
320,192,84198,1,0,0:0:0:0:
448,192,84285,1,0,0:0:0:0:
192,192,84372,1,0,0:0:0:0:
64,192,84460,1,2,0:0:0:0:
320,192,84460,1,8,0:0:0:0:
192,192,84547,1,0,0:0:0:0:
448,192,84634,1,0,0:0:0:0:
64,192,84721,1,0,0:0:0:0:
192,192,84808,1,2,0:0:0:0:
448,192,84896,1,0,0:0:0:0:
64,192,84983,1,0,0:0:0:0:
320,192,85070,1,0,0:0:0:0:
64,192,85157,1,2,0:0:0:0:
448,192,85157,1,8,0:0:0:0:
192,192,85244,1,0,0:0:0:0:
448,192,85332,1,0,0:0:0:0:
64,192,85419,1,0,0:0:0:0:
320,192,85506,1,2,0:0:0:0:
192,192,85593,1,0,0:0:0:0:
448,192,85681,1,0,0:0:0:0:
320,192,85768,1,0,0:0:0:0:
192,192,85855,1,8,0:0:0:0:
64,192,85855,1,2,0:0:0:0:
320,192,85942,1,0,0:0:0:0:
64,192,86029,1,0,0:0:0:0:
448,192,86117,1,0,0:0:0:0:
192,192,86204,1,2,0:0:0:0:
64,192,86291,1,0,0:0:0:0:
192,192,86378,1,0,0:0:0:0:
320,192,86465,1,0,0:0:0:0:
448,192,86553,1,8,0:0:0:0:
64,192,86553,1,2,0:0:0:0:
320,192,86640,1,0,0:0:0:0:
192,192,86727,1,0,0:0:0:0:
448,192,86814,1,0,0:0:0:0:
320,192,86901,1,2,0:0:0:0:
64,192,86989,1,0,0:0:0:0:
192,192,87076,1,0,0:0:0:0:
64,192,87163,1,0,0:0:0:0:
320,192,87250,1,2,0:0:0:0:
448,192,87250,1,8,0:0:0:0:
64,192,87337,1,0,0:0:0:0:
448,192,87425,1,0,0:0:0:0:
64,192,87512,1,0,0:0:0:0:
320,192,87599,1,2,0:0:0:0:
192,192,87686,1,0,0:0:0:0:
320,192,87774,1,0,0:0:0:0:
448,192,87861,1,0,0:0:0:0:
64,192,87948,1,8,0:0:0:0:
192,192,87948,1,2,0:0:0:0:
320,192,88035,1,0,0:0:0:0:
192,192,88122,1,0,0:0:0:0:
448,192,88210,1,0,0:0:0:0:
320,192,88297,1,2,0:0:0:0:
192,192,88384,1,0,0:0:0:0:
64,192,88471,1,0,0:0:0:0:
192,192,88558,1,0,0:0:0:0:
448,192,88646,1,8,0:0:0:0:
320,192,88646,1,2,0:0:0:0:
192,192,88733,1,0,0:0:0:0:
320,192,88820,1,0,0:0:0:0:
192,192,88907,1,0,0:0:0:0:
448,192,88994,1,2,0:0:0:0:
64,192,89082,1,0,0:0:0:0:
448,192,89169,1,0,0:0:0:0:
192,192,89256,1,0,0:0:0:0:
320,192,89343,1,2,0:0:0:0:
64,192,89343,1,8,0:0:0:0:
192,192,89431,1,0,0:0:0:0:
448,192,89518,1,0,0:0:0:0:
64,192,89605,1,0,0:0:0:0:
192,192,89692,1,2,0:0:0:0:
320,192,89779,1,0,0:0:0:0:
448,192,89867,1,0,0:0:0:0:
320,192,89954,1,0,0:0:0:0:
64,192,90041,1,8,0:0:0:0:
192,192,90041,1,2,0:0:0:0:
320,192,90128,1,0,0:0:0:0:
192,192,90215,1,0,0:0:0:0:
64,192,90303,1,0,0:0:0:0:
448,192,90390,1,2,0:0:0:0:
320,192,90448,1,0,0:0:0:0:
192,192,90506,1,0,0:0:0:0:
64,192,90564,1,0,0:0:0:0:
448,192,90622,1,0,0:0:0:0:
320,192,90681,1,0,0:0:0:0:
64,192,90739,1,10,0:0:0:0:
192,192,90797,1,0,0:0:0:0:
320,192,90855,1,0,0:0:0:0:
448,192,90913,1,0,0:0:0:0:
64,192,90971,1,0,0:0:0:0:
192,192,91029,1,0,0:0:0:0:
448,192,91087,1,2,0:0:0:0:
64,192,91175,1,0,0:0:0:0:
448,192,91262,1,2,0:0:0:0:
320,192,91349,1,0,0:0:0:0:
448,192,91436,1,10,0:0:0:0:
64,192,91494,1,0,0:0:0:0:
192,192,91553,1,0,0:0:0:0:
448,192,91611,1,2,0:0:0:0:
320,192,91669,1,0,0:0:0:0:
192,192,91727,1,0,0:0:0:0:
448,192,91785,1,0,0:0:0:0:
64,192,91785,1,2,0:0:0:0:
320,192,91901,1,0,0:0:0:0:
448,192,92018,1,0,0:0:0:0:
64,192,92134,1,2,0:0:0:0:
320,192,92134,1,0,0:0:0:0:
192,192,92250,1,0,0:0:0:0:
320,192,92367,1,0,0:0:0:0:
192,192,92483,1,0,0:0:0:0:
448,192,92483,1,2,0:0:0:0:
64,192,92599,1,0,0:0:0:0:
192,192,92715,1,0,0:0:0:0:
64,192,92832,1,0,0:0:0:0:
320,192,92832,1,2,0:0:0:0:
448,192,92948,1,0,0:0:0:0:
64,192,93064,1,0,0:0:0:0:
448,192,93181,1,0,0:0:0:0:
320,192,93181,1,2,0:0:0:0:
192,192,93297,1,0,0:0:0:0:
448,192,93413,1,0,0:0:0:0:
320,192,93529,1,0,0:0:0:0:
192,192,93529,1,2,0:0:0:0:
64,192,93646,1,0,0:0:0:0:
320,192,93762,1,0,0:0:0:0:
64,192,93878,1,2,0:0:0:0:
192,192,93878,1,0,0:0:0:0:
448,192,93994,1,0,0:0:0:0:
192,192,94111,1,0,0:0:0:0:
64,192,94227,1,0,0:0:0:0:
448,192,94227,1,2,0:0:0:0:
320,192,94401,1,0,0:0:0:0:
448,192,94401,1,2,0:0:0:0:
64,192,94576,1,0,0:0:0:0:
448,192,94576,1,2,0:0:0:0:
192,192,94692,1,0,0:0:0:0:
64,192,94808,1,0,0:0:0:0:
192,192,94925,1,0,0:0:0:0:
448,192,94925,1,2,0:0:0:0:
320,192,95041,1,0,0:0:0:0:
192,192,95157,1,0,0:0:0:0:
64,192,95274,1,2,0:0:0:0:
320,192,95274,1,0,0:0:0:0:
448,192,95390,1,0,0:0:0:0:
320,192,95506,1,0,0:0:0:0:
448,192,95622,1,0,0:0:0:0:
192,192,95622,1,2,0:0:0:0:
64,192,95739,1,0,0:0:0:0:
448,192,95855,1,0,0:0:0:0:
64,192,95971,1,0,0:0:0:0:
192,192,95971,1,2,0:0:0:0:
320,192,96087,1,0,0:0:0:0:
64,192,96204,1,0,0:0:0:0:
320,192,96320,1,2,0:0:0:0:
192,192,96320,1,0,0:0:0:0:
448,192,96436,1,0,0:0:0:0:
192,192,96553,1,0,0:0:0:0:
448,192,96669,1,2,0:0:0:0:
320,192,96669,1,0,0:0:0:0:
64,192,96756,1,0,0:0:0:0:
448,192,96843,1,2,0:0:0:0:
192,192,96931,1,0,0:0:0:0:
448,192,97018,1,2,0:0:0:0:
320,192,97105,1,0,0:0:0:0:
448,192,97192,1,2,0:0:0:0:
64,192,97279,1,0,0:0:0:0:
448,192,97367,1,2,0:0:0:0:
192,192,97367,1,4,0:0:0:0:
320,192,97454,1,0,0:0:0:0:
64,192,97541,1,0,0:0:0:0:
448,192,97628,1,0,0:0:0:0:
64,192,97715,1,2,0:0:0:0:
192,192,97715,1,8,0:0:0:0:
320,192,97803,1,0,0:0:0:0:
448,192,97890,1,0,0:0:0:0:
192,192,97977,1,0,0:0:0:0:
320,192,98064,1,2,0:0:0:0:
64,192,98064,1,0,0:0:0:0:
192,192,98151,1,0,0:0:0:0:
448,192,98239,1,0,0:0:0:0:
64,192,98326,1,0,0:0:0:0:
320,192,98413,1,8,0:0:0:0:
448,192,98413,1,2,0:0:0:0:
192,192,98500,1,0,0:0:0:0:
64,192,98587,1,0,0:0:0:0:
320,192,98675,1,0,0:0:0:0:
448,192,98762,1,0,0:0:0:0:
64,192,98762,1,2,0:0:0:0:
320,192,98849,1,0,0:0:0:0:
192,192,98936,1,0,0:0:0:0:
448,192,99024,1,0,0:0:0:0:
64,192,99111,1,8,0:0:0:0:
192,192,99111,1,2,0:0:0:0:
320,192,99198,1,0,0:0:0:0:
448,192,99285,1,0,0:0:0:0:
192,192,99372,1,0,0:0:0:0:
64,192,99460,1,0,0:0:0:0:
448,192,99460,1,2,0:0:0:0:
192,192,99547,1,0,0:0:0:0:
320,192,99634,1,0,0:0:0:0:
64,192,99721,1,0,0:0:0:0:
320,192,99808,1,2,0:0:0:0:
448,192,99808,1,8,0:0:0:0:
192,192,99896,1,0,0:0:0:0:
64,192,99983,1,0,0:0:0:0:
320,192,100070,1,0,0:0:0:0:
192,192,100157,1,2,0:0:0:0:
448,192,100157,1,0,0:0:0:0:
320,192,100244,1,0,0:0:0:0:
64,192,100332,1,0,0:0:0:0:
448,192,100419,1,0,0:0:0:0:
192,192,100506,1,8,0:0:0:0:
64,192,100506,1,2,0:0:0:0:
320,192,100593,1,0,0:0:0:0:
448,192,100681,1,0,0:0:0:0:
192,192,100768,1,0,0:0:0:0:
64,192,100855,1,0,0:0:0:0:
320,192,100855,1,2,0:0:0:0:
192,192,100942,1,0,0:0:0:0:
448,192,101029,1,0,0:0:0:0:
64,192,101117,1,0,0:0:0:0:
448,192,101204,1,2,0:0:0:0:
320,192,101204,1,8,0:0:0:0:
192,192,101291,1,0,0:0:0:0:
64,192,101378,1,0,0:0:0:0:
320,192,101465,1,0,0:0:0:0:
64,192,101553,1,2,0:0:0:0:
448,192,101553,1,0,0:0:0:0:
320,192,101640,1,0,0:0:0:0:
192,192,101727,1,0,0:0:0:0:
448,192,101814,1,0,0:0:0:0:
192,192,101901,1,2,0:0:0:0:
64,192,101901,1,8,0:0:0:0:
320,192,101989,1,0,0:0:0:0:
448,192,102076,1,0,0:0:0:0:
192,192,102163,1,0,0:0:0:0:
448,192,102250,1,0,0:0:0:0:
64,192,102250,1,2,0:0:0:0:
320,192,102337,1,0,0:0:0:0:
64,192,102425,1,2,0:0:0:0:
192,192,102512,1,0,0:0:0:0:
64,192,102599,1,2,0:0:0:0:
320,192,102599,1,8,0:0:0:0:
448,192,102686,1,0,0:0:0:0:
64,192,102774,1,2,0:0:0:100:00EE.wav
320,192,102832,1,0,0:0:0:100:00EF.wav
448,192,102890,1,0,0:0:0:100:00EG.wav
64,192,102948,1,6,0:0:0:100:Impacted.wav
192,192,102948,128,0,103646:0:0:0:0:
320,192,103646,128,0,104343:0:0:0:0:
64,192,104343,128,0,105041:0:0:0:0:
192,192,105041,128,0,105739:0:0:0:0:
448,192,105739,1,0,0:0:0:0:
192,192,105855,1,0,0:0:0:0:
320,192,105971,1,0,0:0:0:0:
64,192,106087,1,0,0:0:0:0:
192,192,106204,1,0,0:0:0:0:
448,192,106320,1,0,0:0:0:0:
320,192,106436,1,0,0:0:0:0:
64,192,106494,1,0,0:0:0:0:
192,192,106553,1,0,0:0:0:0:
320,192,106611,1,0,0:0:0:0:
448,192,106669,1,0,0:0:0:0:
64,192,106727,1,0,0:0:0:0:
192,192,106785,1,0,0:0:0:0:
448,192,106843,1,0,0:0:0:0:
320,192,106901,1,0,0:0:0:0:
192,192,106960,1,0,0:0:0:0:
64,192,107018,1,0,0:0:0:0:
448,192,107076,1,0,0:0:0:0:
320,192,107134,1,0,0:0:0:0:
192,192,107250,1,0,0:0:0:0:
448,192,107308,1,0,0:0:0:0:
64,192,107367,1,0,0:0:0:0:
320,192,107425,1,0,0:0:0:0:
448,192,107483,1,0,0:0:0:0:
192,192,107570,1,0,0:0:0:0:
320,192,107657,1,0,0:0:0:0:
192,192,107744,1,0,0:0:0:0:
448,192,107832,1,0,0:0:0:0:
320,192,107919,1,0,0:0:0:0:
64,192,108006,1,2,0:0:0:0:
448,192,108093,1,0,0:0:0:0:
64,192,108181,1,2,0:0:0:0:
192,192,108268,1,0,0:0:0:0:
64,192,108355,1,2,0:0:0:0:
320,192,108442,1,0,0:0:0:0:
64,192,108529,1,6,0:0:0:0:
448,192,108529,1,0,0:0:0:100:Impacted.wav
192,192,108617,1,0,0:0:0:0:
320,192,108704,1,0,0:0:0:0:
64,192,108791,1,0,0:0:0:0:
448,192,108878,1,0,0:0:0:0:
192,192,108936,1,0,0:0:0:0:
64,192,108994,1,0,0:0:0:0:
320,192,109053,1,0,0:0:0:0:
192,192,109111,1,0,0:0:0:0:
64,192,109169,1,0,0:0:0:0:
448,192,109227,1,0,0:0:0:0:
192,192,109314,1,0,0:0:0:0:
320,192,109401,1,0,0:0:0:0:
64,192,109489,1,0,0:0:0:0:
448,192,109576,1,0,0:0:0:0:
320,192,109634,1,0,0:0:0:0:
64,192,109692,1,0,0:0:0:0:
448,192,109750,1,0,0:0:0:0:
192,192,109808,1,0,0:0:0:0:
64,192,109867,1,0,0:0:0:0:
320,192,109925,1,0,0:0:0:0:
192,192,110012,1,0,0:0:0:0:
448,192,110099,1,0,0:0:0:0:
192,192,110186,1,0,0:0:0:0:
64,192,110274,1,0,0:0:0:0:
320,192,110332,1,0,0:0:0:0:
448,192,110390,1,0,0:0:0:0:
192,192,110448,1,0,0:0:0:0:
320,192,110506,1,0,0:0:0:0:
448,192,110564,1,0,0:0:0:0:
64,192,110622,1,0,0:0:0:0:
320,192,110710,1,0,0:0:0:0:
192,192,110797,1,0,0:0:0:0:
448,192,110884,1,0,0:0:0:0:
64,192,110971,1,0,0:0:0:0:
192,192,111029,1,0,0:0:0:0:
448,192,111087,1,0,0:0:0:0:
64,192,111146,1,0,0:0:0:0:
320,192,111204,1,0,0:0:0:0:
448,192,111262,1,0,0:0:0:0:
192,192,111320,1,0,0:0:0:0:
320,192,111407,1,0,0:0:0:0:
64,192,111494,1,0,0:0:0:0:
320,192,111582,1,0,0:0:0:0:
448,192,111669,1,0,0:0:0:0:
192,192,111727,1,0,0:0:0:0:
64,192,111785,1,0,0:0:0:0:
320,192,111843,1,0,0:0:0:0:
192,192,111901,1,0,0:0:0:0:
448,192,111960,1,0,0:0:0:0:
320,192,112018,1,0,0:0:0:0:
64,192,112105,1,0,0:0:0:0:
192,192,112192,1,0,0:0:0:0:
448,192,112279,1,0,0:0:0:0:
320,192,112367,1,0,0:0:0:0:
192,192,112454,1,0,0:0:0:0:
64,192,112541,1,0,0:0:0:0:
192,192,112599,1,0,0:0:0:0:
320,192,112657,1,0,0:0:0:0:
448,192,112715,1,0,0:0:0:0:
64,192,112803,1,0,0:0:0:0:
320,192,112890,1,0,0:0:0:0:
192,192,112977,1,0,0:0:0:0:
64,192,113064,1,0,0:0:0:0:
320,192,113122,1,0,0:0:0:0:
448,192,113181,1,0,0:0:0:0:
64,192,113239,1,0,0:0:0:0:
192,192,113297,1,0,0:0:0:0:
448,192,113355,1,0,0:0:0:0:
320,192,113413,1,0,0:0:0:0:
64,192,113500,1,0,0:0:0:0:
320,192,113587,1,0,0:0:0:0:
192,192,113646,1,0,0:0:0:0:
64,192,113704,1,0,0:0:0:0:
448,192,113762,1,0,0:0:0:0:
320,192,113820,1,0,0:0:0:0:
64,192,113878,1,0,0:0:0:0:
448,192,113936,1,0,0:0:0:0:
192,192,113994,1,0,0:0:0:0:
64,192,114053,1,0,0:0:0:0:
448,192,114111,1,6,0:0:0:0:
320,192,114111,1,0,0:0:0:100:Impacted.wav
192,192,114198,1,0,0:0:0:0:
448,192,114285,1,0,0:0:0:0:
64,192,114372,1,0,0:0:0:0:
320,192,114460,1,2,0:0:0:0:
192,192,114460,1,8,0:0:0:0:
448,192,114547,1,0,0:0:0:0:
192,192,114634,1,0,0:0:0:0:
320,192,114721,1,0,0:0:0:0:
64,192,114808,1,2,0:0:0:0:
192,192,114867,1,0,0:0:0:0:
320,192,114925,1,0,0:0:0:0:
448,192,114983,1,0,0:0:0:0:
64,192,115041,1,0,0:0:0:0:
192,192,115099,1,0,0:0:0:0:
320,192,115157,1,8,0:0:0:0:
448,192,115157,1,2,0:0:0:0:
64,192,115244,1,0,0:0:0:0:
320,192,115332,1,0,0:0:0:0:
192,192,115419,1,0,0:0:0:0:
448,192,115506,1,2,0:0:0:0:
64,192,115593,1,0,0:0:0:0:
448,192,115681,1,0,0:0:0:0:
192,192,115768,1,0,0:0:0:0:
64,192,115855,1,8,0:0:0:0:
320,192,115855,1,2,0:0:0:0:
448,192,115942,1,0,0:0:0:0:
64,192,116029,1,0,0:0:0:0:
192,192,116117,1,0,0:0:0:0:
448,192,116204,1,2,0:0:0:0:
320,192,116262,1,0,0:0:0:0:
192,192,116320,1,0,0:0:0:0:
64,192,116378,1,0,0:0:0:0:
448,192,116436,1,0,0:0:0:0:
320,192,116494,1,0,0:0:0:0:
64,192,116553,1,8,0:0:0:0:
192,192,116553,1,2,0:0:0:0:
448,192,116640,1,0,0:0:0:0:
64,192,116727,1,0,0:0:0:0:
192,192,116814,1,0,0:0:0:0:
320,192,116901,1,2,0:0:0:0:
64,192,116989,1,0,0:0:0:0:
320,192,117076,1,0,0:0:0:0:
192,192,117163,1,0,0:0:0:0:
64,192,117250,1,8,0:0:0:0:
448,192,117250,1,2,0:0:0:0:
320,192,117337,1,0,0:0:0:0:
64,192,117425,1,0,0:0:0:0:
192,192,117512,1,0,0:0:0:0:
448,192,117599,1,2,0:0:0:0:
320,192,117657,1,0,0:0:0:0:
64,192,117715,1,0,0:0:0:0:
192,192,117774,1,0,0:0:0:0:
320,192,117832,1,0,0:0:0:0:
448,192,117890,1,0,0:0:0:0:
64,192,117948,1,8,0:0:0:0:
192,192,117948,1,2,0:0:0:0:
320,192,118035,1,0,0:0:0:0:
64,192,118122,1,0,0:0:0:0:
448,192,118210,1,0,0:0:0:0:
320,192,118297,1,2,0:0:0:0:
192,192,118384,1,0,0:0:0:0:
320,192,118471,1,0,0:0:0:0:
64,192,118558,1,0,0:0:0:0:
192,192,118646,1,8,0:0:0:0:
448,192,118646,1,2,0:0:0:0:
320,192,118733,1,0,0:0:0:0:
192,192,118820,1,0,0:0:0:0:
448,192,118907,1,0,0:0:0:0:
64,192,118994,1,2,0:0:0:0:
320,192,119082,1,0,0:0:0:0:
64,192,119169,1,2,0:0:0:0:
192,192,119256,1,0,0:0:0:0:
64,192,119343,1,10,0:0:0:0:
448,192,119401,1,0,0:0:0:0:
320,192,119460,1,0,0:0:0:0:
64,192,119518,1,2,0:0:0:0:
192,192,119576,1,0,0:0:0:0:
320,192,119634,1,0,0:0:0:0:
448,192,119692,1,4,0:0:0:0:
64,192,119692,1,2,0:0:0:0:
192,192,119779,1,0,0:0:0:0:
448,192,119867,1,0,0:0:0:0:
64,192,119954,1,0,0:0:0:0:
320,192,120041,1,8,0:0:0:0:
192,192,120041,1,2,0:0:0:0:
64,192,120128,1,0,0:0:0:0:
320,192,120215,1,0,0:0:0:0:
192,192,120303,1,0,0:0:0:0:
448,192,120390,1,2,0:0:0:0:
64,192,120477,1,0,0:0:0:0:
320,192,120564,1,0,0:0:0:0:
192,192,120622,1,0,0:0:0:0:
448,192,120681,1,0,0:0:0:0:
320,192,120739,1,8,0:0:0:0:
64,192,120739,1,2,0:0:0:0:
192,192,120826,1,0,0:0:0:0:
64,192,120913,1,2,0:0:0:0:
320,192,121000,1,0,0:0:0:0:
448,192,121087,1,2,0:0:0:0:
192,192,121175,1,0,0:0:0:0:
448,192,121262,1,0,0:0:0:0:
320,192,121349,1,0,0:0:0:0:
64,192,121436,1,2,0:0:0:0:
192,192,121436,1,8,0:0:0:0:
448,192,121524,1,0,0:0:0:0:
192,192,121611,1,0,0:0:0:0:
320,192,121698,1,0,0:0:0:0:
64,192,121785,1,2,0:0:0:0:
192,192,121872,1,0,0:0:0:0:
64,192,121960,1,2,0:0:0:0:
448,192,122018,1,0,0:0:0:0:
320,192,122076,1,0,0:0:0:0:
192,192,122134,1,0,0:0:0:0:
448,192,122192,1,0,0:0:0:0:
320,192,122250,1,0,0:0:0:0:
64,192,122308,1,8,0:0:0:0:
192,192,122396,1,0,0:0:0:0:
448,192,122483,1,2,0:0:0:0:
64,192,122483,1,4,0:0:0:0:
320,192,122570,1,0,0:0:0:0:
448,192,122657,1,2,0:0:0:0:
192,192,122744,1,0,0:0:0:0:
320,192,122832,1,2,0:0:0:0:
448,192,122832,1,8,0:0:0:0:
64,192,122919,1,0,0:0:0:0:
320,192,123006,1,2,0:0:0:0:
192,192,123093,1,0,0:0:0:0:
64,192,123181,1,2,0:0:0:0:
320,192,123181,1,0,0:0:0:0:
448,192,123268,1,0,0:0:0:0:
64,192,123355,1,2,0:0:0:0:
320,192,123442,1,0,0:0:0:0:
192,192,123529,1,2,0:0:0:0:
64,192,123529,1,8,0:0:0:0:
448,192,123617,1,0,0:0:0:0:
192,192,123704,1,2,0:0:0:0:
320,192,123791,1,0,0:0:0:0:
448,192,123878,1,2,0:0:0:0:
192,192,123878,1,4,0:0:0:0:
448,192,123965,1,2,0:0:0:0:
64,192,124053,1,2,0:0:0:0:
448,192,124140,1,2,0:0:0:0:
448,192,124227,1,10,0:0:0:0:
64,192,124314,1,2,0:0:0:0:
448,192,124401,1,2,0:0:0:0:
448,192,124489,1,2,0:0:0:0:
64,192,124576,1,2,0:0:0:0:
192,192,124634,1,2,0:0:0:0:
320,192,124692,1,2,0:0:0:0:
64,192,124750,1,2,0:0:0:0:
192,192,124808,1,2,0:0:0:0:
448,192,124867,1,2,0:0:0:0:
64,192,124925,1,10,0:0:0:0:
320,192,124983,1,2,0:0:0:0:
448,192,125041,1,2,0:0:0:0:
192,192,125099,1,2,0:0:0:0:
320,192,125157,1,2,0:0:0:0:
448,192,125215,1,2,0:0:0:0:
64,192,125274,1,6,0:0:0:0:
192,192,125274,1,0,0:0:0:100:Impacted.wav
