osu file format v14

[General]
AudioFilename: 022.iconoclasm - perditus_paradisus.mp3
AudioLeadIn: 0
PreviewTime: 29654
Countdown: 0
SampleSet: Soft
StackLeniency: 0.7
Mode: 0
LetterboxInBreaks: 1
WidescreenStoryboard: 0

[Editor]
Bookmarks: 110984
DistanceSpacing: 1.3
BeatDivisor: 4
GridSize: 4
TimelineZoom: 1

[Metadata]
Title:perditus paradisus
TitleUnicode:perditus†paradisus
Artist:iconoclasm
ArtistUnicode:iconoclasm
Creator:kiddly
Version:Standard
Source:beatmania IIDX 18 Resort Anthem
Tags:Dj taka wac wakita jun konami stream bemani ignorethis matrix instrumental video game Moecho
BeatmapID:224133
BeatmapSetID:72790

[Difficulty]
HPDrainRate:2
CircleSize:4
OverallDifficulty:3
ApproachRate:5
SliderMultiplier:0.759999999999999
SliderTickRate:1

[Events]
//Background and Video events
0,0,"BG11.jpg",0,0
//Break Periods
2,40997,49364
//Storyboard Layer 0 (Background)
//Storyboard Layer 1 (Fail)
//Storyboard Layer 2 (Pass)
//Storyboard Layer 3 (Foreground)
//Storyboard Layer 4 (Overlay)
//Storyboard Sound Samples

[TimingPoints]
332,348.837209302326,4,2,1,40,1,0
332,-133.333333333333,4,2,1,40,0,0
11494,-100,4,2,1,90,0,0
29634,-100,4,2,1,80,0,0
67308,-100,4,1,1,60,0,0
68006,-100,4,2,1,90,0,0
77076,-100,4,2,1,40,0,0
77250,-100,4,2,1,50,0,0
77425,-100,4,2,1,60,0,0
77599,-100,4,2,1,70,0,0
77774,-100,4,2,1,80,0,0
77948,-100,4,2,1,90,0,0
78122,-100,4,2,1,90,0,0
85448,-100,4,2,1,90,0,0
102279,-100,4,2,1,40,0,0
102977,-100,4,2,1,60,0,0
103675,-100,4,2,1,80,0,0
107773,-100,4,1,1,40,0,0
110564,-100,4,1,1,60,0,0
112657,-100,4,2,1,80,0,0
113355,-100,4,2,1,90,0,0
121724,-100,4,1,1,70,0,0
124518,-100,4,1,1,90,0,0

[Colours]
Combo1 : 255,120,117
Combo2 : 9,109,217
Combo3 : 167,176,243
Combo4 : 155,240,255

[HitObjects]
71,114,332,5,2,0:0:0:0:
71,114,1727,2,0,B|131:107|158:153|139:210|139:210|107:233|107:233|115:285,1,228.00000869751
25,360,3820,2,0,B|98:315|163:377|163:377|238:338,1,228.00000869751,0|2,0:0|0:0,0:0:0:0:
286,263,5913,6,0,P|323:223|289:172,1,114.000004348755
244,101,7308,2,0,B|260:76|283:65|283:65|316:65|344:83,1,114.000004348755,0|2,0:0|0:0,0:0:0:0:
421,132,8704,1,0,0:0:0:0:
369,219,9401,1,0,0:0:0:0:
288,174,10099,1,0,0:0:0:0:
227,104,10797,2,0,P|189:125|189:165,1,85.5000032615662,0|0,0:0|1:0,0:0:0:0:
213,205,11494,6,0,L|289:237,1,75.9999999999999,4|2,1:0|0:0,0:0:0:0:
238,323,12192,2,0,P|203:328|172:295,1,75.9999999999999,0|2,0:0|0:0,0:0:0:0:
93,244,12890,2,0,P|110:208|146:196,1,75.9999999999999,0|2,0:0|0:0,0:0:0:0:
217,132,13587,2,0,P|246:161|249:198,1,75.9999999999999,0|2,0:0|0:0,0:0:0:0:
171,252,14285,1,0,0:0:0:0:
221,334,14634,5,2,0:0:0:0:
27,213,15332,1,2,0:0:0:0:
148,19,16029,1,2,0:0:0:0:
342,140,16727,1,2,0:0:0:0:
342,140,16901,1,2,0:0:0:0:
342,140,17076,1,4,1:0:0:0:
434,104,17425,5,2,0:0:0:0:
367,322,18122,1,2,0:0:0:0:
149,256,18820,1,2,0:0:0:0:
216,38,19518,1,2,0:0:0:0:
216,38,19692,1,2,0:0:0:0:
216,38,19866,1,0,0:0:0:0:
235,134,20215,5,2,0:0:0:0:
29,35,20913,1,2,0:0:0:0:
234,134,21611,1,2,0:0:0:0:
28,35,22308,1,2,0:0:0:0:
64,68,22483,6,0,L|76:120,1,38,0|4,1:0|1:0,0:0:0:0:
256,192,22831,12,4,25448,1:0:0:0:
169,268,26145,5,4,1:0:0:0:
318,340,26843,2,0,B|289:326|289:326|245:343,1,75.9999999999999,4|4,1:0|1:0,0:0:0:0:
170,268,27541,2,0,L|127:268,1,38,4|4,1:0|1:0,0:0:0:0:
93,297,27890,2,0,L|50:297,1,38,4|4,1:0|1:0,0:0:0:0:
29,254,28238,6,0,B|19:230|19:230|50:186,1,75.9999999999999,0|0,0:0|0:0,0:0:0:0:
94,101,28936,1,8,0:0:0:0:
107,53,29111,2,0,L|82:13,2,38,2|4|2,0:0|1:0|0:0,0:0:0:0:
156,53,29634,6,0,P|185:31|227:34,1,75.9999999999999,4|10,0:0|0:0,0:0:0:0:
264,61,30157,1,0,0:0:0:0:
295,100,30331,2,0,P|266:122|224:119,1,75.9999999999999,4|10,0:0|0:0,0:0:0:0:
180,207,31029,2,0,L|105:220,1,75.9999999999999,6|8,0:0|0:0,0:0:0:0:
43,298,31727,1,6,0:0:0:0:
137,347,32076,1,12,0:0:0:0:
230,295,32425,6,0,P|267:288|303:307,1,75.9999999999999,6|8,0:0|0:0,0:0:0:0:
333,342,32948,1,0,0:0:0:0:
384,344,33122,2,0,P|404:312|400:265,1,75.9999999999999,6|8,0:0|0:0,0:0:0:0:
356,192,33820,2,0,L|441:175,1,75.9999999999999,6|10,0:0|0:0,0:0:0:0:
480,82,34518,2,0,L|405:96,1,75.9999999999999,6|4,0:0|0:0,0:0:0:0:
309,50,35215,6,0,P|297:98|315:133,1,75.9999999999999,4|8,0:0|0:0,0:0:0:0:
349,152,35738,1,0,0:0:0:0:
394,183,35913,1,4,0:0:0:0:
425,273,36262,1,10,0:0:0:0:
326,264,36611,2,0,L|233:251,1,75.9999999999999,4|8,0:0|0:0,0:0:0:0:
196,162,37308,2,0,B|114:151,1,75.9999999999999,6|8,0:0|0:0,0:0:0:0:
16,176,38006,5,6,0:0:0:0:
159,332,38704,1,6,0:0:0:0:
159,332,39401,2,0,L|194:251,1,75.9999999999999,4|8,0:0|0:0,0:0:0:0:
230,163,40099,1,14,0:0:0:0:
316,224,40448,1,10,0:0:0:0:
419,197,40797,5,4,1:0:0:0:
256,192,50564,12,6,51959,0:0:0:0:
259,286,52657,6,0,L|281:328,2,38,2|0|10,0:0|0:0|0:0,0:0:0:0:
347,240,53355,6,0,B|355:206|355:206|390:184,1,75.9999999999999,2|10,0:0|0:0,0:0:0:0:
394,134,53878,1,0,0:0:0:0:
372,86,54052,2,0,L|324:62,2,38,2|0|10,0:0|0:0|0:0,0:0:0:0:
468,109,54750,6,0,B|489:140|489:140|486:182,1,75.9999999999999,2|10,0:0|0:0,0:0:0:0:
462,222,55273,1,0,0:0:0:0:
436,264,55448,2,2,L|465:295,2,38,2|0|10,0:0|0:0|0:0,0:0:0:0:
343,298,56145,6,0,B|305:294|305:294|265:330,1,75.9999999999999,2|10,0:0|0:0,0:0:0:0:
231,340,56669,1,0,0:0:0:0:
183,353,56843,2,0,L|141:330,2,38,2|0|10,0:0|0:0|0:0,0:0:0:0:
211,258,57541,6,0,B|189:228|189:228|195:183,1,75.9999999999999,2|10,0:0|0:0,0:0:0:0:
207,141,58064,1,0,0:0:0:0:
214,93,58238,2,0,B|251:99|251:99|277:135,1,75.9999999999999,2|10,0:0|0:0,0:0:0:0:
355,187,58936,2,0,B|338:222|338:222|303:234,1,75.9999999999999,2|10,0:0|0:0,0:0:0:0:
258,256,59459,1,0,0:0:0:0:
217,283,59634,2,0,L|194:316,2,38,2|0|10,0:0|0:0|0:0,0:0:0:0:
119,264,60331,6,0,B|102:230|102:230|115:188,1,75.9999999999999,2|10,0:0|0:0,0:0:0:0:
124,145,60855,1,0,0:0:0:0:
131,97,61029,2,0,B|135:60|135:60|115:23,1,75.9999999999999,2|10,0:0|0:0,0:0:0:0:
215,34,61727,1,2,0:0:0:0:
274,113,62076,1,10,0:0:0:0:
336,36,62425,2,0,L|380:36,1,38,2|10,0:0|0:0,0:0:0:0:
416,60,62773,2,0,L|460:60,1,38,10|10,0:0|0:0,0:0:0:0:
499,39,63122,1,4,0:0:0:0:
256,192,63297,12,0,67308,0:0:0:0:
65,178,68006,6,0,L|46:225,2,38,0|0|2,0:0|0:0|0:0,0:0:0:0:
158,144,68704,6,4,B|226:107|226:107|301:101|379:156,1,228,4|0,0:0|1:0,0:0:0:0:
474,188,70099,6,0,B|427:202|427:202|421:250|421:250|441:284|441:284|415:331|415:331|373:328,1,228,4|0,0:0|1:0,0:0:0:0:
265,348,71494,6,0,B|234:336|234:336|212:350|212:350|191:337|191:337|169:348|169:348|146:340|146:340|121:348|121:348|90:337|90:337|57:351,1,228,4|0,0:0|1:0,0:0:0:0:
8,247,72890,6,0,B|1:220|1:220|21:209|21:209|15:187|15:187|35:178|35:178|26:159|26:159|50:150|50:150|41:125|41:125|69:100|111:105,1,228,4|0,0:0|1:0,0:0:0:0:
163,195,74285,6,0,B|209:175|209:175|245:180|268:217|268:217|312:188|379:198,1,228,4|0,0:0|1:0,0:0:0:0:
443,112,75680,6,0,B|376:85|303:105|303:105|272:68|216:79,1,228,0|0,0:0|1:0,0:0:0:0:
128,52,77076,5,0,1:0:0:0:
31,28,77425,1,0,1:0:0:0:
20,125,77773,2,0,L|36:169,1,38,0|0,1:0|1:0,0:0:0:0:
75,186,78122,2,0,L|91:151,1,38,0|0,1:0|1:0,0:0:0:0:
115,108,78471,6,0,P|175:115|224:81,1,114,4|0,0:0|0:0,0:0:0:0:
265,64,79169,2,0,L|307:99,2,38,8|10|10,0:0|0:0|0:0,0:0:0:0:
341,159,79866,6,0,L|391:144,2,38,4|0|8,0:0|0:0|0:0,0:0:0:0:
210,50,80738,2,0,P|168:42|135:65,1,75.9999999999999,2|2,0:0|0:0,0:0:0:0:
96,80,81262,6,0,L|43:69,2,38,6|2|8,0:0|0:0|0:0,0:0:0:0:
231,136,82134,2,0,P|262:159|268:198,1,75.9999999999999,2|2,0:0|0:0,0:0:0:0:
264,243,82657,6,0,L|299:256,2,38,6|2|8,0:0|0:0|0:0,0:0:0:0:
137,164,83529,2,0,P|100:143|63:144,1,75.9999999999999,2|2,0:0|0:0,0:0:0:0:
28,112,84052,6,0,L|5:66,2,38,4|2|8,0:0|0:0|0:0,0:0:0:0:
173,80,84925,2,0,P|202:53|244:53,1,75.9999999999999,2|2,0:0|0:0,0:0:0:0:
281,72,85448,6,0,P|320:59|365:73,2,75.9999999999999,4|2|0,0:0|0:0|0:0,0:0:0:0:
333,164,86494,1,0,0:0:0:0:
280,172,86669,1,0,0:0:0:0:
232,149,86843,6,0,P|193:136|148:150,2,75.9999999999999,4|2|0,0:0|0:0|0:0,0:0:0:0:
177,240,87890,1,0,0:0:0:0:
228,253,88064,1,0,0:0:0:0:
277,232,88238,6,0,P|316:219|361:233,2,75.9999999999999,4|2|0,0:0|0:0|0:0,0:0:0:0:
339,318,89285,1,0,0:0:0:0:
286,307,89459,1,0,0:0:0:0:
237,318,89634,6,0,P|175:319|117:354,1,114,2|0,0:0|0:0,0:0:0:0:
87,368,90332,2,0,L|74:330,1,38,0|0,1:0|1:0,0:0:0:0:
28,314,90680,2,0,L|42:268,1,38,0|0,1:0|1:0,0:0:0:0:
79,257,91029,5,6,0:0:0:0:
183,236,91377,1,8,0:0:0:0:
218,136,91727,1,2,0:0:0:0:
148,55,92075,1,8,0:0:0:0:
43,76,92424,1,2,0:0:0:0:
9,176,92773,1,8,0:0:0:0:
79,257,93122,2,0,L|126:264,1,38,0|2,0:0|0:0,0:0:0:0:
163,246,93471,2,2,L|178:284,1,38,8|4,0:0|0:0,0:0:0:0:
214,313,93820,5,6,0:0:0:0:
235,208,94169,1,8,0:0:0:0:
254,103,94518,1,2,0:0:0:0:
358,85,94866,1,8,0:0:0:0:
340,190,95215,1,2,0:0:0:0:
319,295,95564,1,8,0:0:0:0:
417,335,95913,2,0,L|451:301,1,38,0|0,1:0|1:0,0:0:0:0:
483,272,96262,2,0,L|469:237,1,38,0|0,1:0|1:0,0:0:0:0:
422,210,96611,6,0,P|423:172|454:144,1,75.9999999999999,4|8,0:0|0:0,0:0:0:0:
362,97,97308,2,0,P|377:62|409:45,3,75.9999999999999,2|8|4|8,0:0|0:0|0:0|0:0,0:0:0:0:
311,34,98704,2,0,L|264:64,1,38,4|2,0:0|0:0,0:0:0:0:
239,25,99052,2,0,L|214:67,1,38,12|2,0:0|0:0,0:0:0:0:
175,79,99401,5,4,1:0:0:0:
76,73,99750,1,8,1:0:0:0:
91,170,100099,1,4,1:0:0:0:
51,260,100448,1,8,1:0:0:0:
145,290,100797,1,4,1:0:0:0:
198,372,101145,1,8,1:0:0:0:
291,340,101494,2,0,L|331:325,1,38,0|0,1:0|1:0,0:0:0:0:
365,324,101843,2,0,L|385:283,1,38,0|0,1:0|1:0,0:0:0:0:
426,266,102192,5,4,0:0:0:0:
256,192,102366,12,2,104983,0:0:0:0:
247,312,105680,5,2,0:0:0:0:
247,312,106378,1,2,0:0:0:0:
247,312,107076,1,2,0:0:0:0:
338,275,107425,1,2,0:0:0:0:
430,241,107773,6,0,B|451:170|451:170|405:91,1,152,4|0,0:0|0:0,0:0:0:0:
252,219,109169,2,0,B|212:286|212:286|233:357,1,152
328,183,110564,5,6,0:2:0:0:
226,13,111262,1,6,0:2:0:0:
33,51,111959,1,4,0:2:0:0:
99,123,112308,1,0,0:0:0:0:
59,213,112657,2,0,L|59:261,1,38,2|2,0:2|0:2,0:0:0:0:
18,279,113006,2,0,L|18:329,1,38,2|2,0:2|0:2,0:0:0:0:
61,345,113355,6,0,P|93:371|140:362,1,75.9999999999999,4|2,0:0|0:0,0:0:0:0:
203,308,114052,2,0,L|289:317,1,75.9999999999999,0|2,0:0|0:0,0:0:0:0:
327,322,114576,1,0,0:0:0:0:
367,349,114750,6,0,P|384:313|362:272,1,75.9999999999999,0|2,0:0|0:0,0:0:0:0:
290,223,115448,2,0,L|307:144,1,75.9999999999999,0|2,0:0|0:0,0:0:0:0:
269,115,115971,1,0,0:0:0:0:
234,80,116145,6,0,L|218:154,1,75.9999999999999,0|2,0:0|0:0,0:0:0:0:
142,218,116843,2,0,P|105:202|65:216,1,75.9999999999999,0|2,0:0|0:0,0:0:0:0:
43,251,117366,1,0,0:0:0:0:
13,290,117541,6,0,P|50:306|90:292,1,75.9999999999999,0|2,0:0|0:0,0:0:0:0:
175,331,118238,2,0,L|200:282,2,38,0|0|0,1:0|1:0|1:0,0:0:0:0:
266,368,118936,6,0,L|352:348,1,75.9999999999999,0|0,1:0|1:0,0:0:0:0:
432,313,119634,1,0,1:0:0:0:
361,243,119983,1,0,1:0:0:0:
308,247,120157,1,0,1:0:0:0:
256,233,120332,2,0,P|218:212|193:175,1,75.9999999999999,0|0,1:0|1:0,0:0:0:0:
180,81,121029,1,0,1:0:0:0:
280,115,121378,1,0,1:0:0:0:
325,143,121552,1,0,1:0:0:0:
336,194,121727,6,0,B|364:212|364:212|412:208,1,75.9999999999999
488,154,122425,2,0,L|469:111,1,38
508,84,122773,2,0,L|471:63,1,38,0|0,0:0|0:0,0:0:0:0:
445,25,123122,6,0,L|369:34,1,75.9999999999999
300,105,123820,2,0,L|224:114,1,75.9999999999999
158,187,124518,1,4,0:0:0:0:
