osu file format v14

[General]
AudioFilename: 022.iconoclasm - perditus_paradisus.mp3
AudioLeadIn: 0
PreviewTime: 29654
Countdown: 0
SampleSet: Soft
StackLeniency: 0.2
Mode: 0
LetterboxInBreaks: 1
WidescreenStoryboard: 0

[Editor]
Bookmarks: 79401,110984
DistanceSpacing: 1.3
BeatDivisor: 4
GridSize: 8
TimelineZoom: 2.3

[Metadata]
Title:perditus paradisus
TitleUnicode:perditus†paradisus
Artist:iconoclasm
ArtistUnicode:iconoclasm
Creator:kiddly
Version:Kaiden
Source:beatmania IIDX 18 Resort Anthem
Tags:Dj taka wac wakita jun konami stream bemani ignorethis matrix instrumental video game Moecho
BeatmapID:224132
BeatmapSetID:72790

[Difficulty]
HPDrainRate:6
CircleSize:5
OverallDifficulty:9
ApproachRate:9
SliderMultiplier:1.76
SliderTickRate:1

[Events]
//Background and Video events
0,0,"BG11.jpg",0,0
//Break Periods
//Storyboard Layer 0 (Background)
//Storyboard Layer 1 (Fail)
//Storyboard Layer 2 (Pass)
//Storyboard Layer 3 (Foreground)
//Storyboard Layer 4 (Overlay)
//Storyboard Sound Samples

[TimingPoints]
332,348.837209302326,4,2,1,40,1,0
332,-200,4,2,1,40,0,0
419,-200,4,2,1,5,0,0
1640,-200,4,2,1,60,0,0
1814,-200,4,2,1,5,0,0
3122,-200,4,2,1,40,0,0
4605,-200,4,2,1,5,0,0
5826,-200,4,2,1,60,0,0
6000,-200,4,2,1,5,0,0
6611,-200,4,2,1,40,0,0
7395,-200,4,2,1,5,0,0
8006,-200,4,2,1,40,0,0
8791,-200,4,2,1,5,0,0
9401,-200,4,2,1,40,0,0
10186,-200,4,2,1,5,0,0
10797,-200,4,2,1,40,0,0
11145,-200,4,2,1,60,0,0
11494,-100,4,2,1,90,0,0
28239,-200,4,2,1,90,0,0
29285,-50,4,2,1,90,0,0
29634,-100,4,2,1,90,0,1
40797,-100,4,2,1,90,0,0
62425,-100,4,2,1,90,0,1
63122,-100,4,2,1,90,0,0
67308,-100,4,1,1,60,0,0
68006,-100,4,2,1,90,0,0
77076,-100,4,2,1,40,0,0
77250,-100,4,2,1,50,0,0
77425,-100,4,2,1,60,0,0
77599,-100,4,2,1,70,0,0
77774,-100,4,2,1,80,0,0
77948,-100,4,2,1,90,0,0
78122,-100,4,2,1,90,0,0
85448,-100,4,2,1,90,0,0
85491,-100,4,2,1,90,0,0
86843,-100,4,2,1,90,0,0
86887,-100,4,2,1,90,0,0
88238,-100,4,2,1,90,0,0
88282,-100,4,2,1,90,0,0
89634,-100,4,2,1,90,0,0
91029,-100,4,2,1,90,0,0
96611,-100,4,2,1,90,0,0
102192,-100,4,2,1,90,0,0
102279,-100,4,2,1,40,0,0
102977,-100,4,2,1,60,0,0
103675,-100,4,2,1,80,0,0
107774,-100,4,1,1,40,0,0
108471,-100,4,1,1,50,0,0
109169,-100,4,1,1,60,0,0
112657,-66.6666666666667,4,2,1,80,0,0
113355,-100,4,2,1,90,0,1
121724,-100,4,1,1,70,0,1
124518,-100,4,1,1,90,0,0

[Colours]
Combo1 : 255,120,117
Combo2 : 0,64,128
Combo3 : 167,176,243
Combo4 : 155,240,255

[HitObjects]
494,94,332,6,0,B|426:66|298:206|506:358|506:110|346:70|230:194|230:194|266:86|182:-42|130:70|210:126,1,704,2|0,0:0|0:0,0:0:0:0:
290,230,3820,1,0,0:0:0:0:
290,231,4518,2,0,B|339:272|269:355|169:301|230:164|230:164|142:262|54:208|54:208|71:233|63:274,1,528,2|0,0:0|0:0,0:0:0:0:
64,268,7308,6,0,B|108:161|-16:125,1,176,0|2,0:0|0:0,0:0:0:0:
1,130,8704,2,0,B|108:173|144:49,1,176,2|0,0:0|0:0,0:0:0:0:
344,312,10099,2,0,B|232:268|201:393,1,176
344,312,11320,5,0,1:0:0:0:
344,312,11495,1,4,1:0:0:0:
408,344,11669,1,0,0:0:0:0:
440,280,11843,1,0,0:0:0:0:
396,220,12018,1,2,0:0:0:0:
396,220,12105,2,0,B|336:164|384:84,1,132,0|2,0:0|0:0,0:0:0:0:
424,48,12541,1,0,0:0:0:0:
288,88,12715,5,2,0:0:0:0:
284,81,12802,1,0,0:0:0:0:
280,73,12890,1,0,0:0:0:0:
200,56,13064,1,2,0:0:0:0:
228,140,13238,1,0,0:0:0:0:
260,224,13413,1,2,0:0:0:0:
260,224,13500,2,0,B|204:216|204:216|184:232|184:232|124:220,1,132,0|2,0:0|0:0,0:0:0:0:
52,204,13936,1,0,0:0:0:0:
80,288,14110,1,2,0:0:0:0:
112,372,14285,5,0,0:0:0:0:
184,312,14459,1,2,0:0:0:0:
188,304,14547,1,0,0:0:0:0:
192,296,14634,1,0,0:0:0:0:
280,336,14808,1,2,0:0:0:0:
284,344,14896,1,0,0:0:0:0:
288,352,14983,1,0,0:0:0:0:
360,244,15157,1,2,0:0:0:0:
364,236,15245,1,0,0:0:0:0:
368,228,15332,1,0,0:0:0:0:
464,360,15506,1,2,0:0:0:0:
472,368,15593,2,0,B|492:320|492:320|476:288|476:288|496:236,1,132,0|2,0:0|0:0,0:0:0:0:
480,172,16029,5,0,0:0:0:0:
424,116,16204,1,2,0:0:0:0:
416,108,16291,2,0,B|396:156|396:156|412:188|412:188|392:240,1,132,0|2,0:0|0:0,0:0:0:0:
384,232,16640,1,0,0:0:0:0:
372,236,16727,1,0,0:0:0:0:
304,288,16901,1,2,0:0:0:0:
308,300,16988,1,0,0:0:0:0:
312,312,17076,2,0,B|268:292|268:292|208:304,1,88,4|2,1:0|0:0,0:0:0:0:
220,308,17337,1,0,0:0:0:0:
212,316,17425,2,0,B|180:272|180:272|188:224,1,88,0|2,0:0|0:0,0:0:0:0:
188,228,17686,1,0,0:0:0:0:
36,68,17948,5,2,0:0:0:0:
44,60,18035,1,0,0:0:0:0:
52,52,18123,2,0,B|84:96|84:96|76:144,1,88,0|2,0:0|0:0,0:0:0:0:
76,140,18384,1,0,0:0:0:0:
240,328,18645,1,2,0:0:0:0:
248,336,18732,1,0,0:0:0:0:
256,344,18820,2,0,B|288:300|288:300|280:252,1,88,0|2,0:0|0:0,0:0:0:0:
280,256,19081,1,0,0:0:0:0:
496,44,19343,1,2,0:0:0:0:
488,36,19430,1,0,0:0:0:0:
480,28,19518,2,0,B|448:72|448:72|456:120,1,88,0|2,0:0|0:0,0:0:0:0:
448,116,19779,1,0,0:0:0:0:
444,128,19866,2,0,B|468:228,1,88,0|2,0:0|0:0,0:0:0:0:
416,280,20215,5,0,0:0:0:0:
332,300,20390,1,2,0:0:0:0:
328,292,20478,1,0,0:0:0:0:
324,284,20565,1,0,0:0:0:0:
236,324,20739,1,2,0:0:0:0:
232,332,20827,1,0,0:0:0:0:
228,340,20914,1,0,0:0:0:0:
156,232,21088,1,2,0:0:0:0:
152,224,21176,1,0,0:0:0:0:
148,216,21263,1,0,0:0:0:0:
56,296,21436,5,2,0:0:0:0:
48,300,21524,1,0,0:0:0:0:
40,304,21611,1,0,0:0:0:0:
152,324,21785,1,2,0:0:0:0:
160,320,21872,1,0,0:0:0:0:
168,316,21960,1,0,0:0:0:0:
88,156,22134,1,2,0:0:0:0:
84,148,22221,1,0,0:0:0:0:
80,140,22309,1,0,0:0:0:0:
56,376,22483,1,0,1:0:0:0:
8,312,22657,5,4,1:0:0:0:
8,296,22745,1,0,0:0:0:0:
24,280,22832,1,2,0:0:0:0:
24,264,22920,1,2,0:0:0:0:
8,248,23006,1,0,0:0:0:0:
8,232,23094,1,0,0:0:0:0:
24,216,23181,1,2,0:0:0:0:
24,200,23269,1,2,0:0:0:0:
8,184,23355,1,0,0:0:0:0:
8,168,23443,1,0,0:0:0:0:
24,152,23529,1,2,0:0:0:0:
24,136,23616,1,2,0:0:0:0:
8,120,23704,1,0,0:0:0:0:
8,104,23792,1,0,0:0:0:0:
24,88,23879,1,2,0:0:0:0:
24,72,23965,1,2,0:0:0:0:
8,48,24053,6,0,B|56:48,1,44,4|0,1:0|0:0,0:0:0:0:
80,32,24227,1,2,0:0:0:0:
104,24,24314,1,0,0:0:0:0:
128,32,24401,1,0,0:0:0:0:
136,56,24489,1,0,0:0:0:0:
128,80,24576,1,2,0:0:0:0:
104,88,24663,1,0,0:0:0:0:
80,96,24750,1,0,0:0:0:0:
72,120,24838,1,0,0:0:0:0:
80,144,24925,1,2,0:0:0:0:
104,152,25012,1,2,0:0:0:0:
128,160,25099,1,2,0:0:0:0:
136,184,25186,1,2,0:0:0:0:
128,208,25274,1,2,0:0:0:0:
104,216,25361,1,2,0:0:0:0:
80,224,25448,5,4,1:0:0:0:
88,240,25535,1,0,0:0:0:0:
96,256,25622,2,0,B|144:256,1,44,2|0,0:0|0:0,0:0:0:0:
168,272,25797,1,2,0:0:0:0:
176,288,25884,1,0,0:0:0:0:
184,304,25971,2,0,B|232:304,1,44,2|0,0:0|0:0,0:0:0:0:
248,280,26146,1,4,1:0:0:0:
256,264,26233,1,0,0:0:0:0:
264,248,26320,2,0,B|312:248,1,44,2|0,0:0|0:0,0:0:0:0:
336,232,26495,1,2,0:0:0:0:
344,216,26582,1,0,0:0:0:0:
352,200,26669,2,0,B|400:200,1,44,2|0,0:0|0:0,0:0:0:0:
424,184,26843,6,0,B|456:184,5,29.3333333333333,4|0|0|0|0|0,1:0|0:0|0:0|0:0|0:0|0:0,0:0:0:0:
472,216,27192,2,0,B|464:256,5,29.3333333333333,4|0|0|0|0|0,1:0|0:0|0:0|0:0|0:0|0:0,0:0:0:0:
432,264,27541,2,0,B|424:304,1,22,4|0,1:0|0:0,0:0:0:0:
408,272,27628,2,0,B|400:312,1,22,0|0,3:0|0:0,0:0:0:0:
384,280,27715,2,0,B|376:320,1,22,4|0,1:0|0:0,0:0:0:0:
360,288,27802,2,0,B|352:328,1,22,0|0,3:0|0:0,0:0:0:0:
336,296,27890,2,0,B|328:336,1,22,4|0,1:0|0:0,0:0:0:0:
312,304,27977,2,0,B|304:344,1,22,0|0,3:0|0:0,0:0:0:0:
288,312,28064,2,0,B|280:352,1,22,4|0,1:0|0:0,0:0:0:0:
264,320,28151,2,0,B|256:360,1,22,0|0,3:0|0:0,0:0:0:0:
240,328,28239,6,0,B|192:328,1,44,0|2,0:0|0:0,0:0:0:0:
128,360,28588,2,0,B|80:360,1,44,0|2,0:0|0:0,0:0:0:0:
16,336,28936,1,8,0:0:0:0:
8,328,29024,1,0,0:0:0:0:
16,320,29111,1,2,0:0:0:0:
8,312,29198,1,0,0:0:0:0:
16,304,29285,2,0,B|8:288|8:288|16:272|16:272|8:256|8:256|16:240|16:240|8:224|8:224|16:208|16:208|8:192|8:192|16:176|16:176|8:160|8:160|16:144|16:144|8:128|8:128|16:112|16:112|8:96|8:96|16:80|16:80|8:64,1,264,4|0,1:0|0:0,0:0:0:0:
16,48,29634,5,4,0:0:0:0:
32,48,29721,1,0,0:0:0:0:
48,48,29808,1,0,0:0:0:0:
64,48,29896,1,0,0:0:0:0:
96,32,29983,5,10,0:0:0:0:
112,48,30070,1,2,0:0:0:0:
128,64,30157,1,2,0:0:0:0:
144,80,30244,1,2,0:0:0:0:
176,96,30332,5,4,0:0:0:0:
192,96,30419,1,0,0:0:0:0:
208,96,30506,1,0,0:0:0:0:
224,96,30593,1,0,0:0:0:0:
256,112,30681,5,10,0:0:0:0:
272,96,30768,1,2,0:0:0:0:
288,80,30855,1,2,0:0:0:0:
304,64,30942,1,2,0:0:0:0:
336,72,31029,5,6,0:0:0:0:
352,72,31117,1,2,0:0:0:0:
368,88,31204,1,2,0:0:0:0:
384,88,31291,1,2,0:0:0:0:
408,72,31378,1,8,0:0:0:0:
424,72,31465,1,0,0:0:0:0:
440,88,31553,1,0,0:0:0:0:
456,88,31640,1,0,0:0:0:0:
472,72,31727,5,6,0:0:0:0:
512,96,31814,1,2,0:0:0:0:
512,144,31901,1,2,0:0:0:0:
472,168,31989,1,2,0:0:0:0:
432,144,32076,1,12,0:0:0:0:
392,168,32163,1,0,0:0:0:0:
392,216,32250,1,0,0:0:0:0:
432,240,32338,1,0,0:0:0:0:
432,288,32425,6,0,B|432:336,1,44,6|2,0:0|0:0,0:0:0:0:
400,360,32599,1,0,0:0:0:0:
360,336,32686,1,0,0:0:0:0:
320,360,32774,2,0,B|272:360,3,44,8|0|0|0,0:0|0:0|0:0|0:0,0:0:0:0:
240,336,33122,2,0,B|192:336,1,44,6|2,0:0|0:0,0:0:0:0:
160,360,33297,1,0,0:0:0:0:
136,320,33384,1,0,0:0:0:0:
176,296,33471,2,0,B|176:232,1,44,8|0,0:0|0:0,0:0:0:0:
208,224,33646,2,0,B|208:168,1,44,0|0,0:0|0:0,0:0:0:0:
176,152,33820,5,6,0:0:0:0:
176,136,33907,1,0,0:0:0:0:
176,120,33995,1,2,0:0:0:0:
176,104,34082,1,0,0:0:0:0:
200,80,34169,5,10,0:0:0:0:
221,36,34256,1,0,0:0:0:0:
264,57,34343,1,0,0:0:0:0:
243,101,34431,1,0,0:0:0:0:
264,128,34518,5,6,0:0:0:0:
280,128,34605,1,0,0:0:0:0:
296,128,34692,1,2,0:0:0:0:
312,128,34779,1,0,0:0:0:0:
336,152,34867,5,14,0:0:0:0:
357,196,34954,1,0,0:0:0:0:
400,175,35041,1,0,0:0:0:0:
379,131,35129,1,0,0:0:0:0:
356,197,35215,5,4,0:0:0:0:
356,213,35303,1,0,0:0:0:0:
356,229,35390,1,0,0:0:0:0:
356,245,35477,1,0,0:0:0:0:
388,277,35564,5,10,0:0:0:0:
428,277,35651,1,2,0:0:0:0:
388,277,35739,1,2,0:0:0:0:
428,277,35826,1,2,0:0:0:0:
356,309,35913,5,4,0:0:0:0:
340,309,36001,1,0,0:0:0:0:
324,309,36088,1,0,0:0:0:0:
308,309,36175,1,0,0:0:0:0:
272,328,36262,5,10,0:0:0:0:
272,288,36349,1,2,0:0:0:0:
232,304,36437,1,2,0:0:0:0:
232,264,36524,1,2,0:0:0:0:
272,248,36611,5,6,0:0:0:0:
272,208,36698,1,2,0:0:0:0:
312,224,36786,1,2,0:0:0:0:
312,184,36873,1,2,0:0:0:0:
272,168,36960,5,8,0:0:0:0:
272,128,37047,1,0,0:0:0:0:
232,144,37135,1,0,0:0:0:0:
232,104,37222,1,0,0:0:0:0:
272,80,37308,5,6,0:0:0:0:
272,32,37396,1,2,0:0:0:0:
232,8,37483,1,2,0:0:0:0:
192,32,37570,1,2,0:0:0:0:
192,80,37657,1,8,0:0:0:0:
232,104,37745,1,0,0:0:0:0:
232,152,37832,1,0,0:0:0:0:
192,176,37919,1,0,0:0:0:0:
152,152,38006,5,6,0:0:0:0:
136,152,38093,1,2,0:0:0:0:
120,152,38181,2,0,B|64:152,1,44
24,184,38355,5,8,0:0:0:0:
40,184,38442,1,0,0:0:0:0:
56,184,38530,2,0,B|112:184,1,44
208,216,38704,5,6,0:0:0:0:
192,216,38791,1,2,0:0:0:0:
176,216,38879,2,0,B|120:216,1,44
0,256,39053,5,8,0:0:0:0:
16,256,39140,1,0,0:0:0:0:
32,256,39228,2,0,B|88:256,1,44
94,320,39401,5,4,0:0:0:0:
110,352,39489,1,0,0:0:0:0:
134,320,39576,1,2,0:0:0:0:
150,352,39663,1,0,0:0:0:0:
174,320,39750,1,8,0:0:0:0:
190,352,39838,1,0,0:0:0:0:
214,320,39925,1,2,0:0:0:0:
230,352,40012,1,0,0:0:0:0:
246,320,40099,5,14,0:0:0:0:
272,280,40187,1,2,0:0:0:0:
298,320,40274,1,8,0:0:0:0:
325,280,40361,1,0,0:0:0:0:
351,320,40448,1,10,0:0:0:0:
364,300,40506,1,0,0:0:0:0:
377,280,40564,1,0,0:0:0:0:
389,301,40622,1,10,0:0:0:0:
404,320,40680,1,0,0:0:0:0:
416,300,40738,1,2,0:0:0:0:
430,280,40797,5,0,0:0:0:0:
470,264,40884,1,0,0:0:0:0:
486,224,40971,1,2,0:0:0:0:
470,184,41058,1,2,0:0:0:0:
430,168,41146,2,0,B|430:120,3,44,8|0|2|0,0:0|0:0|0:0|0:0,0:0:0:0:
430,80,41495,5,0,0:0:0:0:
414,40,41582,1,0,0:0:0:0:
374,24,41669,1,2,0:0:0:0:
334,40,41756,1,2,0:0:0:0:
318,80,41843,2,0,B|270:80,1,44,8|0,0:0|0:0,0:0:0:0:
246,56,42018,2,0,B|198:56,1,44,2|2,0:0|0:0,0:0:0:0:
166,40,42192,5,2,0:0:0:0:
150,32,42279,1,2,0:0:0:0:
134,32,42367,1,2,0:0:0:0:
118,40,42454,1,2,0:0:0:0:
110,56,42541,1,8,0:0:0:0:
110,72,42628,1,0,0:0:0:0:
118,88,42716,1,0,0:0:0:0:
134,96,42803,1,0,0:0:0:0:
158,136,42890,5,2,0:0:0:0:
174,144,42977,1,2,0:0:0:0:
182,160,43064,1,2,0:0:0:0:
182,176,43152,1,2,0:0:0:0:
174,192,43239,1,8,0:0:0:0:
158,200,43326,1,0,0:0:0:0:
142,200,43414,1,0,0:0:0:0:
126,192,43501,1,0,0:0:0:0:
86,168,43588,5,0,0:0:0:0:
58,125,43675,1,0,0:0:0:0:
15,153,43762,1,2,0:0:0:0:
43,195,43849,1,2,0:0:0:0:
30,248,43936,2,0,B|14:304,3,44,8|0|0|0,0:0|0:0|0:0|0:0,0:0:0:0:
62,312,44285,5,0,0:0:0:0:
102,296,44372,1,0,0:0:0:0:
142,312,44460,1,2,0:0:0:0:
182,296,44547,1,2,0:0:0:0:
222,312,44634,2,0,B|270:312,1,44,8|0,0:0|0:0,0:0:0:0:
302,296,44808,2,0,B|350:296,1,44,2|2,0:0|0:0,0:0:0:0:
382,272,44983,5,2,0:0:0:0:
398,280,45070,1,2,0:0:0:0:
414,280,45158,1,2,0:0:0:0:
430,272,45245,1,2,0:0:0:0:
438,256,45332,1,8,0:0:0:0:
438,240,45419,1,0,0:0:0:0:
430,224,45507,1,0,0:0:0:0:
414,216,45594,1,0,0:0:0:0:
390,176,45681,5,2,0:0:0:0:
374,168,45768,1,2,0:0:0:0:
366,152,45856,1,2,0:0:0:0:
366,136,45943,1,2,0:0:0:0:
374,120,46030,1,8,0:0:0:0:
390,112,46117,1,0,0:0:0:0:
406,112,46205,1,0,0:0:0:0:
422,120,46292,1,0,0:0:0:0:
430,136,46378,6,0,B|430:80,1,44
453,66,46553,2,0,B|453:18,1,44,2|2,0:0|0:0,0:0:0:0:
368,16,46727,5,8,0:0:0:0:
368,32,46814,1,0,0:0:0:0:
368,48,46901,1,0,0:0:0:0:
368,64,46989,1,0,0:0:0:0:
352,96,47076,2,0,B|352:152,1,44
376,168,47251,2,0,B|376:216,1,44,2|2,0:0|0:0,0:0:0:0:
344,232,47425,5,8,0:0:0:0:
328,232,47512,1,0,0:0:0:0:
312,232,47599,1,2,0:0:0:0:
296,232,47686,1,0,0:0:0:0:
280,208,47774,5,2,0:0:0:0:
288,192,47861,1,2,0:0:0:0:
288,176,47949,1,2,0:0:0:0:
280,160,48036,1,2,0:0:0:0:
264,152,48123,1,8,0:0:0:0:
248,152,48210,1,0,0:0:0:0:
232,160,48298,1,0,0:0:0:0:
224,176,48385,1,0,0:0:0:0:
184,200,48472,5,2,0:0:0:0:
176,216,48559,1,2,0:0:0:0:
160,224,48646,1,2,0:0:0:0:
144,224,48734,1,2,0:0:0:0:
128,216,48821,1,8,0:0:0:0:
120,200,48908,1,0,0:0:0:0:
120,184,48994,1,0,0:0:0:0:
128,168,49083,1,0,0:0:0:0:
144,160,49169,6,0,B|91:134,3,44,0|0|2|2,0:0|0:0|0:0|0:0,0:0:0:0:
230,118,49518,2,0,B|258:52,3,44,8|0|0|0,0:0|0:0|0:0|0:0,0:0:0:0:
250,211,49866,2,0,B|306:237,3,44,0|0|2|2,0:0|0:0|0:0|0:0,0:0:0:0:
164,254,50215,2,0,B|131:324,3,44,8|0|0|0,0:0|0:0|0:0|0:0,0:0:0:0:
144,160,50564,6,0,B|91:134,1,44,2|0,0:0|0:0,0:0:0:0:
230,118,50739,2,0,B|258:52,1,44,2|0,0:0|0:0,0:0:0:0:
250,211,50913,2,0,B|306:237,1,44,10|0,0:0|0:0,0:0:0:0:
164,254,51088,2,0,B|131:324,1,44,2|0,0:0|0:0,0:0:0:0:
164,197,51262,5,2,0:0:0:0:
185,153,51349,1,0,0:0:0:0:
231,174,51436,1,10,0:0:0:0:
208,218,51524,1,0,0:0:0:0:
152,201,51611,6,0,B|110:214,1,29.3333333333333,10|0,0:0|0:0,0:0:0:0:
207,139,51727,2,0,B|215:98,1,29.3333333333333,0|10,0:0|0:0,0:0:0:0:
233,218,51843,2,0,B|264:248,1,29.3333333333333
96,304,51959,5,6,0:0:0:0:
71,331,52047,1,0,0:0:0:0:
89,362,52134,1,0,0:0:0:0:
125,355,52221,1,2,0:0:0:0:
130,320,52308,2,0,B|273:337,1,132,8|0,0:0|0:0,0:0:0:0:
376,312,52657,5,2,0:0:0:0:
411,319,52744,1,0,0:0:0:0:
429,288,52831,1,0,0:0:0:0:
405,261,52918,1,2,0:0:0:0:
371,277,53006,2,0,B|240:264,1,132,10|0,0:0|0:0,0:0:0:0:
56,232,53355,5,2,0:0:0:0:
21,239,53442,1,0,0:0:0:0:
3,208,53529,1,0,0:0:0:0:
27,181,53616,1,2,0:0:0:0:
61,197,53703,2,0,B|200:176,1,132,10|0,0:0|0:0,0:0:0:0:
487,166,54053,5,2,0:0:0:0:
512,193,54140,1,0,0:0:0:0:
494,224,54227,1,0,0:0:0:0:
458,217,54314,1,2,0:0:0:0:
453,182,54401,2,0,B|310:199,1,132,8|0,0:0|0:0,0:0:0:0:
287,142,54750,5,2,0:0:0:0:
279,134,54838,1,0,0:0:0:0:
271,126,54925,1,0,0:0:0:0:
263,118,55012,1,2,0:0:0:0:
255,110,55099,2,0,B|255:70|255:70|223:46|223:46|223:150,1,176,10|2,0:0|0:0,0:0:0:0:
255,240,55535,1,0,0:0:0:0:
247,248,55623,1,0,0:0:0:0:
239,256,55710,1,2,0:0:0:0:
231,264,55797,2,0,B|231:304|231:304|199:328|199:328|199:224,1,176,10|0,0:0|0:0,0:0:0:0:
160,109,56233,1,0,0:0:0:0:
152,101,56320,1,0,0:0:0:0:
144,93,56407,1,2,0:0:0:0:
136,85,56494,2,0,B|136:45|136:45|104:21|104:21|104:125,1,176,10|0,0:0|0:0,0:0:0:0:
88,285,56931,5,0,0:0:0:0:
80,293,57018,1,0,0:0:0:0:
72,301,57105,1,2,0:0:0:0:
64,309,57192,2,0,B|64:349|64:349|32:373|32:373|32:269,1,176,10|0,0:0|0:0,0:0:0:0:
0,222,57628,1,0,0:0:0:0:
0,206,57715,1,0,0:0:0:0:
0,190,57803,1,2,0:0:0:0:
32,166,57890,5,10,0:0:0:0:
16,142,57977,1,0,0:0:0:0:
0,118,58064,1,0,0:0:0:0:
24,102,58151,1,0,0:0:0:0:
48,86,58239,1,2,0:0:0:0:
64,110,58326,1,0,0:0:0:0:
80,134,58413,1,0,0:0:0:0:
96,158,58500,1,2,0:0:0:0:
120,142,58588,1,10,0:0:0:0:
144,126,58675,1,0,0:0:0:0:
168,110,58762,1,0,0:0:0:0:
152,86,58849,1,0,0:0:0:0:
176,46,58936,5,2,0:0:0:0:
192,38,59023,1,2,0:0:0:0:
208,38,59111,1,0,0:0:0:0:
224,46,59198,1,2,0:0:0:0:
232,62,59285,1,10,0:0:0:0:
232,78,59372,1,0,0:0:0:0:
224,94,59460,1,0,0:0:0:0:
208,102,59547,1,0,0:0:0:0:
184,142,59634,5,2,0:0:0:0:
168,150,59721,1,0,0:0:0:0:
160,166,59808,1,0,0:0:0:0:
160,182,59896,1,2,0:0:0:0:
168,198,59983,1,10,0:0:0:0:
184,206,60070,1,0,0:0:0:0:
200,206,60158,1,0,0:0:0:0:
216,198,60245,1,0,0:0:0:0:
256,214,60332,5,2,0:0:0:0:
293,228,60419,1,0,0:0:0:0:
330,242,60506,1,0,0:0:0:0:
368,257,60593,1,2,0:0:0:0:
405,271,60681,5,10,0:0:0:0:
391,308,60768,1,0,0:0:0:0:
353,294,60855,1,0,0:0:0:0:
368,257,60942,1,0,0:0:0:0:
382,219,61029,5,2,0:0:0:0:
396,182,61117,1,0,0:0:0:0:
411,144,61204,1,0,0:0:0:0:
373,130,61291,1,2,0:0:0:0:
359,167,61378,5,10,0:0:0:0:
396,182,61465,1,0,0:0:0:0:
434,196,61553,1,0,0:0:0:0:
471,210,61640,1,0,0:0:0:0:
488,174,61727,5,2,0:0:0:0:
480,158,61814,1,0,0:0:0:0:
472,142,61901,1,0,0:0:0:0:
464,126,61989,1,0,0:0:0:0:
448,94,62076,5,10,0:0:0:0:
432,102,62163,1,0,0:0:0:0:
416,110,62250,1,0,0:0:0:0:
400,118,62338,1,0,0:0:0:0:
360,86,62425,6,0,B|345:65,1,22,2|0,0:0|0:0,0:0:0:0:
343,135,62512,2,0,B|345:162,1,22
300,107,62599,2,0,B|285:86,1,22,10|0,0:0|0:0,0:0:0:0:
283,156,62686,2,0,B|285:183,1,22
239,128,62774,2,0,B|224:107,1,22,10|0,0:0|0:0,0:0:0:0:
222,176,62861,2,0,B|224:203,1,22
179,149,62948,2,0,B|164:128,1,22,10|0,0:0|0:0,0:0:0:0:
162,197,63035,2,0,B|164:224,1,22
120,166,63122,5,4,0:0:0:0:
1,193,63297,1,0,0:0:0:0:
28,312,63471,1,0,1:0:0:0:
147,284,63646,1,0,0:0:0:0:
272,360,63820,5,0,0:0:0:0:
248,272,63995,1,2,0:0:0:0:
248,264,64038,1,0,0:0:0:0:
248,256,64082,1,0,0:0:0:0:
232,240,64169,1,2,1:2:0:0:
272,168,64343,1,2,0:0:0:0:
272,160,64386,1,0,0:0:0:0:
272,152,64430,1,0,0:0:0:0:
288,136,64517,1,6,0:0:0:0:
376,184,64692,5,0,0:0:0:0:
480,160,64867,1,0,1:0:0:0:
456,56,65041,1,0,0:0:0:0:
352,80,65216,1,0,0:0:0:0:
240,128,65390,5,2,0:0:0:0:
240,136,65448,1,0,0:0:0:0:
240,144,65506,1,0,0:0:0:0:
240,152,65564,1,2,1:2:0:0:
272,232,65739,1,2,0:0:0:0:
272,240,65797,1,0,0:0:0:0:
272,248,65855,1,0,0:0:0:0:
272,256,65913,5,6,0:0:0:0:
248,344,66088,1,0,0:0:0:0:
336,368,66262,1,0,1:0:0:0:
360,280,66436,1,0,0:0:0:0:
464,200,66611,5,0,1:0:0:0:
464,184,66785,1,0,1:0:0:0:
464,168,66960,1,0,1:0:0:0:
464,152,67134,1,0,1:0:0:0:
448,48,67308,1,0,0:0:0:0:
399,49,67396,1,0,0:0:0:0:
353,66,67483,1,0,0:0:0:0:
309,91,67570,1,0,0:0:0:0:
264,108,67657,1,0,0:0:0:0:
215,109,67745,1,0,0:0:0:0:
171,93,67832,1,0,0:0:0:0:
144,56,67919,1,0,0:0:0:0:
144,56,68006,5,0,3:0:0:0:
82,82,68093,1,0,3:0:0:0:
48,140,68181,1,0,3:0:0:0:
48,206,68268,1,0,3:0:0:0:
82,264,68355,1,2,3:0:0:0:
140,298,68442,1,2,3:0:0:0:
207,298,68529,1,2,3:0:0:0:
267,265,68617,1,2,3:0:0:0:
313,216,68704,6,0,B|337:312,1,88,4|2,0:0|0:0,0:0:0:0:
350,368,69053,2,0,B|446:368,1,88,0|2,1:0|0:0,0:0:0:0:
192,288,69401,2,0,B|96:288,1,88,0|2,0:0|0:0,0:0:0:0:
100,284,69634,1,0,0:0:0:0:
96,280,69692,1,0,0:0:0:0:
92,276,69750,1,0,1:0:0:0:
24,208,69925,1,2,0:0:0:0:
24,202,69983,1,0,0:0:0:0:
24,196,70041,1,0,0:0:0:0:
24,191,70099,1,4,0:0:0:0:
72,128,70274,5,2,0:0:0:0:
24,64,70448,1,0,1:0:0:0:
72,0,70622,1,2,0:0:0:0:
184,40,70797,2,0,B|288:40,1,88,0|2,0:0|0:0,0:0:0:0:
276,36,71029,1,0,0:0:0:0:
280,32,71088,1,0,0:0:0:0:
284,28,71146,2,0,B|388:28,1,88,0|0,1:0|0:0,0:0:0:0:
376,32,71378,1,0,0:0:0:0:
380,36,71436,1,0,0:0:0:0:
384,40,71495,1,4,0:0:0:0:
472,56,71669,5,2,0:0:0:0:
480,64,71843,1,0,1:0:0:0:
448,152,72018,1,2,0:0:0:0:
440,144,72192,2,0,B|392:152|392:152|376:192,1,88,0|2,0:0|0:0,0:0:0:0:
382,193,72425,1,0,0:0:0:0:
386,197,72483,1,0,0:0:0:0:
390,201,72541,1,0,1:0:0:0:
345,287,72715,1,2,0:0:0:0:
341,291,72773,1,0,0:0:0:0:
337,295,72831,1,0,0:0:0:0:
332,300,72890,2,0,B|295:285|295:285|287:237,1,88,4|2,0:0|0:0,0:0:0:0:
200,208,73239,6,0,B|152:216|152:216|137:252,1,88,0|2,1:0|0:0,0:0:0:0:
41,298,73587,2,0,B|87:310|87:310|99:348,1,88,0|2,0:0|0:0,0:0:0:0:
88,200,73936,2,0,B|64:96,1,88,0|2,1:0|0:0,0:0:0:0:
16,48,74285,1,4,0:0:0:0:
112,24,74460,1,2,0:0:0:0:
120,32,74547,1,0,0:0:0:0:
128,40,74634,1,0,1:0:0:0:
200,104,74808,1,2,0:0:0:0:
512,312,75157,5,2,0:0:0:0:
504,304,75245,1,0,0:0:0:0:
496,296,75332,1,0,1:0:0:0:
432,232,75506,1,2,0:0:0:0:
480,96,75681,5,0,0:0:0:0:
474,105,75855,1,2,0:0:0:0:
408,112,76029,1,0,1:0:0:0:
402,121,76203,1,2,0:0:0:0:
336,128,76378,1,0,0:0:0:0:
330,137,76552,1,2,0:0:0:0:
264,144,76726,1,0,1:0:0:0:
258,153,76900,1,2,0:0:0:0:
200,208,77076,5,0,1:0:0:0:
194,199,77250,1,0,1:0:0:0:
128,192,77425,1,0,1:0:0:0:
122,183,77599,1,0,1:0:0:0:
56,176,77773,1,0,1:0:0:0:
50,167,77947,1,0,1:0:0:0:
16,240,78122,5,6,0:0:0:0:
20,246,78181,1,0,0:0:0:0:
23,253,78239,1,0,0:0:0:0:
28,260,78297,1,2,0:0:0:0:
32,267,78355,1,0,0:0:0:0:
36,274,78413,1,0,0:0:0:0:
64,272,78471,5,6,0:0:0:0:
68,279,78529,1,0,0:0:0:0:
72,286,78588,1,0,0:0:0:0:
76,293,78646,1,2,0:0:0:0:
80,300,78704,1,0,0:0:0:0:
84,307,78762,1,0,0:0:0:0:
120,312,78820,5,4,0:0:0:0:
144,344,78907,1,0,0:0:0:0:
168,312,78995,1,2,0:0:0:0:
192,344,79082,1,2,0:0:0:0:
216,312,79169,1,8,0:0:0:0:
227,329,79227,1,0,0:0:0:0:
240,344,79285,1,0,0:0:0:0:
253,329,79343,1,10,0:0:0:0:
264,312,79401,1,0,0:0:0:0:
276,328,79459,1,0,0:0:0:0:
288,344,79517,1,8,0:0:0:0:
300,328,79575,1,0,0:0:0:0:
312,312,79634,1,0,0:0:0:0:
325,327,79692,1,0,0:0:0:0:
336,344,79750,1,0,0:0:0:0:
349,329,79808,1,0,0:0:0:0:
360,312,79867,5,4,0:0:0:0:
368,304,79954,1,0,0:0:0:0:
376,296,80040,1,0,0:0:0:0:
384,288,80127,1,0,0:0:0:0:
392,280,80215,1,8,0:0:0:0:
480,208,80564,5,0,0:0:0:0:
432,192,80651,1,0,0:0:0:0:
384,176,80739,1,2,0:0:0:0:
400,128,80826,1,2,0:0:0:0:
384,176,80913,1,8,0:0:0:0:
368,224,81000,1,0,0:0:0:0:
320,208,81088,1,2,0:0:0:0:
272,192,81175,1,2,0:0:0:0:
232,224,81262,5,6,0:0:0:0:
224,232,81349,1,2,0:0:0:0:
216,240,81437,1,2,0:0:0:0:
208,248,81524,1,0,0:0:0:0:
200,256,81611,1,8,0:0:0:0:
24,104,81960,5,0,0:0:0:0:
72,88,82047,1,0,0:0:0:0:
56,40,82135,1,2,0:0:0:0:
72,88,82222,1,2,0:0:0:0:
88,136,82309,1,8,0:0:0:0:
136,120,82396,1,0,0:0:0:0:
184,104,82484,1,2,0:0:0:0:
200,152,82571,1,2,0:0:0:0:
244,172,82658,5,6,0:0:0:0:
250,182,82745,1,2,0:0:0:0:
256,192,82833,1,2,0:0:0:0:
262,201,82920,1,0,0:0:0:0:
268,211,83007,1,8,0:0:0:0:
32,360,83355,5,0,0:0:0:0:
48,356,83442,1,0,0:0:0:0:
63,354,83529,1,2,0:0:0:0:
79,351,83617,1,2,0:0:0:0:
95,349,83704,1,8,0:0:0:0:
110,346,83791,1,0,0:0:0:0:
127,342,83878,1,2,0:0:0:0:
142,340,83965,1,2,0:0:0:0:
160,336,84053,6,0,B|178:288,1,44,4|0,0:0|0:0,0:0:0:0:
233,316,84227,2,0,B|251:268,1,44,2|2,0:0|0:0,0:0:0:0:
233,172,84401,6,0,B|246:220,1,44,8|0,0:0|0:0,0:0:0:0:
303,200,84575,2,0,B|316:248,1,44,2|2,0:0|0:0,0:0:0:0:
336,304,84750,5,6,0:0:0:0:
368,312,84838,1,2,0:0:0:0:
400,320,84925,1,2,0:0:0:0:
432,328,85012,1,0,0:0:0:0:
449,303,85099,1,14,0:0:0:0:
465,277,85186,1,2,0:0:0:0:
482,252,85274,1,2,0:0:0:0:
472,224,85361,1,0,0:0:0:0:
456,200,85448,5,4,0:0:0:0:
416,192,85535,1,0,0:0:0:0:
392,160,85623,1,0,0:0:0:0:
392,120,85710,1,0,0:0:0:0:
416,88,85797,1,2,0:0:0:0:
456,80,85884,1,0,0:0:0:0:
496,140,86058,5,2,0:0:0:0:
320,116,86233,1,2,0:0:0:0:
232,268,86407,1,2,0:0:0:0:
56,244,86582,1,2,0:0:0:0:
32,168,86756,5,2,0:0:0:0:
80,160,86843,1,4,0:0:0:0:
112,128,86931,1,0,0:0:0:0:
128,88,87018,1,0,0:0:0:0:
112,48,87105,1,0,0:0:0:0:
80,16,87193,1,2,0:0:0:0:
32,8,87280,1,0,0:0:0:0:
4,87,87454,5,2,0:0:0:0:
192,136,87629,1,2,0:0:0:0:
284,31,87803,1,2,0:0:0:0:
472,80,87978,1,2,0:0:0:0:
496,152,88151,5,2,0:0:0:0:
432,161,88238,1,4,0:0:0:0:
377,198,88326,1,0,0:0:0:0:
359,262,88413,1,0,0:0:0:0:
380,323,88500,1,0,0:0:0:0:
432,362,88588,1,2,0:0:0:0:
496,380,88675,1,0,0:0:0:0:
512,264,88849,5,2,0:0:0:0:
300,191,89024,1,2,0:0:0:0:
232,320,89198,1,2,0:0:0:0:
20,247,89373,1,2,0:0:0:0:
104,96,89547,5,2,0:0:0:0:
104,96,89634,2,0,B|112:144,1,29.3333333333333,2|0,0:0|0:0,0:0:0:0:
136,104,89750,2,0,B|144:152,1,29.3333333333333,2|0,0:0|0:0,0:0:0:0:
168,112,89867,2,0,B|176:160,1,29.3333333333333,2|0,0:0|0:0,0:0:0:0:
200,120,89983,2,0,B|208:168,1,29.3333333333333,2|0,0:0|0:0,0:0:0:0:
232,128,90099,2,0,B|240:176,1,29.3333333333333,2|0,0:0|0:0,0:0:0:0:
264,136,90215,2,0,B|272:184,1,29.3333333333333,2|0,0:0|0:0,0:0:0:0:
272,192,90332,1,0,1:0:0:0:
248,185,90419,1,0,0:0:0:0:
225,179,90506,1,0,1:0:0:0:
202,172,90593,1,0,0:0:0:0:
179,166,90681,1,0,1:0:0:0:
156,160,90768,1,0,0:0:0:0:
133,153,90855,1,0,1:0:0:0:
110,147,90942,1,0,0:0:0:0:
104,120,91029,6,0,B|118:182,1,58.6666666666667,4|0,0:0|0:0,0:0:0:0:
132,244,91261,1,0,0:0:0:0:
254,282,91378,2,0,B|192:262,1,58.6666666666667,8|0,0:0|0:0,0:0:0:0:
132,244,91610,1,0,0:0:0:0:
39,332,91726,2,0,B|85:288,1,58.6666666666667,0|0,0:0|0:0,0:0:0:0:
132,244,91960,1,0,0:0:0:0:
225,156,92075,2,0,B|178:200,1,58.6666666666667,8|0,0:0|0:0,0:0:0:0:
132,244,92307,1,0,0:0:0:0:
161,369,92424,2,0,B|146:306,1,58.6666666666667
132,244,92656,1,0,0:0:0:0:
10,207,92774,2,0,B|70:225,1,58.6666666666667,8|0,0:0|0:0,0:0:0:0:
132,244,93006,1,0,0:0:0:0:
254,282,93122,2,0,B|192:262,1,58.6666666666667
132,244,93354,1,0,0:0:0:0:
65,224,93471,6,0,B|24:210,1,29.3333333333333,8|0,0:0|0:0,0:0:0:0:
182,197,93587,2,0,B|212:167,1,29.3333333333333,0|4,0:0|0:0,0:0:0:0:
148,311,93703,2,0,B|155:344,1,29.3333333333333
256,280,93820,6,0,B|336:264,1,58.6666666666667,6|0,0:0|0:0,0:0:0:0:
384,256,94053,1,0,0:0:0:0:
384,384,94169,2,0,B|384:304,1,58.6666666666667,8|0,0:0|0:0,0:0:0:0:
384,184,94401,1,0,0:0:0:0:
512,160,94518,6,0,B|432:176,1,58.6666666666667,2|0,0:0|0:0,0:0:0:0:
312,200,94751,1,0,0:0:0:0:
312,72,94867,2,0,B|312:152,1,58.6666666666667,8|0,0:0|0:0,0:0:0:0:
312,272,95099,1,0,0:0:0:0:
440,304,95215,6,0,B|360:288,1,58.6666666666667,2|0,0:0|0:0,0:0:0:0:
240,256,95448,1,0,0:0:0:0:
240,384,95564,2,0,B|240:304,1,58.6666666666667,8|0,0:0|0:0,0:0:0:0:
240,184,95796,1,0,0:0:0:0:
132,236,95913,5,0,1:0:0:0:
113,208,96000,1,0,0:0:0:0:
94,179,96088,1,0,1:0:0:0:
76,151,96175,1,0,0:0:0:0:
40,164,96262,5,0,1:0:0:0:
34,179,96320,1,0,0:0:0:0:
28,193,96378,1,2,0:0:0:0:
22,208,96436,1,0,1:0:0:0:
16,223,96495,1,2,0:0:0:0:
10,237,96553,1,0,0:0:0:0:
4,251,96611,5,4,0:0:0:0:
73,282,96727,1,0,0:0:0:0:
132,237,96843,1,0,0:0:0:0:
141,163,96960,5,8,0:0:0:0:
201,209,97076,1,0,0:0:0:0:
191,282,97192,1,0,0:0:0:0:
178,357,97308,5,2,0:0:0:0:
249,328,97424,1,0,0:0:0:0:
308,373,97540,1,0,0:0:0:0:
317,297,97657,5,8,0:0:0:0:
377,251,97773,1,0,0:0:0:0:
367,178,97889,1,0,0:0:0:0:
304,219,98006,5,4,0:0:0:0:
377,251,98122,1,0,0:0:0:0:
385,321,98238,1,0,0:0:0:0:
451,278,98355,5,8,0:0:0:0:
511,232,98471,1,0,0:0:0:0:
501,159,98587,1,0,0:0:0:0:
436,201,98704,5,4,0:0:0:0:
376,154,98820,1,0,0:0:0:0:
386,81,98936,1,0,0:0:0:0:
376,154,99053,5,12,0:0:0:0:
305,125,99169,1,0,0:0:0:0:
246,171,99285,1,0,0:0:0:0:
224,240,99401,5,4,1:0:0:0:
160,256,99518,1,0,0:0:0:0:
156,264,99576,1,0,0:0:0:0:
152,272,99634,1,0,0:0:0:0:
96,312,99750,5,8,1:0:0:0:
32,296,99867,1,0,0:0:0:0:
28,288,99925,1,0,0:0:0:0:
24,280,99983,1,0,0:0:0:0:
64,204,100099,5,4,1:0:0:0:
128,188,100216,1,0,0:0:0:0:
132,180,100274,1,0,0:0:0:0:
136,172,100332,1,0,0:0:0:0:
208,104,100448,5,8,1:0:0:0:
272,120,100565,1,0,0:0:0:0:
276,128,100623,1,0,0:0:0:0:
280,136,100681,1,0,0:0:0:0:
364,200,100796,5,4,1:0:0:0:
428,184,100913,1,0,0:0:0:0:
432,176,100971,1,0,0:0:0:0:
436,168,101029,1,0,0:0:0:0:
500,276,101146,5,8,1:0:0:0:
472,336,101263,1,0,0:0:0:0:
475,345,101321,1,0,0:0:0:0:
478,353,101379,1,0,0:0:0:0:
392,356,101495,5,0,1:0:0:0:
380,348,101553,1,0,0:0:0:0:
368,340,101611,1,0,0:0:0:0:
356,348,101669,1,0,1:0:0:0:
344,356,101727,1,0,0:0:0:0:
332,348,101785,1,0,0:0:0:0:
320,340,101843,1,0,1:0:0:0:
308,348,101901,1,0,0:0:0:0:
296,356,101960,1,2,0:0:0:0:
284,348,102018,1,0,1:0:0:0:
272,340,102076,1,2,0:0:0:0:
260,348,102134,1,0,0:0:0:0:
248,356,102192,1,4,0:0:0:0:
256,192,102279,12,4,102890,0:0:0:0:
256,192,102977,12,4,103588,0:0:0:0:
256,192,103675,12,4,104286,0:0:0:0:
44,236,104983,5,2,0:0:0:0:
44,240,105070,1,0,0:0:0:0:
44,244,105157,1,2,0:0:0:0:
44,248,105245,1,2,0:0:0:0:
44,252,105332,1,2,0:0:0:0:
44,256,105419,1,2,0:0:0:0:
44,260,105506,1,0,0:0:0:0:
44,264,105594,1,0,0:0:0:0:
76,304,105681,5,2,0:0:0:0:
76,298,105768,1,0,0:0:0:0:
76,292,105855,1,2,0:0:0:0:
76,286,105943,1,2,0:0:0:0:
76,279,106030,1,2,0:0:0:0:
76,273,106117,1,0,0:0:0:0:
76,267,106204,1,0,0:0:0:0:
76,261,106292,1,0,0:0:0:0:
116,196,106378,5,2,0:0:0:0:
116,205,106465,1,2,0:0:0:0:
116,214,106552,1,2,0:0:0:0:
116,223,106640,1,0,0:0:0:0:
116,232,106727,1,2,0:0:0:0:
116,241,106814,1,0,0:0:0:0:
116,250,106901,1,2,0:0:0:0:
116,259,106989,1,0,0:0:0:0:
188,349,107076,5,2,0:0:0:0:
188,335,107163,1,2,0:0:0:0:
188,322,107250,1,2,0:0:0:0:
188,308,107338,1,0,0:0:0:0:
188,292,107425,1,2,0:0:0:0:
188,279,107512,1,0,0:0:0:0:
188,265,107599,1,2,0:0:0:0:
188,252,107687,1,0,0:0:0:0:
216,224,107774,5,6,0:2:0:0:
226,178,107861,1,0,0:2:0:0:
273,173,107948,1,0,0:2:0:0:
291,217,108035,1,0,0:2:0:0:
256,248,108122,2,0,B|262:298,2,29.3333333333333,2|0|0,0:2|0:2|0:2,0:2:0:0:
313,333,108297,2,0,B|324:287,2,29.3333333333333,2|0|0,0:2|0:2|0:2,0:2:0:0:
366,257,108471,5,6,0:2:0:0:
401,286,108558,1,0,0:2:0:0:
441,262,108645,1,0,0:2:0:0:
427,217,108732,1,0,0:2:0:0:
382,213,108820,2,0,B|351:169,2,29.3333333333333,2|0|0,0:2|0:2|0:2,0:2:0:0:
321,122,108994,2,0,B|290:165,2,29.3333333333333,2|0|0,0:2|0:2|0:2,0:2:0:0:
257,199,109169,5,6,0:2:0:0:
277,243,109256,1,0,0:2:0:0:
241,274,109343,1,0,0:2:0:0:
201,250,109430,1,0,0:2:0:0:
210,204,109518,2,0,B|177:164,2,29.3333333333333,2|0|0,0:2|0:2|0:2,0:2:0:0:
146,129,109692,2,0,B|183:89,2,29.3333333333333,2|0|0,0:2|0:2|0:2,0:2:0:0:
224,64,109867,5,6,0:2:0:0:
242,20,109954,1,0,0:2:0:0:
289,25,110041,1,0,0:2:0:0:
299,71,110128,1,0,0:2:0:0:
259,95,110215,2,0,B|251:148,2,29.3333333333333,2|0|0,0:2|0:2|0:2,0:2:0:0:
300,177,110390,2,0,B|292:230,2,29.3333333333333,2|0|0,0:2|0:2|0:2,0:2:0:0:
288,272,110564,5,6,0:2:0:0:
240,280,110651,1,0,0:2:0:0:
192,288,110739,1,0,0:2:0:0:
144,296,110826,1,0,0:2:0:0:
192,288,110913,5,2,0:2:0:0:
200,336,111000,1,0,0:2:0:0:
192,288,111088,1,0,0:2:0:0:
184,240,111175,1,0,0:2:0:0:
176,192,111262,5,6,0:2:0:0:
224,184,111349,1,0,0:2:0:0:
176,192,111436,1,0,0:2:0:0:
128,200,111524,1,0,0:2:0:0:
80,208,111611,5,2,0:2:0:0:
88,256,111698,1,0,0:2:0:0:
80,208,111785,1,0,0:2:0:0:
72,160,111872,1,0,0:2:0:0:
104,96,111960,6,0,B|64:82,1,29.3333333333333,4|0,0:2|0:2,0:2:0:0:
104,96,112076,2,0,B|76:63,1,29.3333333333333
104,96,112192,2,0,B|94:52,1,29.3333333333333
104,96,112308,2,0,B|117:54,1,29.3333333333333
104,96,112425,2,0,B|136:65,1,29.3333333333333
104,96,112541,2,0,B|145:85,1,29.3333333333333
96,104,112657,6,0,B|140:118,1,33.0000012588501,2|2,0:2|0:2,0:2:0:0:
96,104,112745,2,0,B|130:135,1,33.0000012588501,2|0,0:2|0:2,0:2:0:0:
96,104,112832,2,0,B|113:147,1,33.0000012588501,2|0,0:2|0:2,0:2:0:0:
96,104,112920,2,0,B|93:150,1,33.0000012588501,2|0,0:2|0:2,0:2:0:0:
96,104,113006,2,0,B|74:145,1,33.0000012588501,2|0,0:2|0:2,0:2:0:0:
96,104,113094,2,0,B|58:132,1,33.0000012588501,2|0,0:2|0:2,0:2:0:0:
96,104,113181,2,0,B|50:113,1,33.0000012588501,2|0,0:2|0:2,0:2:0:0:
96,104,113269,2,0,B|50:93,1,33.0000012588501,2|0,0:2|0:2,0:2:0:0:
16,184,113355,5,2,0:0:0:0:
24,200,113442,1,2,0:0:0:0:
32,216,113529,1,2,0:0:0:0:
40,232,113617,1,0,0:0:0:0:
48,248,113704,1,4,0:0:0:0:
48,328,113878,1,0,0:0:0:0:
56,344,113965,1,0,0:0:0:0:
64,360,114053,5,2,0:0:0:0:
72,360,114111,1,0,0:0:0:0:
80,360,114169,1,0,0:0:0:0:
88,360,114227,1,2,0:0:0:0:
96,360,114285,1,0,0:0:0:0:
104,360,114343,1,0,0:0:0:0:
112,360,114401,1,2,0:0:0:0:
176,296,114576,5,4,0:0:0:0:
184,280,114663,1,0,0:0:0:0:
192,264,114750,1,2,0:0:0:0:
200,248,114837,1,2,0:0:0:0:
192,232,114924,1,2,0:0:0:0:
184,216,115012,1,0,0:0:0:0:
176,200,115099,1,4,0:0:0:0:
120,120,115273,1,0,0:0:0:0:
128,104,115360,1,0,0:0:0:0:
136,88,115448,5,2,0:0:0:0:
144,88,115506,1,0,0:0:0:0:
152,88,115564,1,0,0:0:0:0:
160,88,115622,1,2,0:0:0:0:
168,88,115680,1,0,0:0:0:0:
176,88,115738,1,0,0:0:0:0:
184,88,115796,1,2,0:0:0:0:
272,24,115971,5,4,0:0:0:0:
280,40,116058,1,0,0:0:0:0:
288,56,116145,1,2,0:0:0:0:
296,72,116232,1,2,0:0:0:0:
288,88,116319,1,2,0:0:0:0:
280,104,116407,1,0,0:0:0:0:
272,120,116494,1,4,0:0:0:0:
216,200,116668,1,0,0:0:0:0:
224,216,116755,1,0,0:0:0:0:
232,232,116843,5,2,0:0:0:0:
240,232,116901,1,0,0:0:0:0:
248,232,116959,1,0,0:0:0:0:
256,232,117017,1,2,0:0:0:0:
264,232,117075,1,0,0:0:0:0:
272,232,117133,1,0,0:0:0:0:
280,232,117191,1,2,0:0:0:0:
360,384,117367,5,4,0:0:0:0:
368,368,117454,1,0,0:0:0:0:
376,352,117541,1,2,0:0:0:0:
384,336,117628,1,2,0:0:0:0:
376,320,117715,1,2,0:0:0:0:
368,304,117803,1,0,0:0:0:0:
360,288,117890,5,2,0:0:0:0:
400,264,117977,1,0,0:0:0:0:
440,240,118064,1,2,0:0:0:0:
480,216,118151,1,0,0:0:0:0:
440,192,118239,5,0,1:0:0:0:
480,168,118326,1,0,0:0:0:0:
440,144,118413,1,0,1:0:0:0:
480,120,118500,1,0,0:0:0:0:
440,96,118588,5,0,1:0:0:0:
434,90,118646,1,0,0:0:0:0:
429,85,118704,1,0,0:0:0:0:
423,79,118762,1,0,1:0:0:0:
418,74,118820,1,0,0:0:0:0:
412,68,118878,1,0,0:0:0:0:
406,62,118936,1,0,1:0:0:0:
336,16,119111,5,2,0:0:0:0:
320,32,119198,1,0,0:0:0:0:
304,48,119285,1,0,1:0:0:0:
224,40,119460,1,0,0:0:0:0:
208,56,119547,1,0,0:0:0:0:
192,72,119634,6,0,B|184:120,1,29.3333333333333,0|0,1:0|0:0,1:0:0:0:
168,80,119750,2,0,B|160:128,1,29.3333333333333,0|2,0:0|0:0,0:0:0:0:
144,88,119867,2,0,B|136:136,1,29.3333333333333
120,96,119983,2,0,B|112:144,1,29.3333333333333,0|0,1:0|0:0,0:0:0:0:
96,104,120099,2,0,B|88:152,1,29.3333333333333,0|0,0:0|1:0,0:0:0:0:
72,112,120215,2,0,B|64:160,1,29.3333333333333,0|0,0:0|0:0,0:0:0:0:
8,184,120332,5,0,1:0:0:0:
64,240,120506,1,2,0:0:0:0:
80,256,120593,1,0,0:0:0:0:
96,272,120680,1,0,1:0:0:0:
168,232,120855,1,0,0:0:0:0:
184,248,120942,1,0,0:0:0:0:
200,264,121029,6,0,B|208:312,1,29.3333333333333,0|0,1:0|0:0,0:0:0:0:
224,272,121145,2,0,B|232:320,1,29.3333333333333,0|0,0:0|1:0,0:0:0:0:
248,280,121262,2,0,B|256:328,1,29.3333333333333
272,288,121378,2,0,B|280:336,1,29.3333333333333,0|0,1:0|0:0,0:0:0:0:
296,296,121494,2,0,B|304:344,1,29.3333333333333,0|0,0:0|1:0,0:0:0:0:
320,304,121610,2,0,B|328:352,1,29.3333333333333,0|0,0:0|0:0,0:0:0:0:
384,368,121727,5,0,0:0:0:0:
400,360,121901,1,0,0:0:0:0:
464,240,122076,1,0,0:0:0:0:
448,232,122250,1,0,0:0:0:0:
432,224,122425,1,0,0:0:0:0:
408,72,122599,1,0,0:0:0:0:
392,80,122774,1,0,0:0:0:0:
376,88,122948,1,0,0:0:0:0:
160,112,123122,5,0,0:0:0:0:
160,112,123210,1,0,0:0:0:0:
242,75,123297,1,0,0:0:0:0:
242,75,123385,1,0,0:0:0:0:
279,157,123471,1,0,0:0:0:0:
279,157,123559,1,0,0:0:0:0:
196,194,123646,1,0,0:0:0:0:
196,194,123734,1,0,0:0:0:0:
160,112,123820,6,0,L|130:100,1,22
242,75,123907,2,0,L|253:45,1,22
279,157,123994,2,0,L|308:168,1,22
196,194,124081,2,0,L|184:223,1,22
161,160,124169,6,0,L|131:173,1,22
193,76,124256,2,0,L|179:46,1,22
278,108,124343,2,0,L|307:94,1,22
245,193,124430,2,0,L|258:222,1,22
219,134,124518,5,0,0:0:0:0:
