osu file format v14

[General]
AudioFilename: perditusparadisus.mp3
AudioLeadIn: 0
PreviewTime: 30741
Countdown: 0
SampleSet: None
StackLeniency: 0.7
Mode: 2
LetterboxInBreaks: 0
WidescreenStoryboard: 0

[Editor]
DistanceSpacing: 1.2
BeatDivisor: 4
GridSize: 16
TimelineZoom: 1.3

[Metadata]
Title:perditus paradisus
TitleUnicode:perditus paradisus
Artist:iconoclasm
ArtistUnicode:iconoclasm
Creator:Razor Sharp
Version:Rain
Source:Beatmania IIDX 18 Resort Anthem
Tags:perditus†paradisus dj TAKA wac Wakita Jun True Blue paradise lost instrumental ANTHEM CORE pop'n music ラピストリア REFLEC BEAT colette -Summer- JBHyperion Ascendance
BeatmapID:1091085
BeatmapSetID:513491

[Difficulty]
HPDrainRate:6
CircleSize:4
OverallDifficulty:9
ApproachRate:9
SliderMultiplier:2
SliderTickRate:2

[Events]
//Background and Video events
0,0,"Another.jpg",0,0
//Break Periods
2,103499,108281
//Storyboard Layer 0 (Background)
//Storyboard Layer 1 (Fail)
//Storyboard Layer 2 (Pass)
//Storyboard Layer 3 (Foreground)
//Storyboard Sound Samples

[TimingPoints]
44,348.837209302326,4,2,1,80,1,0
1439,-200,4,2,1,80,0,0
12427,-100,4,3,1,70,0,0
12602,-100,4,3,3,40,0,0
12776,-100,4,3,1,80,0,0
18183,-100,4,3,2,50,0,0
18357,-100,4,3,1,80,0,0
23763,-100,4,3,1,100,0,0
23939,-100,4,3,1,80,0,0
29345,-100,4,2,1,80,0,0
30044,-100,4,3,1,40,0,0
30740,-100,4,3,2,60,0,0
30916,-100,4,3,1,90,0,0
37020,-100,4,2,1,40,0,0
37282,-100,4,3,1,90,0,0
41903,-100,4,3,1,90,0,0
56206,-100,4,2,1,40,0,0
56381,-100,4,3,1,90,0,0
57602,-100,4,2,1,40,0,0
57776,-100,4,3,1,90,0,0
58299,-100,4,2,1,40,0,0
58474,-100,4,3,1,90,0,0
64230,-100,4,3,1,100,0,0
64404,-100,4,3,1,80,0,0
69462,-100,4,2,2,70,0,0
69637,-100,4,3,1,90,0,0
69810,-100,4,3,1,100,0,0
69985,-100,4,3,1,90,0,0
80974,-100,4,3,1,100,0,0
81148,-100,4,3,1,90,0,0
88997,-100,4,2,1,40,0,0
89084,-100,4,3,1,90,0,0
89171,-100,4,2,1,40,0,0
89259,-100,4,3,1,90,0,0
90567,-100,4,2,1,40,0,0
90741,-100,4,3,1,90,0,0
91788,-100,4,3,1,100,0,0
92137,-100,4,3,1,100,0,1
92311,-100,4,3,1,90,0,1
103299,-100,4,2,1,60,0,0
106090,-100,4,2,1,40,0,0
106788,-100,4,2,1,50,0,0
107485,-100,4,2,1,60,0,0
107834,-100,4,2,1,70,0,0
108183,-100,4,2,1,80,0,0
108532,-100,4,3,1,90,0,0
108881,-100,4,3,2,60,0,1
109230,-100,4,2,1,50,0,1
109578,-100,4,3,1,90,0,1
109927,-100,4,2,1,40,0,1
110276,-100,4,3,1,90,0,1
110625,-100,4,2,1,40,0,1
110974,-100,4,3,1,90,0,1
111323,-100,4,2,1,40,0,1
111671,-100,4,3,1,90,0,1
114113,-100,4,2,1,40,0,1
114200,-100,4,3,1,90,0,1
114288,-100,4,2,1,40,0,1
114375,-100,4,3,1,90,0,1
114462,-100,4,3,1,100,0,0
117950,-100,4,2,1,40,0,0
118038,-100,4,3,1,100,0,0
119346,-100,4,2,1,40,0,0
119433,-100,4,3,1,100,0,0
122485,-100,4,2,1,40,0,0
122660,-100,4,3,1,100,0,0
122834,-100,4,3,1,100,0,0
123357,-100,4,2,1,40,0,0
123532,-100,4,3,1,100,0,0
123706,-100,4,2,1,40,0,0
123881,-100,4,3,1,100,0,0
124055,-100,4,2,1,40,0,0
124230,-100,4,3,1,100,0,0
125625,-100,4,3,2,80,0,0
125799,-100,4,2,1,45,0,0
126323,-100,4,2,1,40,0,0
127020,-100,4,2,1,35,0,0
127718,-100,4,2,1,30,0,0
128416,-100,4,2,1,25,0,0
129113,-100,4,2,1,20,0,0
129811,-100,4,2,1,15,0,0
130509,-100,4,2,1,10,0,0
131206,-100,4,2,1,5,0,0

[Colours]
Combo1 : 128,128,128
Combo2 : 255,0,0
Combo3 : 192,192,192
Combo4 : 128,0,0

[HitObjects]
144,48,1439,6,0,L|80:240,1,200,2|0,0:0|0:0,0:0:0:0:
368,48,2834,2,0,L|432:240,1,200,2|0,0:0|0:0,0:0:0:0:
192,192,4230,2,0,P|256:256|320:192,2,200,2|0|2,0:0|0:0|0:0,0:0:0:0:
480,176,7020,6,0,P|464:128|320:96,1,200,2|0,0:0|0:0,0:0:0:0:
32,176,8416,2,0,P|48:128|192:96,1,200,2|0,0:0|0:0,0:0:0:0:
320,192,9811,2,0,P|256:256|192:192,2,200,2|0|2,0:0|0:0|0:0,0:0:0:0:
256,192,11904,1,2,0:0:0:0:
288,192,12427,1,0,0:0:0:0:
32,192,12602,6,0,L|48:80,1,100,4|2,0:0|0:0,0:0:0:0:
160,96,12950,2,0,L|144:208,1,100,0|2,0:0|0:0,0:0:0:0:
272,192,13299,2,0,L|288:80,1,100,0|2,0:0|0:0,0:0:0:0:
400,96,13648,2,0,L|384:208,1,100,0|2,0:0|0:0,0:0:0:0:
272,192,13997,6,0,L|368:224,1,100,0|2,0:0|0:0,0:0:0:0:
240,240,14346,2,0,L|208:336,1,100,0|2,0:0|0:0,0:0:0:0:
96,336,14695,2,0,L|0:304,1,100,0|2,0:0|0:0,0:0:0:0:
128,288,15044,2,0,L|160:192,1,100,0|2,0:0|0:0,0:0:0:0:
304,192,15392,6,0,L|336:96,1,100,0|2,0:0|0:0,0:0:0:0:
208,192,15741,2,0,L|176:96,1,100,0|2,0:0|0:0,0:0:0:0:
384,96,16090,2,0,L|464:32,1,100,0|2,0:0|0:0,0:0:0:0:
336,48,16439,2,0,L|256:112,1,100,0|2,0:0|0:0,0:0:0:0:
80,160,16788,6,0,L|32:128,2,50,0|0|2,0:0|0:0|0:0,0:0:0:0:
192,112,17137,2,0,L|176:64,2,50,0|0|2,0:0|0:0|0:0,0:0:0:0:
320,112,17485,6,0,L|336:64,2,50,0|0|2,0:0|0:0|0:0,0:0:0:0:
432,160,17834,2,0,L|480:128,2,50,0|0|2,0:0|0:0|0:0,0:0:0:0:
96,192,18183,6,4,L|48:80,1,100,4|6,0:0|0:0,0:0:0:0:
112,96,18445,2,0,L|176:96,1,50
48,80,18706,1,2,0:0:0:0:
208,80,18881,6,0,L|320:80,1,100,0|2,0:0|0:0,0:0:0:0:
368,80,19142,2,0,L|432:80,1,50
272,128,19404,1,2,0:0:0:0:
416,192,19578,6,0,L|464:304,1,100,0|2,0:0|0:0,0:0:0:0:
400,288,19840,2,0,L|336:288,1,50
464,304,20101,1,2,0:0:0:0:
304,304,20276,6,0,L|192:304,1,100,0|2,0:0|0:0,0:0:0:0:
144,304,20537,2,0,L|80:304,1,50
240,256,20799,1,2,0:0:0:0:
400,256,20974,6,0,L|432:160,1,100,0|2,0:0|0:0,0:0:0:0:
304,144,21323,2,0,L|336:48,1,100,0|2,0:0|0:0,0:0:0:0:
208,48,21671,2,0,L|240:144,1,100,0|2,0:0|0:0,0:0:0:0:
112,160,22020,2,0,L|144:256,1,100,0|2,0:0|0:0,0:0:0:0:
272,256,22369,5,0,0:0:0:0:
400,256,22544,1,2,0:0:0:0:
160,224,22892,1,2,0:0:0:0:
384,144,23241,1,2,0:0:0:0:
144,112,23590,1,2,0:0:0:0:
448,96,23764,6,8,L|496:80,3,50,12|8|10|8,0:0|0:0|0:0|0:0,0:0:0:0:
432,64,24113,2,8,L|400:112,1,50
336,112,24288,2,8,L|304:160,1,50,10|8,0:0|0:0,0:0:0:0:
368,160,24462,5,8,0:0:0:0:
414,175,24549,1,8,0:0:0:0:
442,215,24636,1,10,0:0:0:0:
439,264,24723,1,8,0:0:0:0:
407,301,24810,1,8,0:0:0:0:
359,311,24898,1,8,0:0:0:0:
304,304,24985,2,8,L|224:304,1,50,10|8,0:0|0:0,0:0:0:0:
64,272,25160,6,8,L|0:272,2,50,8|8|10,0:0|0:0|0:0,0:0:0:0:
128,272,25421,2,8,L|144:224,1,50
208,224,25596,2,8,L|272:224,2,50,8|10|8,0:0|0:0|0:0,0:0:0:0:
256,192,25857,6,8,L|320:192,2,50,8|8|10,0:0|0:0|0:0,0:0:0:0:
192,192,26119,2,8,L|112:192,1,50
80,192,26294,2,8,L|16:192,2,50,8|10|8,0:0|0:0|0:0,0:0:0:0:
384,64,26555,5,8,0:0:0:0:
421,96,26642,1,8,0:0:0:0:
444,140,26729,1,10,0:0:0:0:
451,189,26816,1,8,0:0:0:0:
439,238,26903,1,8,0:0:0:0:
411,279,26991,1,8,0:0:0:0:
370,307,27078,1,10,0:0:0:0:
288,320,27166,1,8,0:0:0:0:
128,320,27253,5,8,0:0:0:0:
79,316,27340,1,8,0:0:0:0:
44,281,27427,1,10,0:0:0:0:
42,232,27514,1,8,0:0:0:0:
72,194,27601,1,8,0:0:0:0:
120,185,27689,1,8,0:0:0:0:
162,210,27776,1,10,0:0:0:0:
240,208,27863,1,8,0:0:0:0:
416,96,27950,6,8,L|448:144,3,50,8|8|10|8,0:0|0:0|0:0|0:0,0:0:0:0:
272,176,28299,2,8,L|240:224,3,50,8|8|10|8,0:0|0:0|0:0|0:0,0:0:0:0:
416,208,28648,6,8,L|480:208,1,50
416,240,28823,2,8,L|336:240,1,50,10|8,0:0|0:0,0:0:0:0:
176,256,28997,2,8,L|112:256,1,50
288,192,29171,2,8,L|352:192,2,50,10|8|8,0:0|0:0|0:0,0:0:0:0:
256,192,29520,12,0,30567,0:0:0:0:
256,48,30741,5,6,0:0:0:0:
207,56,30828,1,0,0:0:0:0:
166,84,30915,1,0,0:0:0:0:
141,127,31002,1,0,0:0:0:0:
288,160,31090,6,0,L|352:160,1,50,8|0,0:0|0:0,0:0:0:0:
144,224,31264,2,0,L|80:224,1,50
144,240,31439,5,2,0:0:0:0:
191,238,31526,1,0,0:0:0:0:
212,280,31613,1,0,0:0:0:0:
183,318,31700,1,0,0:0:0:0:
336,304,31788,2,0,L|400:304,1,50,8|0,0:0|0:0,0:0:0:0:
432,256,31962,2,0,L|448:192,1,50
224,128,32137,6,0,L|208:240,1,100,2|8,0:0|0:0,0:0:0:0:
336,240,32485,2,0,L|352:128,1,100,2|8,0:0|0:0,0:0:0:0:
224,128,32834,2,0,L|112:128,1,100,2|8,0:0|0:0,0:0:0:0:
256,96,33183,2,0,L|144:96,1,100,2|8,0:0|0:0,0:0:0:0:
400,64,33532,6,0,L|448:80,3,50,6|0|0|0,0:0|0:0|0:0|0:0,0:0:0:0:
384,96,33881,2,0,L|304:96,1,50,8|0,0:0|0:0,0:0:0:0:
272,96,34055,2,0,L|176:96,1,50
160,112,34230,6,0,L|112:128,3,50,2|0|0|0,0:0|0:0|0:0|0:0,0:0:0:0:
176,144,34579,2,0,L|256:144,1,50,8|0,0:0|0:0,0:0:0:0:
288,144,34753,2,0,L|384:144,1,50
112,192,34927,6,0,L|48:272,1,100,2|8,0:0|0:0,0:0:0:0:
112,272,35189,1,0,0:0:0:0:
256,192,35276,6,0,L|192:272,1,100,2|8,0:0|0:0,0:0:0:0:
256,272,35538,1,0,0:0:0:0:
400,192,35625,6,0,L|336:272,1,100,2|8,0:0|0:0,0:0:0:0:
272,272,35887,1,0,0:0:0:0:
480,160,35974,6,0,L|416:80,1,100,2|8,0:0|0:0,0:0:0:0:
352,80,36236,1,0,0:0:0:0:
160,64,36323,5,6,0:0:0:0:
110,65,36410,1,0,0:0:0:0:
67,90,36497,1,0,0:0:0:0:
42,132,36584,1,0,0:0:0:0:
41,182,36671,1,8,0:0:0:0:
64,226,36759,1,0,0:0:0:0:
105,253,36846,1,0,0:0:0:0:
155,256,36933,1,0,0:0:0:0:
208,256,37020,6,0,L|256:160,1,100,2|0,0:0|0:0,0:0:0:0:
128,176,37369,2,0,L|80:272,1,100,8|0,0:0|0:0,0:0:0:0:
240,272,37718,6,0,L|320:272,1,50,2|0,0:0|0:0,0:0:0:0:
240,256,37892,1,8,0:0:0:0:
197,231,37979,1,0,0:0:0:0:
179,185,38066,1,2,0:0:0:0:
191,138,38153,1,0,0:0:0:0:
231,108,38240,1,8,0:0:0:0:
280,108,38328,1,0,0:0:0:0:
128,96,38416,6,0,L|32:144,1,100,2|8,0:0|0:0,0:0:0:0:
384,96,38764,2,0,L|480:144,1,100,2|8,0:0|0:0,0:0:0:0:
80,192,39113,6,0,L|16:208,2,50,6|0|0,0:0|0:0|0:0,0:0:0:0:
192,208,39462,2,0,L|160:256,2,50,8|0|0,0:0|0:0|0:0,0:0:0:0:
80,192,39811,6,0,L|16:208,2,50,2|0|0,0:0|0:0|0:0,0:0:0:0:
336,208,40160,2,0,L|304:256,2,50,8|0|0,0:0|0:0|0:0,0:0:0:0:
80,192,40509,6,0,L|48:144,1,50,2|0,0:0|0:0,0:0:0:0:
112,144,40683,2,0,L|176:144,1,50,8|0,0:0|0:0,0:0:0:0:
320,112,40857,2,0,L|368:96,1,50,2|0,0:0|0:0,0:0:0:0:
176,80,41032,2,0,L|128:48,1,50,8|0,0:0|0:0,0:0:0:0:
336,192,41206,6,0,L|368:240,3,50,2|0|8|0,0:0|0:0|0:0|0:0,0:0:0:0:
288,240,41555,2,0,L|256:288,3,50,2|0|8|0,0:0|0:0|0:0|0:0,0:0:0:0:
64,288,41904,6,0,L|48:240,1,50,6|0,0:0|0:0,0:0:0:0:
112,224,42078,2,0,L|128:160,1,50
64,176,42253,2,0,L|32:80,1,100,8|0,0:0|0:0,0:0:0:0:
192,80,42602,6,0,L|208:128,1,50,2|0,0:0|0:0,0:0:0:0:
144,144,42776,2,0,L|128:208,1,50
192,192,42951,2,0,L|224:288,1,100,8|0,0:0|0:0,0:0:0:0:
48,288,43299,6,0,L|32:240,1,50,2|0,0:0|0:0,0:0:0:0:
240,224,43474,2,0,L|272:176,2,50,0|0|8,0:0|0:0|0:0,0:0:0:0:
176,224,43735,2,0,L|208:176,2,50,0|8|0,0:0|0:0|0:0,0:0:0:0:
464,96,43997,6,0,L|480:144,1,50,2|0,0:0|0:0,0:0:0:0:
272,160,44172,2,0,L|240:208,2,50,0|0|8,0:0|0:0|0:0,0:0:0:0:
336,160,44433,2,0,L|304:208,2,50,0|8|0,0:0|0:0|0:0,0:0:0:0:
96,64,44695,5,6,0:0:0:0:
58,96,44782,1,0,0:0:0:0:
36,140,44869,1,0,0:0:0:0:
33,190,44956,1,0,0:0:0:0:
49,237,45043,1,8,0:0:0:0:
208,240,45218,1,0,0:0:0:0:
352,240,45392,5,2,0:0:0:0:
389,207,45479,1,0,0:0:0:0:
411,163,45566,1,0,0:0:0:0:
414,113,45653,1,0,0:0:0:0:
398,66,45740,1,8,0:0:0:0:
240,64,45915,1,0,0:0:0:0:
398,66,46090,6,0,L|432:128,1,50,2|0,0:0|0:0,0:0:0:0:
368,112,46264,2,0,L|304:112,1,50
384,128,46439,2,0,L|496:128,1,100,8|8,0:0|0:0,0:0:0:0:
272,144,46788,6,0,L|238:206,1,50,2|0,0:0|0:0,0:0:0:0:
302,190,46962,2,0,L|366:190,1,50
286,206,47137,2,0,L|174:206,1,100,8|8,0:0|0:0,0:0:0:0:
480,224,47485,6,0,L|496:288,3,50,6|0|0|0,0:0|0:0|0:0|0:0,0:0:0:0:
416,272,47834,2,0,L|448:320,3,50,8|0|0|0,0:0|0:0|0:0|0:0,0:0:0:0:
368,320,48183,6,0,L|352:272,1,50,2|0,0:0|0:0,0:0:0:0:
272,272,48357,2,0,L|288:224,1,50
208,224,48532,2,0,L|192:176,1,50,8|0,0:0|0:0,0:0:0:0:
112,176,48706,2,0,L|128:128,1,50
304,64,48881,5,2,0:0:0:0:
350,78,48968,1,0,0:0:0:0:
373,121,49055,1,8,0:0:0:0:
361,168,49142,1,0,0:0:0:0:
320,194,49229,1,2,0:0:0:0:
448,192,49404,1,8,0:0:0:0:
208,320,49578,5,2,0:0:0:0:
161,305,49665,1,0,0:0:0:0:
138,262,49752,1,8,0:0:0:0:
150,215,49839,1,0,0:0:0:0:
191,189,49926,1,2,0:0:0:0:
64,192,50101,1,8,0:0:0:0:
336,192,50276,6,0,L|352:144,1,50,6|0,0:0|0:0,0:0:0:0:
272,144,50450,2,0,L|256:96,1,50
336,96,50625,2,0,L|224:96,1,100,8|0,0:0|0:0,0:0:0:0:
80,96,50974,6,0,L|64:144,1,50,2|0,0:0|0:0,0:0:0:0:
144,144,51148,2,0,L|160:192,1,50
80,192,51323,2,0,L|192:192,1,100,8|0,0:0|0:0,0:0:0:0:
336,192,51671,6,0,L|352:144,3,50,2|0|8|0,0:0|0:0|0:0|0:0,0:0:0:0:
272,144,52020,2,0,L|288:96,1,50,2|0,0:0|0:0,0:0:0:0:
208,96,52195,2,0,L|224:48,1,50,8|0,0:0|0:0,0:0:0:0:
303,49,52369,6,0,L|287:97,3,50,2|0|8|0,0:0|0:0|0:0|0:0,0:0:0:0:
368,96,52718,2,0,L|432:96,1,50,2|0,0:0|0:0,0:0:0:0:
240,144,52892,2,0,L|176:144,1,50,8|0,0:0|0:0,0:0:0:0:
418,96,53067,6,0,L|434:208,1,100,6|0,0:0|0:0,0:0:0:0:
352,192,53328,1,0,0:0:0:0:
272,192,53416,2,0,L|288:304,1,100,8|0,0:0|0:0,0:0:0:0:
94,288,53764,6,0,L|78:176,1,100,2|0,0:0|0:0,0:0:0:0:
160,192,54025,1,0,0:0:0:0:
240,192,54113,2,0,L|224:80,1,100,8|0,0:0|0:0,0:0:0:0:
448,96,54462,6,0,L|496:80,3,50,2|0|8|0,0:0|0:0|0:0|0:0,0:0:0:0:
432,64,54811,2,0,L|400:112,1,50,2|0,0:0|0:0,0:0:0:0:
336,112,54986,2,0,L|304:160,1,50,8|0,0:0|0:0,0:0:0:0:
368,160,55160,5,2,0:0:0:0:
414,175,55247,1,0,0:0:0:0:
442,215,55334,1,8,0:0:0:0:
439,264,55421,1,0,0:0:0:0:
407,301,55508,1,2,0:0:0:0:
359,311,55596,1,0,0:0:0:0:
304,304,55683,2,0,L|224:304,1,50,8|0,0:0|0:0,0:0:0:0:
64,288,55857,6,0,L|32:192,1,100,6|0,0:0|0:0,0:0:0:0:
96,192,56119,1,0,0:0:0:0:
160,192,56206,2,0,L|32:192,1,100,8|0,0:0|0:0,0:0:0:0:
208,192,56555,6,0,L|240:96,1,100,2|0,0:0|0:0,0:0:0:0:
176,96,56817,1,0,0:0:0:0:
112,96,56904,2,0,L|240:96,1,100,8|0,0:0|0:0,0:0:0:0:
384,64,57253,5,2,0:0:0:0:
421,96,57340,1,0,0:0:0:0:
444,140,57427,1,8,0:0:0:0:
451,189,57514,1,0,0:0:0:0:
439,238,57601,1,2,0:0:0:0:
411,279,57689,1,0,0:0:0:0:
370,307,57776,1,8,0:0:0:0:
288,320,57864,1,0,0:0:0:0:
128,320,57951,5,2,0:0:0:0:
79,316,58038,1,0,0:0:0:0:
44,281,58125,1,8,0:0:0:0:
42,232,58212,1,0,0:0:0:0:
72,194,58299,1,2,0:0:0:0:
120,185,58387,1,0,0:0:0:0:
162,210,58474,1,8,0:0:0:0:
240,208,58561,1,0,0:0:0:0:
416,96,58648,6,0,L|448:144,3,50,6|0|8|0,0:0|0:0|0:0|0:0,0:0:0:0:
272,176,58997,2,0,L|240:224,3,50,2|0|8|0,0:0|0:0|0:0|0:0,0:0:0:0:
416,208,59346,6,0,L|480:208,1,50,2|0,0:0|0:0,0:0:0:0:
416,240,59521,2,0,L|336:240,1,50,8|0,0:0|0:0,0:0:0:0:
176,256,59695,2,0,L|112:256,1,50,2|0,0:0|0:0,0:0:0:0:
288,192,59869,2,0,L|352:192,1,50,8|0,0:0|0:0,0:0:0:0:
64,128,60044,6,0,L|48:176,1,50,2|0,0:0|0:0,0:0:0:0:
112,192,60218,2,0,L|128:240,1,50,8|0,0:0|0:0,0:0:0:0:
192,240,60392,2,0,L|176:288,1,50,2|0,0:0|0:0,0:0:0:0:
240,304,60567,2,0,L|256:368,1,50,8|0,0:0|0:0,0:0:0:0:
320,352,60741,6,0,L|336:304,1,50,2|0,0:0|0:0,0:0:0:0:
272,288,60915,2,0,L|256:240,1,50,8|0,0:0|0:0,0:0:0:0:
192,240,61089,2,0,L|208:192,1,50,2|0,0:0|0:0,0:0:0:0:
144,176,61264,2,0,L|128:112,1,50,8|0,0:0|0:0,0:0:0:0:
320,112,61439,6,0,L|448:112,1,100,6|0,0:0|0:0,0:0:0:0:
368,144,61700,2,0,L|304:144,2,50,0|8|0,0:0|0:0|0:0,0:0:0:0:
432,176,61962,2,0,L|304:176,1,100,0|2,0:0|0:0,0:0:0:0:
272,176,62224,5,0,0:0:0:0:
229,152,62311,1,0,0:0:0:0:
215,105,62398,1,0,0:0:0:0:
239,62,62485,1,8,0:0:0:0:
285,47,62572,1,0,0:0:0:0:
328,70,62660,1,0,0:0:0:0:
80,96,62834,6,0,L|16:96,1,50,2|0,0:0|0:0,0:0:0:0:
80,128,63009,2,0,L|160:128,1,50,8|0,0:0|0:0,0:0:0:0:
192,128,63183,2,0,L|128:128,2,50,2|0|8,0:0|0:0|0:0,0:0:0:0:
256,128,63445,2,0,L|320:128,1,50,0|2,0:0|0:0,0:0:0:0:
192,96,63706,1,8,0:0:0:0:
320,80,63881,1,2,0:0:0:0:
176,64,64055,1,8,0:0:0:0:
448,64,64230,5,4,0:0:0:0:
256,192,64404,12,0,69637,0:0:0:0:
64,224,69811,6,0,L|32:128,1,100,4|0,0:0|0:0,0:0:0:0:
160,112,70160,2,0,L|32:112,1,100,2|0,0:0|0:0,0:0:0:0:
176,80,70509,2,0,L|240:80,2,50
32,64,70857,1,2,0:0:0:0:
96,64,70945,1,0,0:0:0:0:
160,64,71032,1,0,0:0:0:0:
400,80,71206,6,0,L|416:192,1,100
256,176,71555,2,0,L|224:288,1,100,2|0,0:0|0:0,0:0:0:0:
352,272,71904,2,0,L|384:208,2,50
192,272,72253,2,0,L|160:224,2,50,2|0|0,0:0|0:0|0:0,0:0:0:0:
448,160,72602,6,0,L|480:256,1,100
352,272,72951,2,0,L|480:272,1,100,2|0,0:0|0:0,0:0:0:0:
336,304,73300,2,0,L|272:304,2,50
480,320,73648,1,2,0:0:0:0:
416,320,73736,1,0,0:0:0:0:
352,320,73823,1,0,0:0:0:0:
112,304,73997,6,0,L|96:192,1,100
256,208,74346,2,0,L|288:96,1,100,2|0,0:0|0:0,0:0:0:0:
160,112,74695,2,0,L|128:176,2,50
320,112,75044,2,0,L|352:160,2,50,2|0|0,0:0|0:0|0:0,0:0:0:0:
80,160,75392,6,0,L|32:272,1,100
160,256,75741,2,0,L|288:256,1,100,2|0,0:0|0:0,0:0:0:0:
128,256,76090,2,0,L|240:256,1,100
352,256,76439,2,0,L|400:144,1,100,2|0,0:0|0:0,0:0:0:0:
64,224,76788,6,0,L|48:112,1,100
176,128,77137,2,0,L|192:240,1,100,2|0,0:0|0:0,0:0:0:0:
304,224,77485,2,0,L|288:112,1,100
416,128,77834,2,0,L|432:240,1,100,2|0,0:0|0:0,0:0:0:0:
160,48,78183,5,0,0:0:0:0:
80,144,78357,1,0,0:0:0:0:
64,256,78532,1,2,0:0:0:0:
128,352,78706,1,0,0:0:0:0:
288,352,78881,5,0,0:0:0:0:
208,256,79055,1,0,0:0:0:0:
192,144,79230,2,0,L|224:96,1,50,2|0,0:0|0:0,0:0:0:0:
256,48,79404,2,0,L|304:32,1,50
112,64,79578,6,0,L|48:64,1,50
112,112,79753,2,0,L|160:160,1,50
400,320,79927,2,0,L|464:320,1,50,2|0,0:0|0:0,0:0:0:0:
400,272,80102,2,0,L|352:224,1,50
144,192,80276,6,0,L|112:144,3,50
192,144,80625,2,0,L|160:96,3,50,2|0|0|0,0:0|0:0|0:0|0:0,0:0:0:0:
400,80,80974,5,6,0:0:0:0:
442,104,81061,1,0,0:0:0:0:
459,150,81148,1,0,0:0:0:0:
443,196,81235,1,0,0:0:0:0:
401,222,81322,1,8,0:0:0:0:
400,80,81671,5,2,0:0:0:0:
442,104,81758,1,0,0:0:0:0:
459,150,81845,1,8,0:0:0:0:
443,196,81932,1,0,0:0:0:0:
352,208,82020,1,2,0:0:0:0:
309,183,82107,1,0,0:0:0:0:
292,137,82194,1,8,0:0:0:0:
308,91,82281,1,0,0:0:0:0:
112,304,82369,5,2,0:0:0:0:
70,280,82456,1,0,0:0:0:0:
53,234,82543,1,0,0:0:0:0:
69,188,82630,1,0,0:0:0:0:
111,162,82717,1,8,0:0:0:0:
112,304,83066,5,2,0:0:0:0:
70,280,83153,1,0,0:0:0:0:
53,234,83240,1,8,0:0:0:0:
69,188,83327,1,0,0:0:0:0:
160,176,83415,1,2,0:0:0:0:
203,201,83502,1,0,0:0:0:0:
220,247,83589,1,8,0:0:0:0:
204,293,83676,1,0,0:0:0:0:
368,272,83764,6,0,L|400:224,1,50,2|0,0:0|0:0,0:0:0:0:
336,208,83939,2,0,L|272:208,2,50,0|0|8,0:0|0:0|0:0,0:0:0:0:
368,272,84462,6,0,L|400:224,1,50,2|0,0:0|0:0,0:0:0:0:
336,208,84637,2,0,L|272:208,1,50,8|0,0:0|0:0,0:0:0:0:
192,208,84811,6,0,L|160:160,1,50,2|0,0:0|0:0,0:0:0:0:
224,144,84986,2,0,L|288:144,1,50,8|0,0:0|0:0,0:0:0:0:
64,96,85160,6,0,L|32:144,3,50,6|0|8|0,0:0|0:0|0:0|0:0,0:0:0:0:
128,144,85509,2,0,L|80:176,3,50,2|0|8|0,0:0|0:0|0:0|0:0,0:0:0:0:
176,176,85857,6,0,L|240:176,1,50,2|0,0:0|0:0,0:0:0:0:
176,192,86032,2,0,L|112:192,1,50,8|0,0:0|0:0,0:0:0:0:
192,208,86206,2,0,L|208:256,1,50,2|0,0:0|0:0,0:0:0:0:
144,256,86381,2,0,L|128:304,1,50,8|0,0:0|0:0,0:0:0:0:
288,304,86555,6,0,L|368:224,1,100,6|0,0:0|0:0,0:0:0:0:
480,224,86904,2,0,L|400:144,1,100,8|0,0:0|0:0,0:0:0:0:
288,144,87253,2,0,L|208:224,1,100,2|0,0:0|0:0,0:0:0:0:
96,224,87602,2,0,L|176:304,1,100,8|0,0:0|0:0,0:0:0:0:
448,304,87950,6,0,L|480:256,1,50,2|0,0:0|0:0,0:0:0:0:
416,256,88125,1,8,0:0:0:0:
369,241,88212,1,0,0:0:0:0:
342,201,88299,1,2,0:0:0:0:
347,152,88386,1,0,0:0:0:0:
382,118,88473,1,8,0:0:0:0:
64,80,88648,6,0,L|32:128,1,50,2|0,0:0|0:0,0:0:0:0:
96,128,88823,1,8,0:0:0:0:
142,142,88910,1,0,0:0:0:0:
169,182,88997,1,2,0:0:0:0:
164,231,89084,1,0,0:0:0:0:
129,265,89171,1,8,0:0:0:0:
400,272,89346,5,6,0:0:0:0:
442,245,89433,1,0,0:0:0:0:
470,204,89520,1,8,0:0:0:0:
478,155,89607,1,0,0:0:0:0:
466,107,89694,1,2,0:0:0:0:
436,68,89782,1,0,0:0:0:0:
392,45,89869,1,8,0:0:0:0:
342,42,89956,1,0,0:0:0:0:
272,48,90044,5,2,0:0:0:0:
314,74,90131,1,0,0:0:0:0:
342,115,90218,1,8,0:0:0:0:
350,164,90305,1,0,0:0:0:0:
338,212,90392,1,2,0:0:0:0:
308,251,90480,1,0,0:0:0:0:
264,274,90567,1,8,0:0:0:0:
214,277,90654,1,0,0:0:0:0:
160,288,90741,6,0,L|128:288,16,25,2|0|0|0|8|0|0|0|2|0|0|0|8|0|0|0|2,0:0|0:0|0:0|0:0|0:0|0:0|0:0|0:0|0:0|0:0|0:0|0:0|0:0|0:0|0:0|0:0|0:0,0:0:0:0:
224,288,91526,5,0,0:0:0:0:
288,288,91613,2,0,L|336:256,1,50,8|0,0:0|0:0,0:0:0:0:
384,224,91788,2,0,L|416:160,1,50,2|0,0:0|0:0,0:0:0:0:
432,128,91962,2,0,L|432:64,1,50,8|0,0:0|0:0,0:0:0:0:
128,192,92137,6,0,L|16:192,1,100,6|0,0:0|0:0,0:0:0:0:
160,176,92485,2,0,L|48:176,1,100,2|0,0:0|0:0,0:0:0:0:
192,160,92834,2,0,L|80:160,1,100,2|0,0:0|0:0,0:0:0:0:
224,144,93182,2,0,L|112:144,1,100,2|0,0:0|0:0,0:0:0:0:
384,192,93532,6,0,L|496:192,1,100,2|0,0:0|0:0,0:0:0:0:
352,208,93880,2,0,L|464:208,1,100,2|0,0:0|0:0,0:0:0:0:
320,224,94229,2,0,L|432:224,1,100,2|0,0:0|0:0,0:0:0:0:
288,240,94578,2,0,L|400:240,1,100,2|0,0:0|0:0,0:0:0:0:
80,240,94927,6,0,L|32:144,1,100,6|0,0:0|0:0,0:0:0:0:
288,144,95276,2,0,L|160:144,1,100,2|0,0:0|0:0,0:0:0:0:
432,144,95625,2,0,L|480:240,1,100,2|0,0:0|0:0,0:0:0:0:
224,240,95974,2,0,L|352:240,1,100,2|0,0:0|0:0,0:0:0:0:
80,240,96323,6,0,L|32:144,1,100,2|0,0:0|0:0,0:0:0:0:
320,256,96671,2,0,L|368:160,1,100,2|0,0:0|0:0,0:0:0:0:
192,256,97020,2,0,L|144:160,1,100,2|0,0:0|0:0,0:0:0:0:
432,240,97369,2,0,L|480:144,1,100,2|0,0:0|0:0,0:0:0:0:
80,160,97718,6,0,L|32:128,2,50,6|0|0,0:0|0:0|0:0,0:0:0:0:
192,112,98067,2,0,L|176:64,2,50,2|0|0,0:0|0:0|0:0,0:0:0:0:
320,112,98415,6,0,L|336:64,2,50,2|0|0,0:0|0:0|0:0,0:0:0:0:
432,160,98764,2,0,L|480:128,2,50,2|0|0,0:0|0:0|0:0,0:0:0:0:
192,272,99113,6,0,L|176:320,2,50,2|0|0,0:0|0:0|0:0,0:0:0:0:
320,272,99462,2,0,L|336:320,2,50,2|0|0,0:0|0:0|0:0,0:0:0:0:
80,224,99811,6,0,L|32:256,2,50,2|0|0,0:0|0:0|0:0,0:0:0:0:
432,224,100160,2,0,L|480:256,2,50,2|0|0,0:0|0:0|0:0,0:0:0:0:
32,192,100509,5,6,0:0:0:0:
96,192,100596,1,0,0:0:0:0:
160,192,100683,1,0,0:0:0:0:
480,192,100857,1,2,0:0:0:0:
416,192,100944,1,0,0:0:0:0:
352,192,101031,1,0,0:0:0:0:
96,144,101206,6,0,L|80:96,2,50,2|0|0,0:0|0:0|0:0,0:0:0:0:
416,144,101555,2,0,L|432:96,2,50,2|0|0,0:0|0:0|0:0,0:0:0:0:
176,192,101904,5,2,0:0:0:0:
128,160,101991,1,0,0:0:0:0:
96,112,102078,1,0,0:0:0:0:
336,192,102253,1,2,0:0:0:0:
384,160,102340,1,0,0:0:0:0:
416,112,102427,1,0,0:0:0:0:
144,240,102602,5,2,0:0:0:0:
80,224,102689,1,0,0:0:0:0:
32,176,102776,1,0,0:0:0:0:
368,240,102950,1,2,0:0:0:0:
432,224,103037,1,0,0:0:0:0:
480,176,103124,1,0,0:0:0:0:
256,192,103212,6,0,L|256:128,1,50,0|6,0:0|0:0,0:0:0:0:
80,288,108881,6,8,L|64:240,1,50,14|8,0:0|0:0,0:0:0:0:
128,224,109055,2,8,L|112:176,1,50
176,160,109230,6,8,L|160:112,1,50,10|8,0:0|0:0,0:0:0:0:
224,112,109404,2,8,L|208:64,1,50
304,64,109578,6,8,L|288:112,1,50,10|8,0:0|0:0,0:0:0:0:
336,160,109753,2,8,L|352:112,1,50
400,176,109927,2,8,L|384:224,1,50,10|8,0:0|0:0,0:0:0:0:
432,288,110102,2,8,L|448:240,1,50
384,240,110276,5,10,0:0:0:0:
334,242,110363,1,8,0:0:0:0:
288,224,110450,1,8,0:0:0:0:
253,188,110537,1,8,0:0:0:0:
235,142,110624,1,10,0:0:0:0:
238,92,110712,1,8,0:0:0:0:
261,48,110799,1,8,0:0:0:0:
300,17,110886,1,8,0:0:0:0:
368,16,110974,6,8,L|432:16,3,50,10|8|8|8,0:0|0:0|0:0|0:0,0:0:0:0:
368,32,111323,2,8,L|304:48,1,50,10|8,0:0|0:0,0:0:0:0:
256,48,111497,2,8,L|160:64,1,50
256,80,111671,6,8,L|288:128,1,50,10|8,0:0|0:0,0:0:0:0:
224,160,111846,2,8,L|256:208,1,50
192,224,112020,6,8,L|224:272,1,50,10|8,0:0|0:0,0:0:0:0:
160,304,112195,2,8,L|192:352,1,50
240,352,112369,6,8,L|304:352,1,50,10|8,0:0|0:0,0:0:0:0:
240,320,112544,2,8,L|176:320,1,50
128,320,112718,2,8,L|192:320,1,50,10|8,0:0|0:0,0:0:0:0:
112,320,112892,2,8,L|32:320,1,50
224,240,113067,6,8,L|240:208,10,25,10|8|8|8|8|8|8|8|10|8|8,0:0|0:0|0:0|0:0|0:0|0:0|0:0|0:0|0:0|0:0|0:0,0:0:0:0:
160,240,113590,5,8,0:0:0:0:
352,224,113677,1,8,0:0:0:0:
416,224,113764,6,8,L|432:192,10,25,10|8|8|8|8|8|8|8|10|8|8,0:0|0:0|0:0|0:0|0:0|0:0|0:0|0:0|0:0|0:0|0:0,0:0:0:0:
352,224,114288,6,8,L|288:224,1,50
80,208,114462,6,0,L|48:112,1,100,6|0,0:0|0:0,0:0:0:0:
176,112,114811,1,8,0:0:0:0:
64,112,114985,1,0,0:0:0:0:
304,112,115160,6,0,L|320:160,1,50,2|0,0:0|0:0,0:0:0:0:
256,176,115334,2,0,L|192:176,1,50,8|0,0:0|0:0,0:0:0:0:
144,176,115509,2,0,L|128:224,1,50,2|0,0:0|0:0,0:0:0:0:
192,240,115683,2,0,L|256:240,1,50,8|0,0:0|0:0,0:0:0:0:
432,176,115857,6,0,L|464:272,1,100,2|0,0:0|0:0,0:0:0:0:
336,272,116206,1,8,0:0:0:0:
448,272,116380,1,0,0:0:0:0:
208,272,116555,6,0,L|192:224,1,50,2|0,0:0|0:0,0:0:0:0:
256,208,116729,2,0,L|320:208,1,50,8|0,0:0|0:0,0:0:0:0:
368,208,116904,2,0,L|384:160,1,50,2|0,0:0|0:0,0:0:0:0:
320,144,117078,2,0,L|256:144,1,50,8|0,0:0|0:0,0:0:0:0:
480,80,117253,6,0,L|464:192,1,100,2|0,0:0|0:0,0:0:0:0:
352,176,117602,2,0,L|368:288,1,100,8|0,0:0|0:0,0:0:0:0:
256,288,117950,6,0,L|224:240,3,50,2|0|8|0,0:0|0:0|0:0|0:0,0:0:0:0:
160,256,118299,2,0,L|112:224,1,50,2|0,0:0|0:0,0:0:0:0:
64,192,118474,2,8,L|112:144,1,50
320,144,118648,6,0,L|336:32,1,100,2|0,0:0|0:0,0:0:0:0:
192,144,118997,2,0,L|176:32,1,100,8|0,0:0|0:0,0:0:0:0:
336,144,119346,6,0,L|400:144,1,50,2|0,0:0|0:0,0:0:0:0:
240,224,119520,2,0,L|208:272,3,50,8|0|2|0,0:0|0:0|0:0|0:0,0:0:0:0:
64,288,119869,2,0,L|0:288,1,50,8|0,0:0|0:0,0:0:0:0:
256,304,120044,6,0,L|336:224,1,100,6|0,0:0|0:0,0:0:0:0:
256,224,120305,1,0,0:0:0:0:
176,224,120392,2,0,L|96:144,1,100,8|0,0:0|0:0,0:0:0:0:
192,144,120653,1,0,0:0:0:0:
288,144,120741,6,0,L|368:64,1,100,2|0,0:0|0:0,0:0:0:0:
256,64,121002,1,0,0:0:0:0:
144,64,121090,6,0,L|64:144,1,100,8|0,0:0|0:0,0:0:0:0:
144,144,121351,1,0,0:0:0:0:
256,80,121439,6,0,L|176:160,1,100,6|0,0:0|0:0,0:0:0:0:
256,160,121700,1,0,0:0:0:0:
336,160,121787,2,0,L|416:240,1,100,8|0,0:0|0:0,0:0:0:0:
320,240,122048,1,0,0:0:0:0:
224,240,122136,6,0,L|144:320,1,100,2|0,0:0|0:0,0:0:0:0:
256,320,122397,1,0,0:0:0:0:
368,320,122485,6,0,L|448:240,1,100,8|0,0:0|0:0,0:0:0:0:
368,240,122746,1,0,0:0:0:0:
128,256,122834,6,8,L|16:256,1,100,14|8,0:0|0:0,0:0:0:0:
304,256,123183,2,8,L|176:256,1,100,10|8,0:0|0:0,0:0:0:0:
484,256,123532,2,8,L|384:256,1,100,10|8,0:0|0:0,0:0:0:0:
28,256,123881,2,8,L|128:256,1,100,10|8,0:0|0:0,0:0:0:0:
288,256,124230,6,8,L|304:192,1,50,10|8,0:0|0:0,0:0:0:0:
224,256,124404,2,8,L|208:192,1,50
320,208,124578,2,8,L|352:160,1,50
192,208,124753,2,8,L|160:160,1,50
368,160,124927,6,8,L|384:128,16,25,10|8|8|8|8|8|8|8|8|8|8|8|8|8|8|8|14,0:0|0:0|0:0|0:0|0:0|0:0|0:0|0:0|0:0|0:0|0:0|0:0|0:0|0:0|0:0|0:0|0:0,0:0:0:0:
256,192,125799,12,0,131206,0:0:0:0:
