osu file format v14

[General]
AudioFilename: audio.mp3
AudioLeadIn: 0
PreviewTime: 29662
Countdown: 0
SampleSet: Normal
StackLeniency: 0.7
Mode: 3
LetterboxInBreaks: 0
SpecialStyle: 0
WidescreenStoryboard: 0

[Editor]
Bookmarks: 562,11724,17306,22887,28469,29864,35445,39631,41027,46608,52190,57771,63352,68934,80097,91259,96841,102422,108004,113585,124748
DistanceSpacing: 1.3
BeatDivisor: 4
GridSize: 32
TimelineZoom: 3

[Metadata]
Title:perditus paradisus
TitleUnicode:perditus†paradisus
Artist:iconoclasm
ArtistUnicode:iconoclasm
Creator:Mrriichi
Version:4k
Source:beatmaniaIIDX 18 Resort Anthem
Tags:
BeatmapID:1324921
BeatmapSetID:610172

[Difficulty]
HPDrainRate:5
CircleSize:4
OverallDifficulty:5
ApproachRate:5
SliderMultiplier:1.4
SliderTickRate:1

[Events]
//Background and Video events
0,0,"yuhi_002.jpg",0,0
//Break Periods
//Storyboard Layer 0 (Background)
//Storyboard Layer 1 (Fail)
//Storyboard Layer 2 (Pass)
//Storyboard Layer 3 (Foreground)
//Storyboard Sound Samples

[TimingPoints]
526,348.937209302326,4,1,0,75,1,0
29852,-100,4,1,0,75,0,1
41015,-100,4,1,0,75,0,0
113573,-100,4,1,0,75,0,1
124736,-100,4,1,0,75,0,0

[HitObjects]
192,192,11517,5,0,0:0:0:0:
64,192,11691,1,0,0:0:0:0:
448,192,11691,1,0,0:0:0:0:
320,192,11866,1,0,0:0:0:0:
192,192,11953,1,0,0:0:0:0:
320,192,12040,1,0,0:0:0:0:
64,192,12215,1,0,0:0:0:0:
192,192,12302,1,0,0:0:0:0:
448,192,12477,1,0,0:0:0:0:
320,192,12564,1,0,0:0:0:0:
192,192,12738,1,0,0:0:0:0:
320,192,12826,1,0,0:0:0:0:
192,192,12913,1,0,0:0:0:0:
448,192,13087,1,0,0:0:0:0:
64,192,13087,1,0,0:0:0:0:
320,192,13262,1,0,0:0:0:0:
192,192,13349,1,0,0:0:0:0:
320,192,13436,1,0,0:0:0:0:
64,192,13611,1,0,0:0:0:0:
192,192,13698,1,0,0:0:0:0:
448,192,13872,1,0,0:0:0:0:
320,192,13960,1,0,0:0:0:0:
192,192,14134,1,0,0:0:0:0:
320,192,14221,1,0,0:0:0:0:
192,192,14309,1,0,0:0:0:0:
320,192,14396,1,0,0:0:0:0:
64,192,14483,1,0,0:0:0:0:
448,192,14483,1,0,0:0:0:0:
192,192,14657,1,0,0:0:0:0:
320,192,14745,1,0,0:0:0:0:
192,192,14832,1,0,0:0:0:0:
64,192,15006,1,0,0:0:0:0:
192,192,15094,1,0,0:0:0:0:
448,192,15268,1,0,0:0:0:0:
320,192,15355,1,0,0:0:0:0:
192,192,15530,1,0,0:0:0:0:
320,192,15617,1,0,0:0:0:0:
192,192,15704,1,0,0:0:0:0:
64,192,15879,1,0,0:0:0:0:
448,192,15879,1,0,0:0:0:0:
320,192,16053,1,0,0:0:0:0:
192,192,16140,1,0,0:0:0:0:
320,192,16228,1,0,0:0:0:0:
64,192,16402,1,0,0:0:0:0:
192,192,16489,1,0,0:0:0:0:
448,192,16664,1,0,0:0:0:0:
320,192,16751,1,0,0:0:0:0:
192,192,16926,1,0,0:0:0:0:
320,192,17013,1,0,0:0:0:0:
192,192,17100,1,0,0:0:0:0:
320,192,17187,1,0,0:0:0:0:
64,192,17274,1,0,0:0:0:0:
448,192,17274,1,0,0:0:0:0:
192,192,17274,1,0,0:0:0:0:
320,192,17449,1,0,0:0:0:0:
192,192,17536,1,0,0:0:0:0:
320,192,17623,1,0,0:0:0:0:
64,192,17798,1,0,0:0:0:0:
320,192,17885,1,0,0:0:0:0:
192,192,18060,1,0,0:0:0:0:
448,192,18147,1,0,0:0:0:0:
64,192,18234,1,0,0:0:0:0:
192,192,18321,1,0,0:0:0:0:
320,192,18409,1,0,0:0:0:0:
192,192,18496,1,0,0:0:0:0:
320,192,18583,1,0,0:0:0:0:
64,192,18670,1,0,0:0:0:0:
448,192,18670,1,0,0:0:0:0:
192,192,18845,1,0,0:0:0:0:
320,192,18932,1,0,0:0:0:0:
192,192,19019,1,0,0:0:0:0:
448,192,19194,1,0,0:0:0:0:
192,192,19281,1,0,0:0:0:0:
320,192,19455,1,0,0:0:0:0:
64,192,19543,1,0,0:0:0:0:
448,192,19630,1,0,0:0:0:0:
320,192,19717,1,0,0:0:0:0:
192,192,19804,1,0,0:0:0:0:
320,192,19892,1,0,0:0:0:0:
192,192,19979,1,0,0:0:0:0:
448,192,20066,1,0,0:0:0:0:
64,192,20066,1,0,0:0:0:0:
320,192,20240,1,0,0:0:0:0:
192,192,20328,1,0,0:0:0:0:
320,192,20415,1,0,0:0:0:0:
64,192,20589,1,0,0:0:0:0:
320,192,20677,1,0,0:0:0:0:
192,192,20851,1,0,0:0:0:0:
448,192,20938,1,0,0:0:0:0:
64,192,21026,1,0,0:0:0:0:
192,192,21113,1,0,0:0:0:0:
320,192,21200,1,0,0:0:0:0:
192,192,21287,1,0,0:0:0:0:
320,192,21374,1,0,0:0:0:0:
448,192,21462,1,0,0:0:0:0:
64,192,21462,1,0,0:0:0:0:
192,192,21636,1,0,0:0:0:0:
320,192,21723,1,0,0:0:0:0:
192,192,21811,1,0,0:0:0:0:
448,192,21985,1,0,0:0:0:0:
192,192,22072,1,0,0:0:0:0:
320,192,22247,1,0,0:0:0:0:
64,192,22334,1,0,0:0:0:0:
448,192,22421,1,0,0:0:0:0:
320,192,22509,1,0,0:0:0:0:
192,192,22596,1,0,0:0:0:0:
320,192,22683,1,0,0:0:0:0:
448,192,22683,1,0,0:0:0:0:
192,192,22770,1,0,0:0:0:0:
448,192,22857,1,0,0:0:0:0:
64,192,22857,1,0,0:0:0:0:
320,192,23032,1,0,0:0:0:0:
448,192,23119,1,0,0:0:0:0:
320,192,23206,1,0,0:0:0:0:
192,192,23294,1,0,0:0:0:0:
320,192,23381,1,0,0:0:0:0:
448,192,23468,1,0,0:0:0:0:
64,192,23555,1,0,0:0:0:0:
320,192,23555,1,0,0:0:0:0:
192,192,23643,1,0,0:0:0:0:
64,192,23730,1,0,0:0:0:0:
192,192,23817,1,0,0:0:0:0:
320,192,23904,1,0,0:0:0:0:
192,192,23992,1,0,0:0:0:0:
64,192,24079,1,0,0:0:0:0:
192,192,24166,1,0,0:0:0:0:
64,192,24253,1,0,0:0:0:0:
448,192,24253,1,0,0:0:0:0:
192,192,24428,1,0,0:0:0:0:
64,192,24515,1,0,0:0:0:0:
192,192,24602,1,0,0:0:0:0:
320,192,24689,1,0,0:0:0:0:
192,192,24777,1,0,0:0:0:0:
64,192,24864,1,0,0:0:0:0:
448,192,24951,1,0,0:0:0:0:
192,192,24951,1,0,0:0:0:0:
320,192,25038,1,0,0:0:0:0:
448,192,25126,1,0,0:0:0:0:
320,192,25213,1,0,0:0:0:0:
192,192,25300,1,0,0:0:0:0:
320,192,25387,1,0,0:0:0:0:
448,192,25475,1,0,0:0:0:0:
320,192,25562,1,0,0:0:0:0:
448,192,25649,1,0,0:0:0:0:
192,192,25649,1,0,0:0:0:0:
64,192,25649,1,0,0:0:0:0:
320,192,25823,1,0,0:0:0:0:
448,192,25911,1,0,0:0:0:0:
192,192,25998,1,0,0:0:0:0:
320,192,26085,1,0,0:0:0:0:
64,192,26172,1,0,0:0:0:0:
192,192,26260,1,0,0:0:0:0:
320,192,26347,1,0,0:0:0:0:
448,192,26347,1,0,0:0:0:0:
64,192,26347,1,0,0:0:0:0:
192,192,26521,1,0,0:0:0:0:
64,192,26609,1,0,0:0:0:0:
320,192,26696,1,0,0:0:0:0:
192,192,26783,1,0,0:0:0:0:
448,192,26870,1,0,0:0:0:0:
320,192,26957,1,0,0:0:0:0:
64,192,27045,1,0,0:0:0:0:
192,192,27045,1,0,0:0:0:0:
448,192,27045,1,0,0:0:0:0:
320,192,27219,1,0,0:0:0:0:
192,192,27306,1,0,0:0:0:0:
64,192,27394,1,0,0:0:0:0:
448,192,27394,1,0,0:0:0:0:
320,192,27394,1,0,0:0:0:0:
192,192,27568,1,0,0:0:0:0:
320,192,27655,1,0,0:0:0:0:
64,192,27743,1,0,0:0:0:0:
448,192,27743,1,0,0:0:0:0:
192,192,27743,1,0,0:0:0:0:
64,192,27917,1,0,0:0:0:0:
192,192,27917,1,0,0:0:0:0:
320,192,27917,1,0,0:0:0:0:
448,192,27917,1,0,0:0:0:0:
320,192,28092,1,0,0:0:0:0:
448,192,28092,1,0,0:0:0:0:
64,192,28179,1,0,0:0:0:0:
192,192,28179,1,0,0:0:0:0:
320,192,28266,1,0,0:0:0:0:
448,192,28266,1,0,0:0:0:0:
64,192,28353,1,0,0:0:0:0:
192,192,28353,1,0,0:0:0:0:
448,192,28440,1,0,0:0:0:0:
64,192,28615,1,0,0:0:0:0:
320,192,28789,1,0,0:0:0:0:
192,192,28964,1,0,0:0:0:0:
448,192,29138,1,0,0:0:0:0:
320,192,29226,1,0,0:0:0:0:
192,192,29313,1,0,0:0:0:0:
64,192,29400,1,0,0:0:0:0:
320,192,29487,1,0,0:0:0:0:
192,192,29575,1,0,0:0:0:0:
320,192,29662,1,0,0:0:0:0:
64,192,29836,1,0,0:0:0:0:
448,192,29836,1,0,0:0:0:0:
320,192,29923,1,0,0:0:0:0:
192,192,30011,1,0,0:0:0:0:
320,192,30098,1,0,0:0:0:0:
448,192,30185,1,0,0:0:0:0:
64,192,30185,1,0,0:0:0:0:
192,192,30272,1,0,0:0:0:0:
320,192,30360,1,0,0:0:0:0:
192,192,30447,1,0,0:0:0:0:
64,192,30534,1,0,0:0:0:0:
448,192,30534,1,0,0:0:0:0:
320,192,30621,1,0,0:0:0:0:
192,192,30709,1,0,0:0:0:0:
320,192,30796,1,0,0:0:0:0:
192,192,30883,1,0,0:0:0:0:
64,192,30970,1,0,0:0:0:0:
192,192,31058,1,0,0:0:0:0:
320,192,31145,1,0,0:0:0:0:
64,192,31232,1,0,0:0:0:0:
448,192,31232,1,0,0:0:0:0:
192,192,31319,1,0,0:0:0:0:
320,192,31406,1,0,0:0:0:0:
192,192,31494,1,0,0:0:0:0:
64,192,31581,1,0,0:0:0:0:
448,192,31581,1,0,0:0:0:0:
320,192,31668,1,0,0:0:0:0:
192,192,31755,1,0,0:0:0:0:
320,192,31843,1,0,0:0:0:0:
448,192,31930,1,0,0:0:0:0:
64,192,31930,1,0,0:0:0:0:
192,192,32017,1,0,0:0:0:0:
320,192,32104,1,0,0:0:0:0:
192,192,32192,1,0,0:0:0:0:
320,192,32279,1,0,0:0:0:0:
448,192,32366,1,0,0:0:0:0:
320,192,32453,1,0,0:0:0:0:
192,192,32540,1,0,0:0:0:0:
64,192,32628,1,0,0:0:0:0:
448,192,32628,1,0,0:0:0:0:
320,192,32715,1,0,0:0:0:0:
192,192,32802,1,0,0:0:0:0:
64,192,32889,1,0,0:0:0:0:
320,192,32977,1,0,0:0:0:0:
192,192,33064,1,0,0:0:0:0:
64,192,33151,1,0,0:0:0:0:
192,192,33238,1,0,0:0:0:0:
448,192,33326,1,0,0:0:0:0:
64,192,33326,1,0,0:0:0:0:
192,192,33413,1,0,0:0:0:0:
320,192,33500,1,0,0:0:0:0:
448,192,33587,1,0,0:0:0:0:
192,192,33675,1,0,0:0:0:0:
320,192,33762,1,0,0:0:0:0:
448,192,33849,1,0,0:0:0:0:
320,192,33936,1,0,0:0:0:0:
64,192,34023,1,0,0:0:0:0:
448,192,34023,1,0,0:0:0:0:
192,192,34111,1,0,0:0:0:0:
64,192,34198,1,0,0:0:0:0:
192,192,34285,1,0,0:0:0:0:
64,192,34372,1,0,0:0:0:0:
448,192,34372,1,0,0:0:0:0:
320,192,34460,1,0,0:0:0:0:
448,192,34547,1,0,0:0:0:0:
320,192,34634,1,0,0:0:0:0:
448,192,34721,1,0,0:0:0:0:
64,192,34721,1,0,0:0:0:0:
192,192,34809,1,0,0:0:0:0:
64,192,34896,1,0,0:0:0:0:
448,192,34896,1,0,0:0:0:0:
320,192,34983,1,0,0:0:0:0:
64,192,35070,1,0,0:0:0:0:
448,192,35070,1,0,0:0:0:0:
192,192,35158,1,0,0:0:0:0:
320,192,35245,1,0,0:0:0:0:
448,192,35419,1,0,0:0:0:0:
64,192,35419,1,0,0:0:0:0:
192,192,35506,1,0,0:0:0:0:
320,192,35594,1,0,0:0:0:0:
192,192,35681,1,0,0:0:0:0:
64,192,35768,1,0,0:0:0:0:
448,192,35768,1,0,0:0:0:0:
320,192,35855,1,0,0:0:0:0:
192,192,35943,1,0,0:0:0:0:
320,192,36030,1,0,0:0:0:0:
448,192,36117,1,0,0:0:0:0:
64,192,36117,1,0,0:0:0:0:
192,192,36204,1,0,0:0:0:0:
320,192,36292,1,0,0:0:0:0:
192,192,36379,1,0,0:0:0:0:
320,192,36466,1,0,0:0:0:0:
448,192,36553,1,0,0:0:0:0:
320,192,36641,1,0,0:0:0:0:
192,192,36728,1,0,0:0:0:0:
448,192,36815,1,0,0:0:0:0:
64,192,36815,1,0,0:0:0:0:
320,192,36902,1,0,0:0:0:0:
192,192,36989,1,0,0:0:0:0:
320,192,37077,1,0,0:0:0:0:
448,192,37164,1,0,0:0:0:0:
64,192,37164,1,0,0:0:0:0:
192,192,37251,1,0,0:0:0:0:
320,192,37338,1,0,0:0:0:0:
192,192,37426,1,0,0:0:0:0:
64,192,37513,1,0,0:0:0:0:
448,192,37513,1,0,0:0:0:0:
320,192,37600,1,0,0:0:0:0:
192,192,37687,1,0,0:0:0:0:
320,192,37775,1,0,0:0:0:0:
192,192,37862,1,0,0:0:0:0:
64,192,37949,1,0,0:0:0:0:
192,192,38036,1,0,0:0:0:0:
320,192,38123,1,0,0:0:0:0:
448,192,38211,1,0,0:0:0:0:
64,192,38211,1,0,0:0:0:0:
192,192,38298,1,0,0:0:0:0:
320,192,38385,1,0,0:0:0:0:
448,192,38472,1,0,0:0:0:0:
192,192,38560,1,0,0:0:0:0:
320,192,38647,1,0,0:0:0:0:
448,192,38734,1,0,0:0:0:0:
320,192,38821,1,0,0:0:0:0:
64,192,38909,1,0,0:0:0:0:
448,192,38909,1,0,0:0:0:0:
320,192,38996,1,0,0:0:0:0:
192,192,39083,1,0,0:0:0:0:
64,192,39170,1,0,0:0:0:0:
320,192,39258,1,0,0:0:0:0:
192,192,39345,1,0,0:0:0:0:
64,192,39432,1,0,0:0:0:0:
192,192,39519,1,0,0:0:0:0:
448,192,39606,1,0,0:0:0:0:
64,192,39606,1,0,0:0:0:0:
320,192,39694,1,0,0:0:0:0:
448,192,39781,1,0,0:0:0:0:
192,192,39868,1,0,0:0:0:0:
448,192,39955,1,0,0:0:0:0:
64,192,39955,1,0,0:0:0:0:
192,192,40043,1,0,0:0:0:0:
64,192,40130,1,0,0:0:0:0:
320,192,40217,1,0,0:0:0:0:
64,192,40304,1,0,0:0:0:0:
192,192,40392,1,0,0:0:0:0:
320,192,40479,1,0,0:0:0:0:
448,192,40566,1,0,0:0:0:0:
64,192,40653,1,0,0:0:0:0:
192,192,40711,1,0,0:0:0:0:
320,192,40770,1,0,0:0:0:0:
192,192,40828,1,0,0:0:0:0:
320,192,40886,1,0,0:0:0:0:
448,192,40944,1,0,0:0:0:0:
64,192,41002,1,0,0:0:0:0:
192,192,41089,1,0,0:0:0:0:
64,192,41177,1,0,0:0:0:0:
192,192,41264,1,0,0:0:0:0:
448,192,41351,1,0,0:0:0:0:
320,192,41351,1,0,0:0:0:0:
192,192,41526,1,0,0:0:0:0:
448,192,41700,1,0,0:0:0:0:
320,192,41787,1,0,0:0:0:0:
64,192,41875,1,0,0:0:0:0:
192,192,41962,1,0,0:0:0:0:
448,192,42049,1,0,0:0:0:0:
320,192,42136,1,0,0:0:0:0:
448,192,42223,1,0,0:0:0:0:
320,192,42311,1,0,0:0:0:0:
448,192,42398,1,0,0:0:0:0:
64,192,42398,1,0,0:0:0:0:
192,192,42485,1,0,0:0:0:0:
320,192,42572,1,0,0:0:0:0:
448,192,42660,1,0,0:0:0:0:
192,192,42747,1,0,0:0:0:0:
320,192,42834,1,0,0:0:0:0:
448,192,42921,1,0,0:0:0:0:
320,192,43009,1,0,0:0:0:0:
448,192,43096,1,0,0:0:0:0:
320,192,43183,1,0,0:0:0:0:
192,192,43270,1,0,0:0:0:0:
64,192,43358,1,0,0:0:0:0:
320,192,43445,1,0,0:0:0:0:
192,192,43532,1,0,0:0:0:0:
192,192,43706,1,0,0:0:0:0:
448,192,43794,1,0,0:0:0:0:
320,192,43881,1,0,0:0:0:0:
448,192,43968,1,0,0:0:0:0:
320,192,44055,1,0,0:0:0:0:
64,192,44143,1,0,0:0:0:0:
192,192,44143,1,0,0:0:0:0:
320,192,44317,1,0,0:0:0:0:
64,192,44492,1,0,0:0:0:0:
192,192,44579,1,0,0:0:0:0:
448,192,44666,1,0,0:0:0:0:
320,192,44753,1,0,0:0:0:0:
64,192,44841,1,0,0:0:0:0:
192,192,44928,1,0,0:0:0:0:
64,192,45015,1,0,0:0:0:0:
192,192,45102,1,0,0:0:0:0:
64,192,45189,1,0,0:0:0:0:
448,192,45189,1,0,0:0:0:0:
320,192,45277,1,0,0:0:0:0:
192,192,45364,1,0,0:0:0:0:
64,192,45451,1,0,0:0:0:0:
320,192,45538,1,0,0:0:0:0:
192,192,45626,1,0,0:0:0:0:
64,192,45713,1,0,0:0:0:0:
192,192,45800,1,0,0:0:0:0:
64,192,45887,1,0,0:0:0:0:
192,192,45975,1,0,0:0:0:0:
320,192,46062,1,0,0:0:0:0:
448,192,46149,1,0,0:0:0:0:
192,192,46236,1,0,0:0:0:0:
320,192,46324,1,0,0:0:0:0:
448,192,46411,1,0,0:0:0:0:
320,192,46498,1,0,0:0:0:0:
64,192,46585,1,0,0:0:0:0:
192,192,46672,1,0,0:0:0:0:
64,192,46760,1,0,0:0:0:0:
192,192,46847,1,0,0:0:0:0:
320,192,46934,1,0,0:0:0:0:
448,192,47021,1,0,0:0:0:0:
320,192,47109,1,0,0:0:0:0:
192,192,47196,1,0,0:0:0:0:
448,192,47283,1,0,0:0:0:0:
320,192,47370,1,0,0:0:0:0:
64,192,47458,1,0,0:0:0:0:
192,192,47545,1,0,0:0:0:0:
448,192,47632,1,0,0:0:0:0:
320,192,47719,1,0,0:0:0:0:
448,192,47806,1,0,0:0:0:0:
320,192,47894,1,0,0:0:0:0:
64,192,47981,1,0,0:0:0:0:
192,192,48068,1,0,0:0:0:0:
320,192,48155,1,0,0:0:0:0:
448,192,48243,1,0,0:0:0:0:
192,192,48330,1,0,0:0:0:0:
320,192,48417,1,0,0:0:0:0:
448,192,48504,1,0,0:0:0:0:
320,192,48592,1,0,0:0:0:0:
448,192,48679,1,0,0:0:0:0:
320,192,48766,1,0,0:0:0:0:
192,192,48853,1,0,0:0:0:0:
64,192,48941,1,0,0:0:0:0:
320,192,49028,1,0,0:0:0:0:
192,192,49115,1,0,0:0:0:0:
320,192,49202,1,0,0:0:0:0:
448,192,49377,1,0,0:0:0:0:
320,192,49464,1,0,0:0:0:0:
448,192,49551,1,0,0:0:0:0:
320,192,49638,1,0,0:0:0:0:
192,192,49726,1,0,0:0:0:0:
64,192,49813,1,0,0:0:0:0:
192,192,49900,1,0,0:0:0:0:
320,192,49987,1,0,0:0:0:0:
64,192,50075,1,0,0:0:0:0:
192,192,50162,1,0,0:0:0:0:
448,192,50249,1,0,0:0:0:0:
320,192,50336,1,0,0:0:0:0:
64,192,50424,1,0,0:0:0:0:
192,192,50511,1,0,0:0:0:0:
64,192,50598,1,0,0:0:0:0:
192,192,50685,1,0,0:0:0:0:
448,192,50772,1,0,0:0:0:0:
320,192,50860,1,0,0:0:0:0:
192,192,50947,1,0,0:0:0:0:
64,192,51034,1,0,0:0:0:0:
320,192,51121,1,0,0:0:0:0:
192,192,51209,1,0,0:0:0:0:
64,192,51296,1,0,0:0:0:0:
192,192,51383,1,0,0:0:0:0:
64,192,51470,1,0,0:0:0:0:
192,192,51558,1,0,0:0:0:0:
320,192,51645,1,0,0:0:0:0:
448,192,51732,1,0,0:0:0:0:
64,192,51819,1,0,0:0:0:0:
192,192,51877,1,0,0:0:0:0:
320,192,51936,1,0,0:0:0:0:
192,192,51994,1,0,0:0:0:0:
320,192,52052,1,0,0:0:0:0:
448,192,52110,1,0,0:0:0:0:
64,192,52168,1,0,0:0:0:0:
192,192,52255,1,0,0:0:0:0:
64,192,52343,1,0,0:0:0:0:
192,192,52430,1,0,0:0:0:0:
448,192,52430,1,0,0:0:0:0:
448,192,52517,1,0,0:0:0:0:
192,192,52517,1,0,0:0:0:0:
320,192,52692,1,0,0:0:0:0:
448,192,52866,1,0,0:0:0:0:
320,192,52953,1,0,0:0:0:0:
64,192,53041,1,0,0:0:0:0:
192,192,53128,1,0,0:0:0:0:
448,192,53128,1,0,0:0:0:0:
448,192,53215,1,0,0:0:0:0:
192,192,53215,1,0,0:0:0:0:
320,192,53389,1,0,0:0:0:0:
448,192,53564,1,0,0:0:0:0:
64,192,53564,1,0,0:0:0:0:
192,192,53651,1,0,0:0:0:0:
320,192,53738,1,0,0:0:0:0:
448,192,53826,1,0,0:0:0:0:
192,192,53826,1,0,0:0:0:0:
192,192,53913,1,0,0:0:0:0:
448,192,53913,1,0,0:0:0:0:
320,192,54000,1,0,0:0:0:0:
448,192,54087,1,0,0:0:0:0:
320,192,54175,1,0,0:0:0:0:
448,192,54262,1,0,0:0:0:0:
320,192,54349,1,0,0:0:0:0:
192,192,54436,1,0,0:0:0:0:
64,192,54524,1,0,0:0:0:0:
320,192,54524,1,0,0:0:0:0:
320,192,54611,1,0,0:0:0:0:
64,192,54611,1,0,0:0:0:0:
192,192,54785,1,0,0:0:0:0:
448,192,54960,1,0,0:0:0:0:
320,192,55047,1,0,0:0:0:0:
448,192,55134,1,0,0:0:0:0:
320,192,55221,1,0,0:0:0:0:
64,192,55221,1,0,0:0:0:0:
64,192,55309,1,0,0:0:0:0:
320,192,55309,1,0,0:0:0:0:
192,192,55483,1,0,0:0:0:0:
64,192,55658,1,0,0:0:0:0:
192,192,55745,1,0,0:0:0:0:
448,192,55832,1,0,0:0:0:0:
320,192,55919,1,0,0:0:0:0:
64,192,55919,1,0,0:0:0:0:
64,192,56007,1,0,0:0:0:0:
320,192,56007,1,0,0:0:0:0:
192,192,56181,1,0,0:0:0:0:
64,192,56355,1,0,0:0:0:0:
448,192,56355,1,0,0:0:0:0:
320,192,56443,1,0,0:0:0:0:
192,192,56530,1,0,0:0:0:0:
64,192,56617,1,0,0:0:0:0:
320,192,56617,1,0,0:0:0:0:
320,192,56704,1,0,0:0:0:0:
64,192,56704,1,0,0:0:0:0:
192,192,56792,1,0,0:0:0:0:
64,192,56879,1,0,0:0:0:0:
192,192,56966,1,0,0:0:0:0:
64,192,57053,1,0,0:0:0:0:
192,192,57141,1,0,0:0:0:0:
320,192,57228,1,0,0:0:0:0:
448,192,57315,1,0,0:0:0:0:
192,192,57315,1,0,0:0:0:0:
192,192,57402,1,0,0:0:0:0:
448,192,57402,1,0,0:0:0:0:
320,192,57577,1,0,0:0:0:0:
64,192,57751,1,0,0:0:0:0:
448,192,57751,1,0,0:0:0:0:
192,192,57838,1,0,0:0:0:0:
64,192,57926,1,0,0:0:0:0:
192,192,58013,1,0,0:0:0:0:
320,192,58100,1,0,0:0:0:0:
64,192,58100,1,0,0:0:0:0:
448,192,58187,1,0,0:0:0:0:
320,192,58275,1,0,0:0:0:0:
192,192,58362,1,0,0:0:0:0:
448,192,58449,1,0,0:0:0:0:
320,192,58536,1,0,0:0:0:0:
64,192,58624,1,0,0:0:0:0:
192,192,58711,1,0,0:0:0:0:
448,192,58798,1,0,0:0:0:0:
64,192,58798,1,0,0:0:0:0:
320,192,58885,1,0,0:0:0:0:
448,192,58972,1,0,0:0:0:0:
320,192,59060,1,0,0:0:0:0:
64,192,59147,1,0,0:0:0:0:
192,192,59234,1,0,0:0:0:0:
320,192,59321,1,0,0:0:0:0:
448,192,59409,1,0,0:0:0:0:
192,192,59496,1,0,0:0:0:0:
64,192,59496,1,0,0:0:0:0:
320,192,59583,1,0,0:0:0:0:
448,192,59670,1,0,0:0:0:0:
320,192,59758,1,0,0:0:0:0:
448,192,59845,1,0,0:0:0:0:
320,192,59932,1,0,0:0:0:0:
192,192,60019,1,0,0:0:0:0:
64,192,60107,1,0,0:0:0:0:
320,192,60194,1,0,0:0:0:0:
448,192,60194,1,0,0:0:0:0:
192,192,60281,1,0,0:0:0:0:
64,192,60368,1,0,0:0:0:0:
448,192,60543,1,0,0:0:0:0:
64,192,60543,1,0,0:0:0:0:
320,192,60630,1,0,0:0:0:0:
448,192,60717,1,0,0:0:0:0:
320,192,60804,1,0,0:0:0:0:
192,192,60892,1,0,0:0:0:0:
448,192,60892,1,0,0:0:0:0:
64,192,60979,1,0,0:0:0:0:
192,192,61066,1,0,0:0:0:0:
320,192,61153,1,0,0:0:0:0:
64,192,61241,1,0,0:0:0:0:
192,192,61328,1,0,0:0:0:0:
448,192,61415,1,0,0:0:0:0:
320,192,61502,1,0,0:0:0:0:
64,192,61590,1,0,0:0:0:0:
448,192,61590,1,0,0:0:0:0:
192,192,61677,1,0,0:0:0:0:
64,192,61764,1,0,0:0:0:0:
192,192,61851,1,0,0:0:0:0:
64,192,61938,1,0,0:0:0:0:
448,192,61938,1,0,0:0:0:0:
320,192,62026,1,0,0:0:0:0:
192,192,62113,1,0,0:0:0:0:
64,192,62200,1,0,0:0:0:0:
320,192,62287,1,0,0:0:0:0:
192,192,62375,1,0,0:0:0:0:
64,192,62462,1,0,0:0:0:0:
192,192,62549,1,0,0:0:0:0:
64,192,62636,1,0,0:0:0:0:
320,192,62636,1,0,0:0:0:0:
192,192,62724,1,0,0:0:0:0:
448,192,62724,1,0,0:0:0:0:
320,192,62811,1,0,0:0:0:0:
64,192,62811,1,0,0:0:0:0:
448,192,62898,1,0,0:0:0:0:
192,192,62898,1,0,0:0:0:0:
64,192,62985,1,0,0:0:0:0:
320,192,62985,1,0,0:0:0:0:
192,192,63160,1,0,0:0:0:0:
448,192,63160,1,0,0:0:0:0:
64,192,63160,1,0,0:0:0:0:
64,192,63334,1,0,0:0:0:0:
320,192,63334,1,0,0:0:0:0:
448,192,63334,1,0,0:0:0:0:
448,192,63683,1,0,0:0:0:0:
192,192,63683,1,0,0:0:0:0:
192,192,63858,1,0,0:0:0:0:
448,192,63858,1,0,0:0:0:0:
448,192,63945,1,0,0:0:0:0:
192,192,63945,1,0,0:0:0:0:
64,192,64207,1,0,0:0:0:0:
192,192,64236,1,0,0:0:0:0:
320,192,64265,1,0,0:0:0:0:
448,192,64294,1,0,0:0:0:0:
64,192,64294,1,0,0:0:0:0:
448,192,64555,1,0,0:0:0:0:
320,192,64585,1,0,0:0:0:0:
192,192,64614,1,0,0:0:0:0:
64,192,64643,1,0,0:0:0:0:
448,192,64643,1,0,0:0:0:0:
320,192,66126,1,0,0:0:0:0:
320,192,66475,1,0,0:0:0:0:
320,192,66824,1,0,0:0:0:0:
320,192,66998,1,0,0:0:0:0:
320,192,67173,1,0,0:0:0:0:
320,192,67347,1,0,0:0:0:0:
64,192,67521,1,0,0:0:0:0:
448,192,67521,1,0,0:0:0:0:
192,192,67696,1,0,0:0:0:0:
320,192,67783,1,0,0:0:0:0:
448,192,67870,1,0,0:0:0:0:
64,192,67870,1,0,0:0:0:0:
320,192,68045,1,0,0:0:0:0:
192,192,68132,1,0,0:0:0:0:
64,192,68219,1,0,0:0:0:0:
448,192,68219,1,0,0:0:0:0:
320,192,68307,1,0,0:0:0:0:
192,192,68394,1,0,0:0:0:0:
320,192,68481,1,0,0:0:0:0:
448,192,68568,1,0,0:0:0:0:
64,192,68568,1,0,0:0:0:0:
192,192,68655,1,0,0:0:0:0:
320,192,68743,1,0,0:0:0:0:
192,192,68830,1,0,0:0:0:0:
64,192,68917,1,0,0:0:0:0:
448,192,68917,1,0,0:0:0:0:
192,192,69092,1,0,0:0:0:0:
320,192,69179,1,0,0:0:0:0:
448,192,69266,1,0,0:0:0:0:
64,192,69441,1,0,0:0:0:0:
192,192,69441,1,0,0:0:0:0:
320,192,69615,1,0,0:0:0:0:
448,192,69702,1,0,0:0:0:0:
320,192,69790,1,0,0:0:0:0:
192,192,69877,1,0,0:0:0:0:
320,192,69964,1,0,0:0:0:0:
192,192,70138,1,0,0:0:0:0:
320,192,70138,1,0,0:0:0:0:
448,192,70313,1,0,0:0:0:0:
64,192,70313,1,0,0:0:0:0:
320,192,70487,1,0,0:0:0:0:
192,192,70575,1,0,0:0:0:0:
64,192,70662,1,0,0:0:0:0:
448,192,70836,1,0,0:0:0:0:
320,192,70836,1,0,0:0:0:0:
192,192,71011,1,0,0:0:0:0:
64,192,71098,1,0,0:0:0:0:
192,192,71185,1,0,0:0:0:0:
320,192,71273,1,0,0:0:0:0:
192,192,71360,1,0,0:0:0:0:
320,192,71534,1,0,0:0:0:0:
192,192,71534,1,0,0:0:0:0:
64,192,71709,1,0,0:0:0:0:
448,192,71709,1,0,0:0:0:0:
192,192,71883,1,0,0:0:0:0:
320,192,71970,1,0,0:0:0:0:
448,192,72058,1,0,0:0:0:0:
64,192,72232,1,0,0:0:0:0:
192,192,72232,1,0,0:0:0:0:
192,192,72407,1,0,0:0:0:0:
320,192,72494,1,0,0:0:0:0:
192,192,72581,1,0,0:0:0:0:
64,192,72668,1,0,0:0:0:0:
192,192,72756,1,0,0:0:0:0:
448,192,72930,1,0,0:0:0:0:
320,192,72930,1,0,0:0:0:0:
448,192,73104,1,0,0:0:0:0:
64,192,73104,1,0,0:0:0:0:
320,192,73279,1,0,0:0:0:0:
192,192,73366,1,0,0:0:0:0:
64,192,73453,1,0,0:0:0:0:
448,192,73628,1,0,0:0:0:0:
320,192,73628,1,0,0:0:0:0:
320,192,73802,1,0,0:0:0:0:
192,192,73890,1,0,0:0:0:0:
320,192,73977,1,0,0:0:0:0:
448,192,74064,1,0,0:0:0:0:
320,192,74151,1,0,0:0:0:0:
64,192,74326,1,0,0:0:0:0:
192,192,74326,1,0,0:0:0:0:
64,192,74500,1,0,0:0:0:0:
448,192,74500,1,0,0:0:0:0:
192,192,74675,1,0,0:0:0:0:
320,192,74762,1,0,0:0:0:0:
448,192,74849,1,0,0:0:0:0:
320,192,74936,1,0,0:0:0:0:
64,192,75024,1,0,0:0:0:0:
192,192,75024,1,0,0:0:0:0:
320,192,75198,1,0,0:0:0:0:
448,192,75285,1,0,0:0:0:0:
320,192,75373,1,0,0:0:0:0:
192,192,75460,1,0,0:0:0:0:
320,192,75547,1,0,0:0:0:0:
64,192,75634,1,0,0:0:0:0:
192,192,75721,1,0,0:0:0:0:
320,192,75721,1,0,0:0:0:0:
448,192,75896,1,0,0:0:0:0:
64,192,75896,1,0,0:0:0:0:
320,192,76070,1,0,0:0:0:0:
192,192,76158,1,0,0:0:0:0:
64,192,76245,1,0,0:0:0:0:
192,192,76332,1,0,0:0:0:0:
448,192,76419,1,0,0:0:0:0:
320,192,76419,1,0,0:0:0:0:
192,192,76594,1,0,0:0:0:0:
64,192,76681,1,0,0:0:0:0:
192,192,76768,1,0,0:0:0:0:
320,192,76856,1,0,0:0:0:0:
192,192,76943,1,0,0:0:0:0:
448,192,77030,1,0,0:0:0:0:
320,192,77117,1,0,0:0:0:0:
192,192,77117,1,0,0:0:0:0:
64,192,77292,1,0,0:0:0:0:
448,192,77292,1,0,0:0:0:0:
192,192,77466,1,0,0:0:0:0:
320,192,77553,1,0,0:0:0:0:
448,192,77641,1,0,0:0:0:0:
320,192,77728,1,0,0:0:0:0:
64,192,77815,1,0,0:0:0:0:
192,192,77815,1,0,0:0:0:0:
192,192,77990,1,0,0:0:0:0:
320,192,78077,1,0,0:0:0:0:
192,192,78164,1,0,0:0:0:0:
64,192,78251,1,0,0:0:0:0:
448,192,78338,1,0,0:0:0:0:
320,192,78397,1,0,0:0:0:0:
192,192,78455,1,0,0:0:0:0:
320,192,78513,1,0,0:0:0:0:
192,192,78571,1,0,0:0:0:0:
64,192,78629,1,0,0:0:0:0:
448,192,78687,1,0,0:0:0:0:
320,192,78746,1,0,0:0:0:0:
192,192,78804,1,0,0:0:0:0:
64,192,78862,1,0,0:0:0:0:
192,192,78920,1,0,0:0:0:0:
320,192,78978,1,0,0:0:0:0:
448,192,79036,1,0,0:0:0:0:
320,192,79124,1,0,0:0:0:0:
192,192,79211,1,0,0:0:0:0:
64,192,79298,1,0,0:0:0:0:
448,192,79385,1,0,0:0:0:0:
192,192,79443,1,0,0:0:0:0:
448,192,79502,1,0,0:0:0:0:
192,192,79560,1,0,0:0:0:0:
448,192,79618,1,0,0:0:0:0:
192,192,79676,1,0,0:0:0:0:
448,192,79734,1,0,0:0:0:0:
64,192,79734,1,0,0:0:0:0:
320,192,79792,1,0,0:0:0:0:
64,192,79851,1,0,0:0:0:0:
320,192,79909,1,0,0:0:0:0:
64,192,79967,1,0,0:0:0:0:
320,192,80025,1,0,0:0:0:0:
64,192,80083,1,0,0:0:0:0:
192,192,80170,1,0,0:0:0:0:
320,192,80258,1,0,0:0:0:0:
448,192,80345,1,0,0:0:0:0:
64,192,80432,1,0,0:0:0:0:
192,192,80432,1,0,0:0:0:0:
320,192,80432,1,0,0:0:0:0:
448,192,80781,1,0,0:0:0:0:
320,192,80868,1,0,0:0:0:0:
192,192,80956,1,0,0:0:0:0:
320,192,81043,1,0,0:0:0:0:
64,192,81130,1,0,0:0:0:0:
192,192,81217,1,0,0:0:0:0:
320,192,81304,1,0,0:0:0:0:
192,192,81392,1,0,0:0:0:0:
448,192,81479,1,0,0:0:0:0:
320,192,81566,1,0,0:0:0:0:
192,192,81653,1,0,0:0:0:0:
64,192,81741,1,0,0:0:0:0:
320,192,81828,1,0,0:0:0:0:
192,192,81828,1,0,0:0:0:0:
448,192,81828,1,0,0:0:0:0:
64,192,82177,1,0,0:0:0:0:
192,192,82264,1,0,0:0:0:0:
320,192,82351,1,0,0:0:0:0:
192,192,82439,1,0,0:0:0:0:
448,192,82526,1,0,0:0:0:0:
320,192,82613,1,0,0:0:0:0:
192,192,82700,1,0,0:0:0:0:
320,192,82787,1,0,0:0:0:0:
64,192,82875,1,0,0:0:0:0:
192,192,82962,1,0,0:0:0:0:
320,192,83049,1,0,0:0:0:0:
448,192,83136,1,0,0:0:0:0:
320,192,83224,1,0,0:0:0:0:
64,192,83224,1,0,0:0:0:0:
192,192,83398,1,0,0:0:0:0:
64,192,83485,1,0,0:0:0:0:
448,192,83573,1,0,0:0:0:0:
320,192,83660,1,0,0:0:0:0:
192,192,83747,1,0,0:0:0:0:
320,192,83834,1,0,0:0:0:0:
64,192,83921,1,0,0:0:0:0:
192,192,84009,1,0,0:0:0:0:
320,192,84096,1,0,0:0:0:0:
192,192,84183,1,0,0:0:0:0:
448,192,84270,1,0,0:0:0:0:
320,192,84358,1,0,0:0:0:0:
192,192,84445,1,0,0:0:0:0:
64,192,84532,1,0,0:0:0:0:
448,192,84619,1,0,0:0:0:0:
192,192,84619,1,0,0:0:0:0:
320,192,84794,1,0,0:0:0:0:
448,192,84881,1,0,0:0:0:0:
64,192,84968,1,0,0:0:0:0:
192,192,85056,1,0,0:0:0:0:
320,192,85143,1,0,0:0:0:0:
192,192,85230,1,0,0:0:0:0:
448,192,85317,1,0,0:0:0:0:
320,192,85404,1,0,0:0:0:0:
192,192,85492,1,0,0:0:0:0:
320,192,85579,1,0,0:0:0:0:
64,192,85666,1,0,0:0:0:0:
192,192,85753,1,0,0:0:0:0:
320,192,85841,1,0,0:0:0:0:
448,192,85928,1,0,0:0:0:0:
192,192,86015,1,0,0:0:0:0:
320,192,86102,1,0,0:0:0:0:
64,192,86102,1,0,0:0:0:0:
64,192,86277,1,0,0:0:0:0:
320,192,86277,1,0,0:0:0:0:
448,192,86451,1,0,0:0:0:0:
192,192,86451,1,0,0:0:0:0:
448,192,86626,1,0,0:0:0:0:
192,192,86626,1,0,0:0:0:0:
320,192,86713,1,0,0:0:0:0:
192,192,86800,1,0,0:0:0:0:
64,192,86887,1,0,0:0:0:0:
192,192,86975,1,0,0:0:0:0:
448,192,87062,1,0,0:0:0:0:
320,192,87149,1,0,0:0:0:0:
192,192,87236,1,0,0:0:0:0:
64,192,87324,1,0,0:0:0:0:
320,192,87411,1,0,0:0:0:0:
192,192,87498,1,0,0:0:0:0:
448,192,87498,1,0,0:0:0:0:
448,192,87673,1,0,0:0:0:0:
192,192,87673,1,0,0:0:0:0:
64,192,87847,1,0,0:0:0:0:
320,192,87847,1,0,0:0:0:0:
64,192,88022,1,0,0:0:0:0:
320,192,88022,1,0,0:0:0:0:
192,192,88109,1,0,0:0:0:0:
320,192,88196,1,0,0:0:0:0:
448,192,88283,1,0,0:0:0:0:
320,192,88370,1,0,0:0:0:0:
64,192,88458,1,0,0:0:0:0:
192,192,88545,1,0,0:0:0:0:
320,192,88632,1,0,0:0:0:0:
448,192,88719,1,0,0:0:0:0:
192,192,88807,1,0,0:0:0:0:
64,192,88894,1,0,0:0:0:0:
320,192,88894,1,0,0:0:0:0:
192,192,88981,1,0,0:0:0:0:
320,192,89068,1,0,0:0:0:0:
64,192,89156,1,0,0:0:0:0:
448,192,89243,1,0,0:0:0:0:
192,192,89243,1,0,0:0:0:0:
320,192,89330,1,0,0:0:0:0:
448,192,89417,1,0,0:0:0:0:
320,192,89504,1,0,0:0:0:0:
192,192,89592,1,0,0:0:0:0:
64,192,89679,1,0,0:0:0:0:
192,192,89766,1,0,0:0:0:0:
448,192,89853,1,0,0:0:0:0:
320,192,89912,1,0,0:0:0:0:
192,192,89970,1,0,0:0:0:0:
64,192,90028,1,0,0:0:0:0:
192,192,90086,1,0,0:0:0:0:
320,192,90144,1,0,0:0:0:0:
192,192,90202,1,0,0:0:0:0:
64,192,90261,1,0,0:0:0:0:
192,192,90319,1,0,0:0:0:0:
320,192,90377,1,0,0:0:0:0:
192,192,90435,1,0,0:0:0:0:
320,192,90493,1,0,0:0:0:0:
448,192,90551,1,0,0:0:0:0:
320,192,90639,1,0,0:0:0:0:
192,192,90726,1,0,0:0:0:0:
320,192,90813,1,0,0:0:0:0:
448,192,90900,1,0,0:0:0:0:
192,192,90958,1,0,0:0:0:0:
320,192,91017,1,0,0:0:0:0:
192,192,91075,1,0,0:0:0:0:
320,192,91133,1,0,0:0:0:0:
192,192,91191,1,0,0:0:0:0:
64,192,91249,1,0,0:0:0:0:
448,192,91249,1,0,0:0:0:0:
64,192,91598,1,0,0:0:0:0:
192,192,91714,1,0,0:0:0:0:
320,192,91831,1,0,0:0:0:0:
192,192,91947,1,0,0:0:0:0:
320,192,92063,1,0,0:0:0:0:
448,192,92180,1,0,0:0:0:0:
320,192,92296,1,0,0:0:0:0:
192,192,92412,1,0,0:0:0:0:
64,192,92529,1,0,0:0:0:0:
448,192,92645,1,0,0:0:0:0:
320,192,92761,1,0,0:0:0:0:
192,192,92878,1,0,0:0:0:0:
320,192,92994,1,0,0:0:0:0:
192,192,93110,1,0,0:0:0:0:
64,192,93226,1,0,0:0:0:0:
448,192,93343,1,0,0:0:0:0:
320,192,93459,1,0,0:0:0:0:
192,192,93575,1,0,0:0:0:0:
64,192,93692,1,0,0:0:0:0:
448,192,93692,1,0,0:0:0:0:
320,192,93866,1,0,0:0:0:0:
192,192,93953,1,0,0:0:0:0:
64,192,94041,1,0,0:0:0:0:
448,192,94041,1,0,0:0:0:0:
448,192,94390,1,0,0:0:0:0:
320,192,94506,1,0,0:0:0:0:
192,192,94622,1,0,0:0:0:0:
320,192,94739,1,0,0:0:0:0:
192,192,94855,1,0,0:0:0:0:
64,192,94971,1,0,0:0:0:0:
192,192,95087,1,0,0:0:0:0:
320,192,95204,1,0,0:0:0:0:
448,192,95320,1,0,0:0:0:0:
64,192,95436,1,0,0:0:0:0:
192,192,95553,1,0,0:0:0:0:
320,192,95669,1,0,0:0:0:0:
192,192,95785,1,0,0:0:0:0:
320,192,95902,1,0,0:0:0:0:
448,192,96018,1,0,0:0:0:0:
64,192,96134,1,0,0:0:0:0:
192,192,96251,1,0,0:0:0:0:
320,192,96367,1,0,0:0:0:0:
448,192,96483,1,0,0:0:0:0:
64,192,96483,1,0,0:0:0:0:
192,192,96658,1,0,0:0:0:0:
320,192,96745,1,0,0:0:0:0:
448,192,96832,1,0,0:0:0:0:
64,192,96832,1,0,0:0:0:0:
320,192,97007,1,0,0:0:0:0:
192,192,97094,1,0,0:0:0:0:
64,192,97181,1,0,0:0:0:0:
448,192,97181,1,0,0:0:0:0:
192,192,97297,1,0,0:0:0:0:
320,192,97414,1,0,0:0:0:0:
192,192,97530,1,0,0:0:0:0:
448,192,97530,1,0,0:0:0:0:
320,192,97646,1,0,0:0:0:0:
448,192,97763,1,0,0:0:0:0:
320,192,97879,1,0,0:0:0:0:
64,192,97879,1,0,0:0:0:0:
192,192,97995,1,0,0:0:0:0:
64,192,98112,1,0,0:0:0:0:
448,192,98228,1,0,0:0:0:0:
192,192,98228,1,0,0:0:0:0:
320,192,98344,1,0,0:0:0:0:
192,192,98461,1,0,0:0:0:0:
320,192,98577,1,0,0:0:0:0:
64,192,98577,1,0,0:0:0:0:
192,192,98693,1,0,0:0:0:0:
64,192,98809,1,0,0:0:0:0:
448,192,98926,1,0,0:0:0:0:
192,192,98926,1,0,0:0:0:0:
320,192,99042,1,0,0:0:0:0:
192,192,99158,1,0,0:0:0:0:
64,192,99275,1,0,0:0:0:0:
448,192,99275,1,0,0:0:0:0:
320,192,99449,1,0,0:0:0:0:
192,192,99536,1,0,0:0:0:0:
64,192,99624,1,0,0:0:0:0:
448,192,99624,1,0,0:0:0:0:
192,192,99798,1,0,0:0:0:0:
320,192,99885,1,0,0:0:0:0:
448,192,99973,1,0,0:0:0:0:
64,192,99973,1,0,0:0:0:0:
320,192,100089,1,0,0:0:0:0:
192,192,100205,1,0,0:0:0:0:
320,192,100322,1,0,0:0:0:0:
64,192,100322,1,0,0:0:0:0:
192,192,100438,1,0,0:0:0:0:
64,192,100554,1,0,0:0:0:0:
192,192,100670,1,0,0:0:0:0:
448,192,100670,1,0,0:0:0:0:
320,192,100787,1,0,0:0:0:0:
448,192,100903,1,0,0:0:0:0:
64,192,101019,1,0,0:0:0:0:
320,192,101019,1,0,0:0:0:0:
192,192,101136,1,0,0:0:0:0:
320,192,101252,1,0,0:0:0:0:
192,192,101368,1,0,0:0:0:0:
448,192,101368,1,0,0:0:0:0:
320,192,101485,1,0,0:0:0:0:
448,192,101601,1,0,0:0:0:0:
64,192,101717,1,0,0:0:0:0:
320,192,101717,1,0,0:0:0:0:
192,192,101834,1,0,0:0:0:0:
320,192,101950,1,0,0:0:0:0:
448,192,102066,1,0,0:0:0:0:
64,192,102066,1,0,0:0:0:0:
192,192,102241,1,0,0:0:0:0:
320,192,102328,1,0,0:0:0:0:
448,192,102372,1,0,0:0:0:0:
64,192,102415,1,0,0:0:0:0:
192,192,102437,1,0,0:0:0:0:
320,192,102459,1,0,0:0:0:0:
448,192,102481,1,0,0:0:0:0:
448,192,105207,1,0,0:0:0:0:
320,192,105323,1,0,0:0:0:0:
192,192,105439,1,0,0:0:0:0:
64,192,105556,1,0,0:0:0:0:
192,192,105672,1,0,0:0:0:0:
320,192,105788,1,0,0:0:0:0:
448,192,105905,1,0,0:0:0:0:
320,192,105992,1,0,0:0:0:0:
192,192,106079,1,0,0:0:0:0:
320,192,106166,1,0,0:0:0:0:
64,192,106253,1,0,0:0:0:0:
192,192,106341,1,0,0:0:0:0:
320,192,106428,1,0,0:0:0:0:
192,192,106515,1,0,0:0:0:0:
64,192,106602,1,0,0:0:0:0:
192,192,106661,1,0,0:0:0:0:
320,192,106719,1,0,0:0:0:0:
192,192,106777,1,0,0:0:0:0:
320,192,106835,1,0,0:0:0:0:
448,192,106893,1,0,0:0:0:0:
64,192,106951,1,0,0:0:0:0:
192,192,107010,1,0,0:0:0:0:
320,192,107068,1,0,0:0:0:0:
448,192,107126,1,0,0:0:0:0:
320,192,107184,1,0,0:0:0:0:
192,192,107242,1,0,0:0:0:0:
448,192,107300,1,0,0:0:0:0:
320,192,107344,1,0,0:0:0:0:
192,192,107388,1,0,0:0:0:0:
64,192,107431,1,0,0:0:0:0:
448,192,107475,1,0,0:0:0:0:
320,192,107518,1,0,0:0:0:0:
192,192,107562,1,0,0:0:0:0:
64,192,107606,1,0,0:0:0:0:
320,192,107649,1,0,0:0:0:0:
448,192,107649,1,0,0:0:0:0:
448,192,107998,1,0,0:0:0:0:
320,192,108085,1,0,0:0:0:0:
192,192,108173,1,0,0:0:0:0:
320,192,108260,1,0,0:0:0:0:
64,192,108347,1,0,0:0:0:0:
192,192,108405,1,0,0:0:0:0:
320,192,108463,1,0,0:0:0:0:
448,192,108522,1,0,0:0:0:0:
320,192,108580,1,0,0:0:0:0:
192,192,108638,1,0,0:0:0:0:
64,192,108696,1,0,0:0:0:0:
192,192,108783,1,0,0:0:0:0:
320,192,108871,1,0,0:0:0:0:
192,192,108958,1,0,0:0:0:0:
448,192,109045,1,0,0:0:0:0:
320,192,109103,1,0,0:0:0:0:
192,192,109161,1,0,0:0:0:0:
64,192,109219,1,0,0:0:0:0:
192,192,109278,1,0,0:0:0:0:
320,192,109336,1,0,0:0:0:0:
448,192,109394,1,0,0:0:0:0:
320,192,109481,1,0,0:0:0:0:
192,192,109568,1,0,0:0:0:0:
320,192,109656,1,0,0:0:0:0:
64,192,109743,1,0,0:0:0:0:
192,192,109801,1,0,0:0:0:0:
320,192,109859,1,0,0:0:0:0:
448,192,109917,1,0,0:0:0:0:
320,192,109975,1,0,0:0:0:0:
192,192,110034,1,0,0:0:0:0:
64,192,110092,1,0,0:0:0:0:
192,192,110179,1,0,0:0:0:0:
320,192,110266,1,0,0:0:0:0:
192,192,110353,1,0,0:0:0:0:
448,192,110441,1,0,0:0:0:0:
320,192,110499,1,0,0:0:0:0:
192,192,110557,1,0,0:0:0:0:
64,192,110615,1,0,0:0:0:0:
192,192,110673,1,0,0:0:0:0:
320,192,110732,1,0,0:0:0:0:
448,192,110790,1,0,0:0:0:0:
320,192,110877,1,0,0:0:0:0:
448,192,110964,1,0,0:0:0:0:
320,192,111051,1,0,0:0:0:0:
64,192,111139,1,0,0:0:0:0:
192,192,111197,1,0,0:0:0:0:
320,192,111255,1,0,0:0:0:0:
192,192,111313,1,0,0:0:0:0:
320,192,111371,1,0,0:0:0:0:
448,192,111429,1,0,0:0:0:0:
64,192,111488,1,0,0:0:0:0:
192,192,111575,1,0,0:0:0:0:
64,192,111662,1,0,0:0:0:0:
192,192,111749,1,0,0:0:0:0:
448,192,111836,1,0,0:0:0:0:
320,192,111895,1,0,0:0:0:0:
192,192,111953,1,0,0:0:0:0:
320,192,112011,1,0,0:0:0:0:
192,192,112069,1,0,0:0:0:0:
64,192,112127,1,0,0:0:0:0:
448,192,112185,1,0,0:0:0:0:
320,192,112273,1,0,0:0:0:0:
192,192,112360,1,0,0:0:0:0:
64,192,112447,1,0,0:0:0:0:
192,192,112534,1,0,0:0:0:0:
320,192,112622,1,0,0:0:0:0:
448,192,112709,1,0,0:0:0:0:
320,192,112767,1,0,0:0:0:0:
192,192,112825,1,0,0:0:0:0:
64,192,112883,1,0,0:0:0:0:
192,192,112971,1,0,0:0:0:0:
448,192,113058,1,0,0:0:0:0:
320,192,113116,1,0,0:0:0:0:
192,192,113174,1,0,0:0:0:0:
64,192,113232,1,0,0:0:0:0:
192,192,113290,1,0,0:0:0:0:
320,192,113349,1,0,0:0:0:0:
448,192,113407,1,0,0:0:0:0:
320,192,113465,1,0,0:0:0:0:
192,192,113523,1,0,0:0:0:0:
64,192,113581,1,0,0:0:0:0:
320,192,113581,1,0,0:0:0:0:
448,192,113668,1,0,0:0:0:0:
192,192,113756,1,0,0:0:0:0:
320,192,113843,1,0,0:0:0:0:
448,192,113930,1,0,0:0:0:0:
192,192,113930,1,0,0:0:0:0:
64,192,114105,1,0,0:0:0:0:
320,192,114105,1,0,0:0:0:0:
192,192,114279,1,0,0:0:0:0:
320,192,114337,1,0,0:0:0:0:
448,192,114395,1,0,0:0:0:0:
64,192,114453,1,0,0:0:0:0:
192,192,114512,1,0,0:0:0:0:
320,192,114570,1,0,0:0:0:0:
448,192,114628,1,0,0:0:0:0:
320,192,114715,1,0,0:0:0:0:
192,192,114802,1,0,0:0:0:0:
64,192,114890,1,0,0:0:0:0:
448,192,114977,1,0,0:0:0:0:
192,192,114977,1,0,0:0:0:0:
64,192,115064,1,0,0:0:0:0:
320,192,115151,1,0,0:0:0:0:
192,192,115239,1,0,0:0:0:0:
64,192,115326,1,0,0:0:0:0:
320,192,115326,1,0,0:0:0:0:
192,192,115500,1,0,0:0:0:0:
448,192,115500,1,0,0:0:0:0:
320,192,115675,1,0,0:0:0:0:
192,192,115733,1,0,0:0:0:0:
64,192,115791,1,0,0:0:0:0:
448,192,115849,1,0,0:0:0:0:
320,192,115907,1,0,0:0:0:0:
192,192,115966,1,0,0:0:0:0:
64,192,116024,1,0,0:0:0:0:
192,192,116111,1,0,0:0:0:0:
320,192,116198,1,0,0:0:0:0:
448,192,116285,1,0,0:0:0:0:
64,192,116373,1,0,0:0:0:0:
320,192,116373,1,0,0:0:0:0:
448,192,116460,1,0,0:0:0:0:
192,192,116547,1,0,0:0:0:0:
320,192,116634,1,0,0:0:0:0:
448,192,116722,1,0,0:0:0:0:
192,192,116722,1,0,0:0:0:0:
320,192,116780,1,0,0:0:0:0:
192,192,116838,1,0,0:0:0:0:
64,192,116896,1,0,0:0:0:0:
320,192,116896,1,0,0:0:0:0:
192,192,117071,1,0,0:0:0:0:
320,192,117129,1,0,0:0:0:0:
448,192,117187,1,0,0:0:0:0:
64,192,117245,1,0,0:0:0:0:
320,192,117303,1,0,0:0:0:0:
192,192,117361,1,0,0:0:0:0:
448,192,117419,1,0,0:0:0:0:
320,192,117507,1,0,0:0:0:0:
192,192,117594,1,0,0:0:0:0:
64,192,117681,1,0,0:0:0:0:
448,192,117768,1,0,0:0:0:0:
192,192,117768,1,0,0:0:0:0:
64,192,117856,1,0,0:0:0:0:
320,192,117943,1,0,0:0:0:0:
192,192,118030,1,0,0:0:0:0:
64,192,118117,1,0,0:0:0:0:
320,192,118117,1,0,0:0:0:0:
192,192,118175,1,0,0:0:0:0:
320,192,118234,1,0,0:0:0:0:
192,192,118292,1,0,0:0:0:0:
448,192,118292,1,0,0:0:0:0:
320,192,118466,1,0,0:0:0:0:
192,192,118524,1,0,0:0:0:0:
64,192,118583,1,0,0:0:0:0:
448,192,118641,1,0,0:0:0:0:
192,192,118699,1,0,0:0:0:0:
320,192,118757,1,0,0:0:0:0:
64,192,118815,1,0,0:0:0:0:
192,192,118873,1,0,0:0:0:0:
320,192,118932,1,0,0:0:0:0:
192,192,118990,1,0,0:0:0:0:
320,192,119048,1,0,0:0:0:0:
448,192,119106,1,0,0:0:0:0:
64,192,119164,1,0,0:0:0:0:
320,192,119164,1,0,0:0:0:0:
448,192,119251,1,0,0:0:0:0:
192,192,119339,1,0,0:0:0:0:
64,192,119339,1,0,0:0:0:0:
320,192,119426,1,0,0:0:0:0:
448,192,119513,1,0,0:0:0:0:
192,192,119513,1,0,0:0:0:0:
64,192,119688,1,0,0:0:0:0:
320,192,119688,1,0,0:0:0:0:
448,192,119775,1,0,0:0:0:0:
320,192,119862,1,0,0:0:0:0:
192,192,119920,1,0,0:0:0:0:
64,192,119978,1,0,0:0:0:0:
448,192,120036,1,0,0:0:0:0:
192,192,120095,1,0,0:0:0:0:
320,192,120153,1,0,0:0:0:0:
448,192,120211,1,0,0:0:0:0:
320,192,120298,1,0,0:0:0:0:
192,192,120385,1,0,0:0:0:0:
64,192,120473,1,0,0:0:0:0:
448,192,120560,1,0,0:0:0:0:
192,192,120560,1,0,0:0:0:0:
64,192,120647,1,0,0:0:0:0:
320,192,120734,1,0,0:0:0:0:
192,192,120822,1,0,0:0:0:0:
64,192,120909,1,0,0:0:0:0:
320,192,120909,1,0,0:0:0:0:
192,192,121083,1,0,0:0:0:0:
448,192,121083,1,0,0:0:0:0:
64,192,121171,1,0,0:0:0:0:
192,192,121258,1,0,0:0:0:0:
320,192,121316,1,0,0:0:0:0:
448,192,121374,1,0,0:0:0:0:
64,192,121432,1,0,0:0:0:0:
320,192,121490,1,0,0:0:0:0:
192,192,121549,1,0,0:0:0:0:
64,192,121607,1,0,0:0:0:0:
192,192,121694,1,0,0:0:0:0:
320,192,121781,1,0,0:0:0:0:
448,192,121868,1,0,0:0:0:0:
64,192,121956,1,0,0:0:0:0:
320,192,121956,1,0,0:0:0:0:
192,192,122043,1,0,0:0:0:0:
448,192,122130,1,0,0:0:0:0:
320,192,122217,1,0,0:0:0:0:
64,192,122305,1,0,0:0:0:0:
192,192,122305,1,0,0:0:0:0:
320,192,122392,1,0,0:0:0:0:
448,192,122479,1,0,0:0:0:0:
192,192,122479,1,0,0:0:0:0:
320,192,122566,1,0,0:0:0:0:
64,192,122654,1,0,0:0:0:0:
192,192,122741,1,0,0:0:0:0:
448,192,122828,1,0,0:0:0:0:
320,192,122828,1,0,0:0:0:0:
192,192,122915,1,0,0:0:0:0:
64,192,123002,1,0,0:0:0:0:
320,192,123002,1,0,0:0:0:0:
192,192,123090,1,0,0:0:0:0:
448,192,123177,1,0,0:0:0:0:
320,192,123264,1,0,0:0:0:0:
64,192,123351,1,0,0:0:0:0:
448,192,123351,1,0,0:0:0:0:
192,192,123439,1,0,0:0:0:0:
64,192,123526,1,0,0:0:0:0:
448,192,123526,1,0,0:0:0:0:
320,192,123613,1,0,0:0:0:0:
64,192,123700,1,0,0:0:0:0:
448,192,123700,1,0,0:0:0:0:
192,192,123788,1,0,0:0:0:0:
448,192,123875,1,0,0:0:0:0:
64,192,123875,1,0,0:0:0:0:
320,192,123962,1,0,0:0:0:0:
64,192,124049,1,0,0:0:0:0:
448,192,124049,1,0,0:0:0:0:
192,192,124093,1,0,0:0:0:0:
320,192,124137,1,0,0:0:0:0:
448,192,124180,1,0,0:0:0:0:
320,192,124224,1,0,0:0:0:0:
192,192,124267,1,0,0:0:0:0:
64,192,124311,1,0,0:0:0:0:
192,192,124355,1,0,0:0:0:0:
320,192,124398,1,0,0:0:0:0:
448,192,124442,1,0,0:0:0:0:
320,192,124485,1,0,0:0:0:0:
192,192,124529,1,0,0:0:0:0:
64,192,124573,1,0,0:0:0:0:
192,192,124616,1,0,0:0:0:0:
320,192,124660,1,0,0:0:0:0:
448,192,124660,1,0,0:0:0:0:
