osu file format v14

[General]
AudioFilename: audio.mp3
AudioLeadIn: 0
PreviewTime: 86323
Countdown: 0
SampleSet: Soft
StackLeniency: 0.7
Mode: 3
LetterboxInBreaks: 0
SpecialStyle: 0
WidescreenStoryboard: 0

[Editor]
DistanceSpacing: 1.5
BeatDivisor: 4
GridSize: 8
TimelineZoom: 1.7

[Metadata]
Title:Zirkfied
TitleUnicode:Zirkfied
Artist:iconoclasm
ArtistUnicode:iconoclasm
Creator:Valentrixe
Version:Hyper
Source:beatmania IIDX 20 tricoro
Tags:Eon- SPACE REQUIEM (スペースレクイエム) Votum stellarum perditus†paradisus wac dj TAKA pop'n music Sunny Park REFLEC BEAT colette -summer- Q-pro, Mimi, Nyami & Pastel-kun no minna de uchuu sensou!!
BeatmapID:1059448
BeatmapSetID:497795

[Difficulty]
HPDrainRate:7.5
CircleSize:4
OverallDifficulty:8
ApproachRate:5
SliderMultiplier:1.4
SliderTickRate:1

[Events]
//Background and Video events
0,0,"4.png",0,0
//Break Periods
//Storyboard Layer 0 (Background)
//Storyboard Layer 1 (Fail)
//Storyboard Layer 2 (Pass)
//Storyboard Layer 3 (Foreground)
//Storyboard Sound Samples
Sample,103466,0,"soft-hitwhistle.wav",40

[TimingPoints]
609,285.714285714286,4,2,1,40,1,0
20037,-10,4,2,1,40,0,0
20109,-500,4,2,1,40,0,0
20894,-104.166666666667,4,2,1,40,0,0
20966,-103.092783505155,4,2,1,40,0,0
21037,-102.040816326531,4,2,1,40,0,0
21109,-101.010101010101,4,2,1,40,0,0
21180,-100,4,2,1,40,0,0
85823,-500,4,2,1,40,0,0
85859,-333.333333333333,4,2,1,40,0,0
85894,-250,4,2,1,40,0,0
85930,-200,4,2,1,40,0,0
85966,-166.666666666667,4,2,1,40,0,0
86001,-142.857142857143,4,2,1,40,0,0
86037,-125,4,2,1,40,0,0
86073,-111.111111111111,4,2,1,40,0,0
86109,-100,4,2,1,40,0,0
86144,-90.9090909090909,4,2,1,40,0,0
86180,-83.3333333333333,4,2,1,40,0,0
86251,-76.9230769230769,4,2,1,40,0,0
86323,-100,4,2,1,40,0,1
94323,-100,4,2,1,40,0,0
95466,-100,4,2,1,40,0,1
104609,-100,6,2,1,40,0,0
113751,-100,6,2,1,40,0,1
123466,-166.666666666667,6,2,1,40,0,1
123609,-83.3333333333333,6,2,1,40,0,1
123644,-76.9230769230769,6,2,1,40,0,1
123680,-71.4285714285714,6,2,1,40,0,1
123716,-66.6666666666667,6,2,1,40,0,1
123751,-100,6,2,1,40,0,0

[HitObjects]
320,192,609,5,0,0:0:0:0:
448,192,609,1,0,0:0:0:0:
192,192,1180,1,0,0:0:0:0:
64,192,1751,1,0,0:0:0:0:
448,192,1751,1,0,0:0:0:0:
320,192,2323,1,0,0:0:0:0:
448,192,2323,1,0,0:0:0:0:
64,192,2894,1,0,0:0:0:0:
320,192,2894,1,0,0:0:0:0:
448,192,3180,1,0,0:0:0:0:
64,192,3466,1,0,0:0:0:0:
192,192,3466,1,0,0:0:0:0:
192,192,3751,1,0,0:0:0:0:
320,192,3751,1,0,0:0:0:0:
320,192,4037,1,0,0:0:0:0:
448,192,4037,128,0,4609:0:0:0:0:
64,192,4609,128,0,5180:0:0:0:0:
192,192,4609,1,0,0:0:0:0:
448,192,5180,1,0,0:0:0:0:
320,192,5180,1,0,0:0:0:0:
192,192,5466,1,0,0:0:0:0:
320,192,5751,1,0,0:0:0:0:
64,192,5751,1,0,0:0:0:0:
192,192,6037,1,0,0:0:0:0:
320,192,6180,1,0,0:0:0:0:
448,192,6323,1,0,0:0:0:0:
64,192,6323,1,0,0:0:0:0:
192,192,6466,1,0,0:0:0:0:
320,192,6609,1,0,0:0:0:0:
448,192,6894,1,0,0:0:0:0:
192,192,6894,1,0,0:0:0:0:
64,192,7037,1,0,0:0:0:0:
320,192,7180,1,0,0:0:0:0:
192,192,7466,1,0,0:0:0:0:
64,192,7466,1,0,0:0:0:0:
192,192,7751,1,0,0:0:0:0:
320,192,7751,1,0,0:0:0:0:
320,192,8037,1,0,0:0:0:0:
448,192,8037,1,0,0:0:0:0:
192,192,8180,1,0,0:0:0:0:
448,192,8323,1,0,0:0:0:0:
320,192,8466,1,0,0:0:0:0:
192,192,8609,1,0,0:0:0:0:
64,192,8609,1,0,0:0:0:0:
64,192,9037,1,0,0:0:0:0:
192,192,9180,1,0,0:0:0:0:
448,192,9180,1,0,0:0:0:0:
320,192,9609,1,0,0:0:0:0:
448,192,9609,1,0,0:0:0:0:
192,192,9751,1,4,0:0:0:0:
64,192,9751,1,2,0:0:0:0:
448,192,9847,1,0,0:0:0:0:
320,192,9942,1,0,0:0:0:0:
64,192,10037,1,0,0:0:0:0:
192,192,10132,1,0,0:0:0:0:
320,192,10228,1,0,0:0:0:0:
448,192,10323,1,0,0:0:0:0:
192,192,10418,1,0,0:0:0:0:
64,192,10513,1,0,0:0:0:0:
320,192,10609,1,2,0:0:0:0:
448,192,10609,1,0,0:0:0:0:
320,192,10894,1,2,0:0:0:0:
64,192,10894,1,4,0:0:0:0:
448,192,10989,1,0,0:0:0:0:
192,192,11085,1,0,0:0:0:0:
320,192,11180,1,0,0:0:0:0:
448,192,11275,1,0,0:0:0:0:
64,192,11370,1,0,0:0:0:0:
192,192,11466,1,0,0:0:0:0:
320,192,11561,1,0,0:0:0:0:
448,192,11656,1,0,0:0:0:0:
192,192,11751,1,2,0:0:0:0:
64,192,11751,1,0,0:0:0:0:
192,192,12037,1,4,0:0:0:0:
448,192,12037,1,2,0:0:0:0:
320,192,12323,1,2,0:0:0:0:
448,192,12323,1,0,0:0:0:0:
320,192,12609,1,4,0:0:0:0:
64,192,12609,1,2,0:0:0:0:
192,192,12894,1,2,0:0:0:0:
64,192,12894,1,0,0:0:0:0:
320,192,13180,1,2,0:0:0:0:
448,192,13180,1,4,0:0:0:0:
64,192,13275,1,0,0:0:0:0:
192,192,13370,1,0,0:0:0:0:
448,192,13466,1,0,0:0:0:0:
320,192,13561,1,0,0:0:0:0:
192,192,13656,1,0,0:0:0:0:
64,192,13656,1,0,0:0:0:0:
320,192,13751,1,0,0:0:0:0:
448,192,13751,1,2,0:0:0:0:
320,192,14037,1,2,0:0:0:0:
192,192,14037,1,0,0:0:0:0:
192,192,14323,1,2,0:0:0:0:
64,192,14323,1,4,0:0:0:0:
448,192,14418,1,0,0:0:0:0:
320,192,14513,1,0,0:0:0:0:
64,192,14609,1,0,0:0:0:0:
192,192,14704,1,0,0:0:0:0:
320,192,14799,1,0,0:0:0:0:
448,192,14894,1,0,0:0:0:0:
192,192,14989,1,0,0:0:0:0:
64,192,15085,1,0,0:0:0:0:
320,192,15180,1,2,0:0:0:0:
448,192,15180,1,0,0:0:0:0:
320,192,15466,1,4,0:0:0:0:
64,192,15466,1,2,0:0:0:0:
448,192,15561,1,0,0:0:0:0:
192,192,15656,1,0,0:0:0:0:
64,192,15751,1,0,0:0:0:0:
320,192,15847,1,0,0:0:0:0:
448,192,15942,1,0,0:0:0:0:
64,192,16037,1,0,0:0:0:0:
192,192,16132,1,0,0:0:0:0:
320,192,16228,1,0,0:0:0:0:
448,192,16323,1,2,0:0:0:0:
64,192,16323,1,0,0:0:0:0:
192,192,16609,1,2,0:0:0:0:
320,192,16609,1,4,0:0:0:0:
448,192,16894,1,0,0:0:0:0:
192,192,16894,1,2,0:0:0:0:
320,192,17180,1,2,0:0:0:0:
448,192,17180,1,4,0:0:0:0:
320,192,17466,1,2,0:0:0:0:
64,192,17466,1,0,0:0:0:0:
64,192,17751,1,4,0:0:0:0:
192,192,17751,1,2,0:0:0:0:
448,192,17847,1,0,0:0:0:0:
320,192,17942,1,0,0:0:0:0:
64,192,18037,1,0,0:0:0:0:
192,192,18132,1,0,0:0:0:0:
320,192,18228,1,0,0:0:0:0:
448,192,18228,1,0,0:0:0:0:
64,192,18323,1,2,0:0:0:0:
192,192,18323,1,0,0:0:0:0:
64,192,18609,1,2,0:0:0:0:
320,192,18609,1,0,0:0:0:0:
192,192,18894,1,2,0:0:0:0:
448,192,18894,1,0,0:0:0:0:
64,192,18989,1,2,0:0:0:0:
320,192,19085,1,2,0:0:0:0:
448,192,19180,1,2,0:0:0:0:
64,192,19275,1,2,0:0:0:0:
192,192,19370,1,2,0:0:0:0:
320,192,19466,1,2,0:0:0:0:
448,192,19561,1,2,0:0:0:0:
192,192,19656,1,2,0:0:0:0:
64,192,19751,1,2,0:0:0:0:
320,192,19847,1,2,0:0:0:0:
448,192,19942,1,2,0:0:0:0:
64,192,20037,1,4,0:0:0:0:
192,192,20037,1,2,0:0:0:0:
320,192,21180,1,2,0:0:0:0:
448,192,21180,1,0,0:0:0:0:
64,192,21323,1,0,0:0:0:0:
192,192,21323,1,2,0:0:0:0:
320,192,21466,1,8,0:0:0:0:
448,192,21609,1,0,0:0:0:0:
320,192,21894,1,0,0:0:0:0:
448,192,22037,1,8,0:0:0:0:
192,192,22180,1,0,0:0:0:0:
64,192,22323,1,2,0:0:0:0:
448,192,22323,1,0,0:0:0:0:
320,192,22466,1,0,0:0:0:0:
192,192,22466,1,2,0:0:0:0:
64,192,22609,1,8,0:0:0:0:
320,192,22894,1,0,0:0:0:0:
192,192,23180,1,8,0:0:0:0:
320,192,23323,1,0,0:0:0:0:
64,192,23466,1,0,0:0:0:0:
448,192,23466,1,2,0:0:0:0:
320,192,23609,1,2,0:0:0:0:
192,192,23609,1,0,0:0:0:0:
448,192,23751,1,8,0:0:0:0:
192,192,24037,1,0,0:0:0:0:
320,192,24323,1,8,0:0:0:0:
448,192,24466,1,0,0:0:0:0:
320,192,24609,1,2,0:0:0:0:
64,192,24609,1,0,0:0:0:0:
192,192,24751,1,0,0:0:0:0:
448,192,24751,1,2,0:0:0:0:
64,192,24894,1,8,0:0:0:0:
64,192,25180,1,0,0:0:0:0:
320,192,25466,1,8,0:0:0:0:
192,192,25751,1,2,0:0:0:0:
64,192,25751,1,4,0:0:0:0:
320,192,25894,1,2,0:0:0:0:
448,192,25894,1,0,0:0:0:0:
192,192,26037,1,8,0:0:0:0:
64,192,26180,1,0,0:0:0:0:
320,192,26466,1,0,0:0:0:0:
192,192,26609,1,8,0:0:0:0:
64,192,26751,1,0,0:0:0:0:
192,192,26894,1,0,0:0:0:0:
448,192,26894,1,2,0:0:0:0:
64,192,27037,1,0,0:0:0:0:
320,192,27037,1,2,0:0:0:0:
448,192,27180,1,8,0:0:0:0:
320,192,27323,1,0,0:0:0:0:
64,192,27609,1,0,0:0:0:0:
192,192,27751,1,8,0:0:0:0:
448,192,27894,1,0,0:0:0:0:
320,192,28037,1,0,0:0:0:0:
192,192,28037,1,2,0:0:0:0:
64,192,28180,1,2,0:0:0:0:
448,192,28180,1,0,0:0:0:0:
320,192,28323,1,8,0:0:0:0:
448,192,28609,1,0,0:0:0:0:
64,192,28609,1,2,0:0:0:0:
192,192,28751,1,2,0:0:0:0:
320,192,28751,1,0,0:0:0:0:
64,192,28894,1,8,0:0:0:0:
448,192,29180,1,0,0:0:0:0:
320,192,29180,1,2,0:0:0:0:
64,192,29323,1,0,0:0:0:0:
192,192,29323,1,2,0:0:0:0:
320,192,29466,1,8,0:0:0:0:
64,192,29609,1,8,0:0:0:0:
192,192,29680,1,0,0:0:0:0:
448,192,29751,1,0,0:0:0:0:
320,192,29894,1,2,0:0:0:0:
64,192,30037,1,8,0:0:0:0:
192,192,30180,1,0,0:0:0:0:
320,192,30323,1,2,0:0:0:0:
448,192,30323,1,4,0:0:0:0:
192,192,30466,1,2,0:0:0:0:
64,192,30466,1,0,0:0:0:0:
320,192,30609,1,8,0:0:0:0:
448,192,30751,128,0,31037:0:0:0:0:
64,192,31037,1,0,0:0:0:0:
192,192,31180,1,8,0:0:0:0:
320,192,31323,1,0,0:0:0:0:
64,192,31466,1,0,0:0:0:0:
448,192,31466,1,2,0:0:0:0:
192,192,31609,1,0,0:0:0:0:
320,192,31609,1,2,0:0:0:0:
64,192,31751,128,8,32037:0:0:0:0:
192,192,32037,128,0,32323:0:0:0:0:
320,192,32323,1,8,0:0:0:0:
448,192,32466,1,0,0:0:0:0:
192,192,32609,1,2,0:0:0:0:
64,192,32609,1,0,0:0:0:0:
448,192,32751,1,0,0:0:0:0:
320,192,32751,1,2,0:0:0:0:
192,192,32894,128,8,33180:0:0:0:0:
320,192,33180,128,0,33466:0:0:0:0:
448,192,33466,1,8,0:0:0:0:
64,192,33609,1,0,0:0:0:0:
192,192,33751,1,2,0:0:0:0:
320,192,33751,1,0,0:0:0:0:
64,192,33894,1,2,0:0:0:0:
448,192,33894,1,0,0:0:0:0:
320,192,34037,128,8,34323:0:0:0:0:
192,192,34323,128,0,34609:0:0:0:0:
64,192,34609,128,8,34894:0:0:0:0:
448,192,34894,1,4,0:0:0:0:
320,192,34894,1,2,0:0:0:0:
192,192,35037,1,2,0:0:0:0:
64,192,35037,1,0,0:0:0:0:
448,192,35180,1,8,0:0:0:0:
320,192,35323,128,0,35609:0:0:0:0:
64,192,35609,1,0,0:0:0:0:
192,192,35751,1,8,0:0:0:0:
320,192,35894,1,0,0:0:0:0:
64,192,36037,1,0,0:0:0:0:
448,192,36037,1,2,0:0:0:0:
320,192,36180,1,2,0:0:0:0:
192,192,36180,1,0,0:0:0:0:
448,192,36323,1,8,0:0:0:0:
192,192,36466,128,0,36751:0:0:0:0:
320,192,36751,1,0,0:0:0:0:
448,192,36894,1,8,0:0:0:0:
192,192,37037,1,0,0:0:0:0:
64,192,37180,1,0,0:0:0:0:
448,192,37180,1,2,0:0:0:0:
320,192,37323,1,2,0:0:0:0:
192,192,37323,1,0,0:0:0:0:
64,192,37466,128,8,37751:0:0:0:0:
192,192,37751,1,0,0:0:0:0:
320,192,37751,1,2,0:0:0:0:
64,192,37894,1,0,0:0:0:0:
448,192,37894,1,2,0:0:0:0:
320,192,38037,128,8,38323:0:0:0:0:
64,192,38323,1,0,0:0:0:0:
192,192,38323,1,2,0:0:0:0:
320,192,38466,1,2,0:0:0:0:
448,192,38466,1,0,0:0:0:0:
64,192,38609,1,8,0:0:0:0:
192,192,38751,1,0,0:0:0:0:
320,192,38823,1,0,0:0:0:0:
448,192,38894,128,2,39180:0:0:0:0:
320,192,39180,128,8,39466:0:0:0:0:
192,192,39466,1,2,0:0:0:0:
64,192,39466,1,4,0:0:0:0:
448,192,39751,1,0,0:0:0:0:
192,192,39894,1,0,0:0:0:0:
448,192,40037,1,0,0:0:0:0:
64,192,40180,1,0,0:0:0:0:
448,192,40323,1,0,0:0:0:0:
192,192,40466,1,0,0:0:0:0:
448,192,40609,1,0,0:0:0:0:
64,192,40751,1,0,0:0:0:0:
448,192,40894,1,0,0:0:0:0:
192,192,41037,1,0,0:0:0:0:
448,192,41180,1,0,0:0:0:0:
64,192,41323,1,0,0:0:0:0:
448,192,41466,1,0,0:0:0:0:
320,192,41609,1,0,0:0:0:0:
192,192,41751,1,4,0:0:0:0:
64,192,41751,1,2,0:0:0:0:
448,192,41847,1,0,0:0:0:0:
320,192,41942,1,0,0:0:0:0:
192,192,42037,1,0,0:0:0:0:
448,192,42132,1,0,0:0:0:0:
320,192,42228,1,0,0:0:0:0:
64,192,42323,1,0,0:0:0:0:
192,192,42418,1,0,0:0:0:0:
320,192,42513,1,0,0:0:0:0:
64,192,42609,1,0,0:0:0:0:
192,192,42704,1,0,0:0:0:0:
320,192,42799,1,0,0:0:0:0:
448,192,42894,128,0,43466:0:0:0:0:
64,192,43466,128,0,44037:0:0:0:0:
192,192,43656,1,0,0:0:0:0:
320,192,43751,1,0,0:0:0:0:
448,192,43847,1,0,0:0:0:0:
192,192,43942,1,0,0:0:0:0:
320,192,44037,1,2,0:0:0:0:
448,192,44037,128,4,44323:0:0:0:0:
192,192,44323,128,0,44609:0:0:0:0:
448,192,44609,1,2,0:0:0:0:
64,192,44609,128,0,44894:0:0:0:0:
320,192,44894,128,0,45180:0:0:0:0:
64,192,45180,1,2,0:0:0:0:
192,192,45180,128,0,45466:0:0:0:0:
448,192,45466,128,0,45751:0:0:0:0:
192,192,45751,1,2,0:0:0:0:
320,192,45751,128,0,46037:0:0:0:0:
448,192,46037,128,0,46323:0:0:0:0:
64,192,46323,1,2,0:0:0:0:
320,192,46323,128,0,46609:0:0:0:0:
192,192,46609,128,0,46894:0:0:0:0:
448,192,46894,1,2,0:0:0:0:
64,192,46894,128,0,47180:0:0:0:0:
320,192,47180,128,0,47466:0:0:0:0:
64,192,47466,1,2,0:0:0:0:
192,192,47466,128,0,47609:0:0:0:0:
192,192,47751,128,0,48323:0:0:0:0:
320,192,48037,1,0,0:0:0:0:
448,192,48037,1,2,0:0:0:0:
448,192,48323,1,2,0:0:0:0:
64,192,48323,1,0,0:0:0:0:
192,192,48609,1,2,0:0:0:0:
64,192,48609,1,0,0:0:0:0:
64,192,48894,1,8,0:0:0:0:
448,192,48894,1,0,0:0:0:0:
320,192,49180,1,2,0:0:0:0:
192,192,49180,1,0,0:0:0:0:
320,192,49466,1,8,0:0:0:0:
448,192,49466,1,0,0:0:0:0:
192,192,49751,1,2,0:0:0:0:
64,192,49751,1,0,0:0:0:0:
192,192,50037,1,8,0:0:0:0:
448,192,50037,1,0,0:0:0:0:
320,192,50323,1,2,0:0:0:0:
64,192,50323,1,0,0:0:0:0:
192,192,50609,1,8,0:0:0:0:
64,192,50609,1,0,0:0:0:0:
448,192,50894,1,0,0:0:0:0:
320,192,50894,1,2,0:0:0:0:
192,192,50989,1,0,0:0:0:0:
320,192,51085,1,2,0:0:0:0:
192,192,51180,1,2,0:0:0:0:
64,192,51180,1,0,0:0:0:0:
448,192,51275,1,0,0:0:0:0:
64,192,51370,1,2,0:0:0:0:
448,192,51466,1,0,0:0:0:0:
320,192,51466,1,2,0:0:0:0:
192,192,51561,1,0,0:0:0:0:
320,192,51656,1,2,0:0:0:0:
64,192,51751,1,2,0:0:0:0:
192,192,51751,1,0,0:0:0:0:
448,192,51847,1,0,0:0:0:0:
64,192,51942,1,2,0:0:0:0:
320,192,52037,1,0,0:0:0:0:
448,192,52037,1,8,0:0:0:0:
320,192,52323,1,0,0:0:0:0:
192,192,52323,1,8,0:0:0:0:
192,192,52609,1,2,0:0:0:0:
448,192,52609,1,0,0:0:0:0:
64,192,52704,1,2,0:0:0:0:
192,192,52799,1,2,0:0:0:0:
320,192,52894,1,2,0:0:0:0:
64,192,52894,1,0,0:0:0:0:
448,192,52989,1,2,0:0:0:0:
320,192,53085,1,2,0:0:0:0:
64,192,53180,1,4,0:0:0:0:
448,192,53180,1,2,0:0:0:0:
192,192,53275,1,0,0:0:0:0:
320,192,53370,1,0,0:0:0:0:
64,192,53466,1,8,0:0:0:0:
448,192,53466,1,0,0:0:0:0:
320,192,53561,1,0,0:0:0:0:
192,192,53656,1,2,0:0:0:0:
64,192,53751,1,2,0:0:0:0:
448,192,53751,1,0,0:0:0:0:
192,192,53847,1,0,0:0:0:0:
320,192,53942,1,2,0:0:0:0:
448,192,54037,1,8,0:0:0:0:
64,192,54037,1,0,0:0:0:0:
192,192,54132,1,0,0:0:0:0:
320,192,54228,1,2,0:0:0:0:
448,192,54323,1,2,0:0:0:0:
64,192,54323,1,0,0:0:0:0:
320,192,54418,1,0,0:0:0:0:
192,192,54513,1,2,0:0:0:0:
64,192,54609,1,8,0:0:0:0:
448,192,54609,1,0,0:0:0:0:
192,192,54704,1,0,0:0:0:0:
320,192,54799,1,2,0:0:0:0:
64,192,54894,1,2,0:0:0:0:
448,192,54894,1,0,0:0:0:0:
320,192,54989,1,0,0:0:0:0:
448,192,55085,1,2,0:0:0:0:
192,192,55180,1,0,0:0:0:0:
64,192,55180,1,8,0:0:0:0:
320,192,55275,1,0,0:0:0:0:
448,192,55370,1,2,0:0:0:0:
320,192,55466,1,2,0:0:0:0:
64,192,55466,1,0,0:0:0:0:
192,192,55561,1,0,0:0:0:0:
320,192,55656,1,0,0:0:0:0:
192,192,55751,1,0,0:0:0:0:
448,192,55751,1,8,0:0:0:0:
64,192,55847,1,0,0:0:0:0:
192,192,55942,1,2,0:0:0:0:
320,192,56037,1,2,0:0:0:0:
448,192,56037,1,0,0:0:0:0:
64,192,56132,1,0,0:0:0:0:
192,192,56228,1,2,0:0:0:0:
320,192,56323,1,8,0:0:0:0:
448,192,56323,1,0,0:0:0:0:
192,192,56418,1,0,0:0:0:0:
320,192,56513,1,2,0:0:0:0:
448,192,56609,1,0,0:0:0:0:
64,192,56609,1,2,0:0:0:0:
192,192,56704,1,0,0:0:0:0:
320,192,56799,1,2,0:0:0:0:
64,192,56894,1,8,0:0:0:0:
448,192,56894,1,0,0:0:0:0:
320,192,56989,1,0,0:0:0:0:
192,192,57085,1,2,0:0:0:0:
64,192,57180,1,2,0:0:0:0:
448,192,57180,1,0,0:0:0:0:
320,192,57275,1,2,0:0:0:0:
192,192,57370,1,2,0:0:0:0:
448,192,57466,1,2,0:0:0:0:
320,192,57466,1,0,0:0:0:0:
192,192,57561,1,2,0:0:0:0:
320,192,57656,1,2,0:0:0:0:
64,192,57751,1,2,0:0:0:0:
192,192,57751,1,4,0:0:0:0:
320,192,57847,1,0,0:0:0:0:
192,192,57942,1,2,0:0:0:0:
64,192,58037,1,8,0:0:0:0:
448,192,58037,1,0,0:0:0:0:
320,192,58132,1,0,0:0:0:0:
192,192,58228,1,2,0:0:0:0:
448,192,58323,1,2,0:0:0:0:
64,192,58323,1,0,0:0:0:0:
192,192,58418,1,0,0:0:0:0:
320,192,58513,1,2,0:0:0:0:
448,192,58609,1,8,0:0:0:0:
64,192,58609,1,0,0:0:0:0:
192,192,58704,1,0,0:0:0:0:
320,192,58799,1,2,0:0:0:0:
192,192,58894,1,0,0:0:0:0:
448,192,58894,1,2,0:0:0:0:
64,192,58989,1,0,0:0:0:0:
320,192,59085,1,2,0:0:0:0:
192,192,59180,1,8,0:0:0:0:
64,192,59180,1,0,0:0:0:0:
320,192,59275,1,0,0:0:0:0:
192,192,59370,1,2,0:0:0:0:
320,192,59466,1,2,0:0:0:0:
64,192,59466,1,0,0:0:0:0:
448,192,59561,1,0,0:0:0:0:
192,192,59656,1,2,0:0:0:0:
320,192,59751,1,8,0:0:0:0:
64,192,59751,1,0,0:0:0:0:
448,192,59847,1,0,0:0:0:0:
192,192,59942,1,2,0:0:0:0:
320,192,60037,1,2,0:0:0:0:
448,192,60037,1,0,0:0:0:0:
192,192,60132,1,0,0:0:0:0:
64,192,60228,1,2,0:0:0:0:
320,192,60323,1,8,0:0:0:0:
448,192,60323,1,0,0:0:0:0:
192,192,60418,1,0,0:0:0:0:
64,192,60513,1,2,0:0:0:0:
192,192,60609,1,0,0:0:0:0:
448,192,60609,1,2,0:0:0:0:
320,192,60704,1,0,0:0:0:0:
64,192,60799,1,2,0:0:0:0:
192,192,60894,1,0,0:0:0:0:
448,192,60894,1,8,0:0:0:0:
320,192,60989,1,0,0:0:0:0:
192,192,61085,1,2,0:0:0:0:
64,192,61180,1,0,0:0:0:0:
320,192,61180,1,2,0:0:0:0:
448,192,61275,1,0,0:0:0:0:
192,192,61370,1,2,0:0:0:0:
448,192,61466,1,0,0:0:0:0:
64,192,61466,1,8,0:0:0:0:
320,192,61561,1,0,0:0:0:0:
64,192,61656,1,2,0:0:0:0:
448,192,61751,1,0,0:0:0:0:
192,192,61751,1,2,0:0:0:0:
320,192,61847,1,2,0:0:0:0:
448,192,61942,1,2,0:0:0:0:
64,192,62037,1,2,0:0:0:0:
320,192,62037,1,0,0:0:0:0:
192,192,62132,1,2,0:0:0:0:
64,192,62228,1,2,0:0:0:0:
192,192,62323,1,0,0:0:0:0:
448,192,62323,1,2,0:0:0:0:
320,192,62894,1,0,0:0:0:0:
192,192,63466,1,0,0:0:0:0:
64,192,63466,1,0,0:0:0:0:
448,192,64037,1,0,0:0:0:0:
320,192,64609,1,0,0:0:0:0:
64,192,64609,1,0,0:0:0:0:
192,192,65180,1,0,0:0:0:0:
448,192,65751,1,0,0:0:0:0:
64,192,65751,1,0,0:0:0:0:
192,192,66323,1,0,0:0:0:0:
320,192,66323,1,0,0:0:0:0:
320,192,66894,1,0,0:0:0:0:
448,192,66894,1,0,0:0:0:0:
192,192,67466,1,0,0:0:0:0:
320,192,68037,1,0,0:0:0:0:
64,192,68037,1,0,0:0:0:0:
192,192,68609,1,0,0:0:0:0:
448,192,68609,1,0,0:0:0:0:
64,192,68894,1,0,0:0:0:0:
320,192,69180,1,0,0:0:0:0:
448,192,69180,1,0,0:0:0:0:
64,192,69466,1,0,0:0:0:0:
192,192,69751,1,0,0:0:0:0:
448,192,69751,1,0,0:0:0:0:
320,192,70037,1,0,0:0:0:0:
192,192,70323,1,0,0:0:0:0:
64,192,70323,1,0,0:0:0:0:
448,192,70609,1,0,0:0:0:0:
320,192,70894,1,0,0:0:0:0:
192,192,70894,1,0,0:0:0:0:
64,192,71180,1,0,0:0:0:0:
448,192,71466,1,0,0:0:0:0:
192,192,71466,128,0,72037:0:0:0:0:
320,192,72037,128,0,72609:0:0:0:0:
64,192,72323,1,0,0:0:0:0:
192,192,72609,1,0,0:0:0:0:
448,192,72609,128,0,73751:0:0:0:0:
64,192,73751,1,0,0:0:0:0:
192,192,73751,128,0,74894:0:0:0:0:
320,192,74323,1,0,0:0:0:0:
448,192,74609,1,0,0:0:0:0:
64,192,74894,128,0,76037:0:0:0:0:
320,192,74894,1,0,0:0:0:0:
448,192,76037,1,0,0:0:0:0:
192,192,76037,128,0,76609:0:0:0:0:
320,192,76609,128,0,77180:0:0:0:0:
192,192,76894,1,0,0:0:0:0:
64,192,77180,1,0,0:0:0:0:
448,192,77180,128,0,78323:0:0:0:0:
192,192,77466,1,0,0:0:0:0:
320,192,77751,1,0,0:0:0:0:
192,192,78037,1,0,0:0:0:0:
320,192,78323,1,0,0:0:0:0:
64,192,78323,128,0,79466:0:0:0:0:
448,192,79180,1,0,0:0:0:0:
320,192,79466,1,0,0:0:0:0:
192,192,79466,128,0,80609:0:0:0:0:
448,192,79751,1,0,0:0:0:0:
320,192,80037,1,0,0:0:0:0:
64,192,80466,1,0,0:0:0:0:
320,192,80609,1,0,0:0:0:0:
448,192,80609,128,0,81323:0:0:0:0:
320,192,81751,128,0,82180:0:0:0:0:
64,192,82323,128,0,82894:0:0:0:0:
192,192,82894,128,0,83466:0:0:0:0:
320,192,83466,128,0,84037:0:0:0:0:
64,192,84037,1,2,0:0:0:0:
448,192,84037,1,0,0:0:0:0:
192,192,84228,1,2,0:0:0:0:
320,192,84228,1,0,0:0:0:0:
320,192,84418,1,2,0:0:0:0:
448,192,84418,1,0,0:0:0:0:
192,192,84609,1,2,0:0:0:0:
64,192,84609,1,0,0:0:0:0:
192,192,84799,1,2,0:0:0:0:
320,192,84799,1,0,0:0:0:0:
448,192,84989,1,4,0:0:0:0:
64,192,84989,1,2,0:0:0:0:
192,192,85537,1,0,0:0:0:0:
64,192,85609,1,0,0:0:0:0:
448,192,85644,1,0,0:0:0:0:
320,192,85823,128,0,86323:0:0:0:0:
448,192,86323,1,4,0:0:0:0:
64,192,86323,1,2,0:0:0:0:
192,192,86466,1,0,0:0:0:0:
320,192,86537,1,0,0:0:0:0:
448,192,86609,1,8,0:0:0:0:
64,192,86609,128,0,87037:0:0:0:0:
320,192,86894,1,2,0:0:0:0:
448,192,86894,1,0,0:0:0:0:
192,192,87037,1,0,0:0:0:0:
448,192,87180,1,8,0:0:0:0:
320,192,87180,1,0,0:0:0:0:
192,192,87323,1,0,0:0:0:0:
320,192,87466,1,2,0:0:0:0:
64,192,87466,1,0,0:0:0:0:
448,192,87561,1,0,0:0:0:0:
320,192,87656,1,0,0:0:0:0:
192,192,87751,1,8,0:0:0:0:
448,192,87751,1,0,0:0:0:0:
320,192,87847,1,0,0:0:0:0:
192,192,87942,1,0,0:0:0:0:
448,192,88037,1,0,0:0:0:0:
64,192,88037,1,2,0:0:0:0:
320,192,88132,1,0,0:0:0:0:
192,192,88228,1,0,0:0:0:0:
448,192,88323,1,0,0:0:0:0:
64,192,88323,1,8,0:0:0:0:
192,192,88466,1,0,0:0:0:0:
320,192,88537,1,0,0:0:0:0:
448,192,88609,1,0,0:0:0:0:
64,192,88609,1,2,0:0:0:0:
192,192,88680,1,0,0:0:0:0:
448,192,88894,1,8,0:0:0:0:
192,192,88894,128,0,89180:0:0:0:0:
64,192,89180,1,2,0:0:0:0:
448,192,89180,1,0,0:0:0:0:
320,192,89251,1,0,0:0:0:0:
192,192,89466,1,8,0:0:0:0:
64,192,89466,128,0,89751:0:0:0:0:
320,192,89751,1,2,0:0:0:0:
448,192,89751,1,0,0:0:0:0:
192,192,89823,1,0,0:0:0:0:
192,192,90037,1,8,0:0:0:0:
320,192,90037,128,0,90323:0:0:0:0:
448,192,90323,1,0,0:0:0:0:
64,192,90323,1,2,0:0:0:0:
192,192,90394,1,0,0:0:0:0:
448,192,90609,1,8,0:0:0:0:
64,192,90609,128,0,90894:0:0:0:0:
320,192,90894,1,2,0:0:0:0:
192,192,90894,1,0,0:0:0:0:
64,192,91037,1,0,0:0:0:0:
448,192,91180,1,0,0:0:0:0:
320,192,91180,1,8,0:0:0:0:
192,192,91323,128,0,91751:0:0:0:0:
448,192,91466,1,2,0:0:0:0:
64,192,91466,1,0,0:0:0:0:
320,192,91751,1,8,0:0:0:0:
64,192,91751,128,0,92037:0:0:0:0:
448,192,92037,1,0,0:0:0:0:
320,192,92037,1,2,0:0:0:0:
192,192,92180,1,0,0:0:0:0:
64,192,92323,1,8,0:0:0:0:
320,192,92323,1,0,0:0:0:0:
448,192,92466,128,0,92894:0:0:0:0:
192,192,92609,1,2,0:0:0:0:
64,192,92609,1,0,0:0:0:0:
192,192,92894,128,0,93180:0:0:0:0:
320,192,92894,1,8,0:0:0:0:
448,192,93180,1,2,0:0:0:0:
320,192,93180,1,0,0:0:0:0:
64,192,93251,1,0,0:0:0:0:
192,192,93323,1,0,0:0:0:0:
320,192,93394,1,0,0:0:0:0:
448,192,93466,1,8,0:0:0:0:
64,192,93466,1,0,0:0:0:0:
192,192,93537,1,0,0:0:0:0:
320,192,93609,1,0,0:0:0:0:
64,192,93680,1,0,0:0:0:0:
448,192,93751,1,2,0:0:0:0:
192,192,93751,1,0,0:0:0:0:
192,192,93894,1,0,0:0:0:0:
320,192,94037,1,8,0:0:0:0:
448,192,94037,1,0,0:0:0:0:
192,192,94180,1,8,0:0:0:0:
64,192,94180,1,0,0:0:0:0:
320,192,94323,1,0,0:0:0:0:
192,192,94466,1,0,0:0:0:0:
448,192,94537,1,0,0:0:0:0:
320,192,94609,1,0,0:0:0:0:
192,192,94680,1,0,0:0:0:0:
64,192,94751,1,0,0:0:0:0:
448,192,94823,1,0,0:0:0:0:
192,192,94894,1,2,0:0:0:0:
448,192,95037,1,0,0:0:0:0:
320,192,95037,1,2,0:0:0:0:
192,192,95180,1,2,0:0:0:0:
64,192,95180,1,0,0:0:0:0:
320,192,95323,1,2,0:0:0:0:
448,192,95323,1,0,0:0:0:0:
64,192,95466,1,4,0:0:0:0:
320,192,95466,1,2,0:0:0:0:
192,192,95609,1,0,0:0:0:0:
320,192,95680,1,0,0:0:0:0:
448,192,95751,1,8,0:0:0:0:
64,192,95751,128,0,96180:0:0:0:0:
320,192,96037,1,2,0:0:0:0:
448,192,96037,1,0,0:0:0:0:
192,192,96180,1,0,0:0:0:0:
320,192,96323,1,8,0:0:0:0:
448,192,96323,1,0,0:0:0:0:
64,192,96466,1,0,0:0:0:0:
192,192,96609,1,2,0:0:0:0:
448,192,96609,1,0,0:0:0:0:
320,192,96704,1,0,0:0:0:0:
192,192,96799,1,0,0:0:0:0:
64,192,96894,1,0,0:0:0:0:
320,192,96894,1,8,0:0:0:0:
448,192,96989,1,0,0:0:0:0:
192,192,97085,1,0,0:0:0:0:
320,192,97180,1,2,0:0:0:0:
64,192,97180,1,0,0:0:0:0:
448,192,97275,1,0,0:0:0:0:
320,192,97370,1,0,0:0:0:0:
448,192,97466,1,8,0:0:0:0:
64,192,97466,1,0,0:0:0:0:
192,192,97609,1,0,0:0:0:0:
320,192,97680,1,0,0:0:0:0:
64,192,97751,1,0,0:0:0:0:
448,192,97751,1,2,0:0:0:0:
192,192,97823,1,0,0:0:0:0:
320,192,98037,1,8,0:0:0:0:
448,192,98037,128,0,98323:0:0:0:0:
64,192,98323,1,0,0:0:0:0:
192,192,98323,1,2,0:0:0:0:
320,192,98394,1,0,0:0:0:0:
64,192,98609,128,0,98894:0:0:0:0:
448,192,98609,1,8,0:0:0:0:
320,192,98894,1,2,0:0:0:0:
448,192,98894,1,0,0:0:0:0:
192,192,98966,1,0,0:0:0:0:
64,192,99180,1,8,0:0:0:0:
320,192,99180,128,0,99466:0:0:0:0:
192,192,99466,1,2,0:0:0:0:
448,192,99466,1,0,0:0:0:0:
64,192,99537,1,0,0:0:0:0:
320,192,99751,1,8,0:0:0:0:
192,192,99751,128,0,100037:0:0:0:0:
64,192,100037,1,0,0:0:0:0:
448,192,100037,1,2,0:0:0:0:
320,192,100180,1,0,0:0:0:0:
192,192,100251,1,0,0:0:0:0:
64,192,100323,128,0,100751:0:0:0:0:
448,192,100323,1,8,0:0:0:0:
320,192,100609,1,2,0:0:0:0:
192,192,100609,1,0,0:0:0:0:
448,192,100751,1,0,0:0:0:0:
192,192,100894,1,0,0:0:0:0:
320,192,100894,1,8,0:0:0:0:
64,192,101037,1,0,0:0:0:0:
448,192,101180,1,0,0:0:0:0:
320,192,101180,1,2,0:0:0:0:
192,192,101323,1,0,0:0:0:0:
448,192,101394,1,0,0:0:0:0:
64,192,101466,1,0,0:0:0:0:
320,192,101466,1,8,0:0:0:0:
448,192,101609,1,0,0:0:0:0:
192,192,101680,1,0,0:0:0:0:
320,192,101751,1,2,0:0:0:0:
64,192,101751,1,0,0:0:0:0:
448,192,101823,1,0,0:0:0:0:
192,192,101894,1,0,0:0:0:0:
320,192,101966,1,0,0:0:0:0:
64,192,102037,1,0,0:0:0:0:
448,192,102037,1,8,0:0:0:0:
192,192,102109,1,0,0:0:0:0:
320,192,102180,1,0,0:0:0:0:
448,192,102251,1,0,0:0:0:0:
192,192,102323,1,2,0:0:0:0:
64,192,102323,128,0,102609:0:0:0:0:
320,192,102609,128,0,102894:0:0:0:0:
192,192,102609,1,8,0:0:0:0:
448,192,102894,128,4,103180:0:0:0:0:
64,192,102894,1,2,0:0:0:0:
192,192,103180,1,8,0:0:0:0:
64,192,103180,128,0,103466:0:0:0:0:
448,192,103466,1,4,0:0:0:0:
320,192,103537,1,0,0:0:0:0:
192,192,103609,1,0,0:0:0:0:
448,192,103680,1,0,0:0:0:0:
320,192,103751,1,8,0:0:0:0:
64,192,103823,1,0,0:0:0:0:
192,192,103894,1,0,0:0:0:0:
320,192,103966,1,0,0:0:0:0:
64,192,104037,1,2,0:0:0:0:
448,192,104037,1,0,0:0:0:0:
192,192,104109,1,0,0:0:0:0:
448,192,104180,1,0,0:0:0:0:
320,192,104180,1,2,0:0:0:0:
64,192,104323,1,2,0:0:0:0:
192,192,104323,1,0,0:0:0:0:
448,192,104394,1,0,0:0:0:0:
64,192,104466,1,0,0:0:0:0:
320,192,104466,1,2,0:0:0:0:
448,192,104609,1,2,0:0:0:0:
320,192,104609,1,4,0:0:0:0:
64,192,108037,1,0,0:0:0:0:
192,192,108132,1,0,0:0:0:0:
448,192,108228,1,0,0:0:0:0:
192,192,108323,1,0,0:0:0:0:
320,192,108418,1,0,0:0:0:0:
448,192,108513,1,0,0:0:0:0:
192,192,108609,1,2,0:0:0:0:
64,192,108609,1,4,0:0:0:0:
320,192,108894,1,2,0:0:0:0:
448,192,108894,1,4,0:0:0:0:
320,192,109180,1,4,0:0:0:0:
64,192,109180,1,2,0:0:0:0:
448,192,109275,1,0,0:0:0:0:
192,192,109370,1,0,0:0:0:0:
64,192,109466,1,0,0:0:0:0:
448,192,109561,1,0,0:0:0:0:
320,192,109656,1,0,0:0:0:0:
192,192,109751,1,0,0:0:0:0:
448,192,109847,1,0,0:0:0:0:
320,192,109942,1,0,0:0:0:0:
192,192,110037,1,2,0:0:0:0:
64,192,110037,1,4,0:0:0:0:
320,192,110323,1,2,0:0:0:0:
448,192,110323,1,4,0:0:0:0:
64,192,110418,1,0,0:0:0:0:
192,192,110513,1,0,0:0:0:0:
320,192,110609,1,0,0:0:0:0:
64,192,110704,1,0,0:0:0:0:
192,192,110799,1,0,0:0:0:0:
448,192,110894,1,0,0:0:0:0:
320,192,110989,1,0,0:0:0:0:
192,192,111085,1,0,0:0:0:0:
448,192,111180,1,4,0:0:0:0:
64,192,111180,1,2,0:0:0:0:
192,192,111466,1,2,0:0:0:0:
320,192,111466,1,4,0:0:0:0:
192,192,111751,1,0,0:0:0:0:
64,192,111751,1,2,0:0:0:0:
64,192,112037,1,2,0:0:0:0:
448,192,112037,1,4,0:0:0:0:
320,192,112323,1,2,0:0:0:0:
448,192,112323,1,0,0:0:0:0:
64,192,112609,1,4,0:0:0:0:
448,192,112609,1,2,0:0:0:0:
320,192,112704,1,0,0:0:0:0:
64,192,112799,1,0,0:0:0:0:
448,192,112894,1,0,0:0:0:0:
192,192,112894,1,2,0:0:0:0:
320,192,112989,1,0,0:0:0:0:
192,192,113085,1,0,0:0:0:0:
448,192,113180,1,0,0:0:0:0:
64,192,113180,1,2,0:0:0:0:
320,192,113275,1,2,0:0:0:0:
192,192,113370,1,2,0:0:0:0:
64,192,113370,1,0,0:0:0:0:
320,192,113466,1,2,0:0:0:0:
448,192,113466,1,0,0:0:0:0:
192,192,113561,1,2,0:0:0:0:
64,192,113561,1,0,0:0:0:0:
320,192,113656,1,2,0:0:0:0:
448,192,113656,1,0,0:0:0:0:
192,192,113751,1,2,0:0:0:0:
64,192,113751,128,4,114894:0:0:0:0:
320,192,113847,1,0,0:0:0:0:
192,192,113942,1,0,0:0:0:0:
448,192,114037,1,8,0:0:0:0:
320,192,114132,1,0,0:0:0:0:
192,192,114228,1,2,0:0:0:0:
448,192,114323,1,2,0:0:0:0:
320,192,114418,1,0,0:0:0:0:
192,192,114513,1,2,0:0:0:0:
448,192,114609,1,8,0:0:0:0:
320,192,114704,1,0,0:0:0:0:
448,192,114799,1,2,0:0:0:0:
192,192,114894,1,2,0:0:0:0:
320,192,114989,1,0,0:0:0:0:
64,192,115085,1,2,0:0:0:0:
192,192,115180,1,8,0:0:0:0:
320,192,115275,1,0,0:0:0:0:
448,192,115370,1,2,0:0:0:0:
320,192,115466,1,0,0:0:0:0:
64,192,115466,1,2,0:0:0:0:
192,192,115561,1,0,0:0:0:0:
320,192,115656,1,2,0:0:0:0:
64,192,115751,1,8,0:0:0:0:
448,192,115751,1,0,0:0:0:0:
192,192,115847,1,0,0:0:0:0:
320,192,115942,1,2,0:0:0:0:
64,192,116037,1,2,0:0:0:0:
448,192,116037,1,0,0:0:0:0:
320,192,116132,1,0,0:0:0:0:
192,192,116228,1,0,0:0:0:0:
64,192,116323,1,8,0:0:0:0:
192,192,116418,1,0,0:0:0:0:
320,192,116513,1,2,0:0:0:0:
448,192,116609,1,2,0:0:0:0:
192,192,116609,1,0,0:0:0:0:
64,192,116704,1,0,0:0:0:0:
448,192,116799,1,2,0:0:0:0:
320,192,116894,1,0,0:0:0:0:
64,192,116894,1,8,0:0:0:0:
192,192,116989,1,0,0:0:0:0:
320,192,117085,1,2,0:0:0:0:
448,192,117180,1,2,0:0:0:0:
192,192,117180,1,0,0:0:0:0:
64,192,117275,1,0,0:0:0:0:
320,192,117370,1,2,0:0:0:0:
192,192,117466,1,0,0:0:0:0:
448,192,117466,1,8,0:0:0:0:
64,192,117561,1,0,0:0:0:0:
448,192,117656,1,2,0:0:0:0:
320,192,117751,1,2,0:0:0:0:
64,192,117751,1,0,0:0:0:0:
192,192,117847,1,2,0:0:0:0:
320,192,117942,1,2,0:0:0:0:
64,192,118037,1,0,0:0:0:0:
192,192,118037,1,2,0:0:0:0:
320,192,118132,1,2,0:0:0:0:
192,192,118228,1,2,0:0:0:0:
448,192,118323,1,4,0:0:0:0:
320,192,118323,1,2,0:0:0:0:
64,192,118418,1,0,0:0:0:0:
448,192,118513,1,2,0:0:0:0:
320,192,118609,1,8,0:0:0:0:
64,192,118609,1,0,0:0:0:0:
192,192,118704,1,0,0:0:0:0:
320,192,118799,1,2,0:0:0:0:
64,192,118894,1,0,0:0:0:0:
448,192,118894,1,2,0:0:0:0:
192,192,118989,1,0,0:0:0:0:
320,192,119085,1,2,0:0:0:0:
448,192,119180,1,0,0:0:0:0:
64,192,119180,1,8,0:0:0:0:
192,192,119275,1,0,0:0:0:0:
320,192,119370,1,2,0:0:0:0:
448,192,119466,1,2,0:0:0:0:
192,192,119466,1,0,0:0:0:0:
64,192,119561,1,0,0:0:0:0:
320,192,119656,1,2,0:0:0:0:
64,192,119751,1,0,0:0:0:0:
448,192,119751,1,8,0:0:0:0:
192,192,119847,1,0,0:0:0:0:
448,192,119942,1,2,0:0:0:0:
320,192,120037,1,0,0:0:0:0:
64,192,120037,1,2,0:0:0:0:
192,192,120132,1,0,0:0:0:0:
320,192,120228,1,2,0:0:0:0:
448,192,120323,1,8,0:0:0:0:
64,192,120323,1,0,0:0:0:0:
192,192,120418,1,0,0:0:0:0:
448,192,120513,1,2,0:0:0:0:
64,192,120609,1,2,0:0:0:0:
320,192,120609,1,0,0:0:0:0:
192,192,120704,1,0,0:0:0:0:
64,192,120799,1,2,0:0:0:0:
192,192,120894,1,0,0:0:0:0:
448,192,120894,1,8,0:0:0:0:
64,192,121085,1,2,0:0:0:0:
448,192,121180,1,2,0:0:0:0:
192,192,121180,1,0,0:0:0:0:
320,192,121275,1,0,0:0:0:0:
448,192,121370,1,2,0:0:0:0:
64,192,121466,1,8,0:0:0:0:
320,192,121466,1,0,0:0:0:0:
192,192,121656,1,2,0:0:0:0:
448,192,121751,1,2,0:0:0:0:
64,192,121751,1,0,0:0:0:0:
320,192,121847,1,0,0:0:0:0:
192,192,121942,1,2,0:0:0:0:
64,192,122037,1,0,0:0:0:0:
448,192,122037,1,8,0:0:0:0:
320,192,122132,1,0,0:0:0:0:
192,192,122228,1,2,0:0:0:0:
448,192,122323,1,0,0:0:0:0:
64,192,122323,1,2,0:0:0:0:
192,192,122418,1,2,0:0:0:0:
320,192,122513,1,2,0:0:0:0:
64,192,122609,1,0,0:0:0:0:
448,192,122609,1,2,0:0:0:0:
192,192,122704,1,2,0:0:0:0:
320,192,122799,1,2,0:0:0:0:
448,192,122799,1,0,0:0:0:0:
192,192,122894,1,2,0:0:0:0:
64,192,122894,1,0,0:0:0:0:
448,192,122989,1,0,0:0:0:0:
320,192,122989,1,2,0:0:0:0:
192,192,123085,1,2,0:0:0:0:
64,192,123085,1,0,0:0:0:0:
320,192,123180,1,2,0:0:0:0:
448,192,123180,1,0,0:0:0:0:
192,192,123275,1,2,0:0:0:0:
64,192,123275,1,0,0:0:0:0:
320,192,123370,1,2,0:0:0:0:
448,192,123370,1,0,0:0:0:0:
192,192,123466,1,2,0:0:0:0:
64,192,123466,1,0,0:0:0:0:
320,192,123751,1,4,0:0:0:0:
64,192,123751,1,2,0:0:0:0:
448,192,123751,1,0,0:0:0:0:
