osu file format v14

[General]
AudioFilename: audio.mp3
AudioLeadIn: 0
PreviewTime: 126621
Countdown: 0
SampleSet: Soft
StackLeniency: 0.5
Mode: 0
LetterboxInBreaks: 0
WidescreenStoryboard: 1

[Editor]
Bookmarks: 1360,6690,17345,38701,49381,49713,50045,50378,50710,51043,51375,51707,52040,52372,52705,53037,53369,53702,54034,54367,54699,56036,66713,76040,82703,90706,109375,120040,120372,120705,121038,121371,121704,122037,122370,122702,123035,123368,123701,124034,124367,124700,125033,125365,126705,137363,146718,150670,161375,164044,174702,184049,190731,202696
DistanceSpacing: 1.4
BeatDivisor: 4
GridSize: 32
TimelineZoom: 3.099999

[Metadata]
Title:STONE OCEAN
TitleUnicode:STONE OCEAN
Artist:ichigo from KISIDA KYODAN & THE AKEBOSI ROCKETS
ArtistUnicode:ichigo from 岸田教団&THE明星ロケッツ
Creator:melleganol
Version:NYAN_KOT_NYAN's INSANE
Source:ジョジョの奇妙な冒険 ストーンオーシャン
Tags:kishida kyoudan and the akeboshi jojos JoJo no Kimyou na Bouken JoJo's Bizarre Adventure Part 6: Stone Ocean free six p6 anime opening op rock japanese jrock j-rock pop jpop female vocal vocals vocalist jolyne kuujou kujo kujou cujoh jotaro joutarou 空条 徐倫 Araki Hirohiko 荒木 飛呂彦 藤林聖子 Shoko Fujibayashi 河田貴央 Kawada Takao 家原正樹 Iehara Masaki david production full ver version Mizujin -_Aqua AqUa_M1X NYAN_KOT_NYAN
BeatmapID:4429949
BeatmapSetID:2107611

[Difficulty]
HPDrainRate:4
CircleSize:3.8
OverallDifficulty:7.6
ApproachRate:8.7
SliderMultiplier:1.6
SliderTickRate:1

[Events]
//Background and Video events
0,0,"jolyne.jpg",0,0
//Break Periods
2,49713,52040
2,120372,122702
//Storyboard Layer 0 (Background)
//Storyboard Layer 1 (Fail)
//Storyboard Layer 2 (Pass)
//Storyboard Layer 3 (Foreground)
//Storyboard Layer 4 (Overlay)
//Storyboard Sound Samples

[TimingPoints]
1360,346.820809248555,4,2,77,60,1,0
1360,-166.666666666667,4,2,77,60,0,0
1706,332.871012482663,4,2,77,60,1,0
1706,-166.666666666667,4,2,77,60,0,0
2371,326.975476839237,4,2,77,60,1,0
2371,-166.666666666667,4,2,77,60,0,0
2697,329.67032967033,4,2,77,60,1,0
2697,-166.666666666667,4,2,77,60,0,0
3026,335.664335664336,4,2,77,60,1,0
3026,-125,4,2,77,60,0,0
3361,337.078651685394,4,2,77,60,1,0
3361,-166.666666666667,4,2,77,60,0,0
3698,340.909090909091,4,2,77,60,1,0
3698,-166.666666666667,4,2,77,60,0,0
4038,323.45013477089,4,2,77,60,1,0
4038,-166.666666666667,4,2,77,60,0,0
4361,331.95020746888,4,2,77,60,1,0
4361,-166.666666666667,4,2,77,60,0,0
5023,329.67032967033,4,2,77,60,1,0
5023,-166.666666666667,4,2,77,60,0,0
5187,-111.111111111111,4,2,77,60,0,0
5682,336.134453781513,4,2,77,60,1,0
6186,-111.111111111111,4,2,77,60,0,0
6690,336.134453781513,4,2,77,70,1,0
8034,333.333333333334,4,2,77,70,1,0
11867,-101.010101010101,4,2,77,70,0,0
12033,343.839541547279,4,2,77,70,1,0
12376,331.95020746888,4,2,77,70,1,0
13205,-101.010101010101,4,2,77,70,0,0
13371,339.943342776205,4,2,77,70,1,0
14050,320.427236315088,4,2,77,70,1,0
14690,338.983050847457,4,2,77,70,1,0
16045,320.855614973262,4,2,77,70,1,0
16686,329.670329670329,4,2,77,70,1,0
17345,338.504936530324,4,2,77,70,1,0
17683,-125,4,2,77,60,0,0
18699,334.728033472803,4,2,77,60,1,0
18699,-125,4,2,77,60,0,0
21376,333.796940194715,4,2,77,60,1,0
21376,-125,4,2,77,60,0,0
22210,325.20325203252,4,2,77,60,1,0
22210,-125,4,2,77,60,0,0
22697,333.796940194715,4,2,77,60,1,0
22697,-125,4,2,77,60,0,0
24032,334.728033472803,4,2,77,60,1,0
24032,-125,4,2,77,60,0,0
25370,336.605890603086,4,2,77,60,1,0
25370,-125,4,2,77,60,0,0
26716,328.317373461012,4,2,77,60,1,0
26716,-125,4,2,77,60,0,0
28029,335.195530726257,4,2,77,60,1,0
28029,-111.111111111111,4,2,77,60,0,0
29369,333.333333333333,4,2,77,60,1,0
29369,-111.111111111111,4,2,77,60,0,0
30702,334.261838440111,4,2,77,60,1,0
30702,-111.111111111111,4,2,77,60,0,0
32039,330.123796423659,4,2,77,60,1,0
32039,-111.111111111111,4,2,77,60,0,0
33359,333.333333333333,4,2,77,60,1,0
33359,-111.111111111111,4,2,77,60,0,0
34692,334.728033472803,4,2,77,60,1,0
34692,-111.111111111111,4,2,77,60,0,0
36030,340.425531914893,4,2,77,60,1,0
36030,-111.111111111111,4,2,77,60,0,0
37391,321.285140562248,4,2,77,60,1,0
37391,-111.111111111111,4,2,77,60,0,0
38033,334.261838440111,4,2,77,60,1,0
38033,-111.111111111111,4,2,77,60,0,0
38701,327.868852459016,4,2,77,70,1,0
38701,-125,4,2,77,70,0,0
39356,341.880341880342,4,2,77,70,1,0
39356,-111.111111111111,4,2,77,70,0,0
40039,330.578512396694,4,2,77,70,1,0
40039,-125,4,2,77,70,0,0
40700,332.409972299169,4,2,77,70,1,0
40700,-125,4,2,77,70,0,0
41364,336.605890603086,4,2,77,70,1,0
41364,-125,4,2,77,70,0,0
42037,328.767123287672,4,2,77,70,1,0
42037,-111.111111111111,4,2,77,70,0,0
42694,341.880341880342,4,2,77,70,1,0
42694,-125,4,2,77,70,0,0
43206,331.95020746888,4,2,77,70,1,0
43206,-125,4,2,77,70,0,0
43703,326.975476839237,4,2,77,70,1,0
43703,-125,4,2,77,70,0,0
44029,340.909090909091,4,2,77,70,1,0
44029,-125,4,2,77,70,0,0
44710,336.134453781513,4,2,77,70,1,0
44710,-111.111111111111,4,2,77,70,0,0
45382,326.086956521739,4,2,77,70,1,0
45382,-125,4,2,77,70,0,0
46034,336.605890603085,4,2,77,70,1,0
46034,-125,4,2,77,70,0,0
46707,340.90909090909,4,2,77,70,1,0
46707,-125,4,2,77,70,0,0
47388,330.123796423658,4,2,77,70,1,0
47388,-111.111111111111,4,2,77,70,0,0
48048,332.409972299168,4,2,77,70,1,0
48048,-125,4,2,77,70,0,0
48546,329.218106995884,4,2,77,70,1,0
48546,-125,4,2,77,70,0,0
49039,342.857142857142,4,2,77,70,1,0
49039,-125,4,2,77,70,0,0
49381,332.409972299168,4,2,77,5,1,0
53369,-100,4,2,77,50,0,0
54699,334.261838440111,4,2,77,5,1,0
55033,-100,4,2,77,50,0,0
56036,331.491712707182,4,2,77,80,1,1
56036,-90.9090909090909,4,2,77,80,0,1
57030,344.827586206896,4,2,77,80,1,1
57030,-90.9090909090909,4,2,77,80,0,1
57374,330.123796423659,4,2,77,80,1,1
57374,-90.9090909090909,4,2,77,80,0,1
58694,334.261838440112,4,2,77,80,1,1
58694,-90.9090909090909,4,2,77,80,0,1
60699,344.827586206897,4,2,77,80,1,1
60699,-90.9090909090909,4,2,77,80,0,1
61043,320.855614973263,4,2,77,80,1,1
61043,-90.9090909090909,4,2,77,80,0,1
61363,335.664335664336,4,2,77,80,1,1
61363,-90.9090909090909,4,2,77,80,0,1
62705,332.871012482663,4,2,77,80,1,1
62705,-90.9090909090909,4,2,77,80,0,1
63703,325.644504748983,4,2,77,80,1,1
63703,-90.9090909090909,4,2,77,80,0,1
64028,340.425531914894,4,2,77,80,1,1
64028,-90.9090909090909,4,2,77,80,0,1
65049,326.975476839238,4,2,77,80,1,1
65049,-90.9090909090909,4,2,77,80,0,1
65375,331.95020746888,4,2,77,80,1,1
65375,-90.9090909090909,4,2,77,80,0,1
66370,343.839541547279,4,2,77,80,1,1
66370,-90.9090909090909,4,2,77,80,0,1
66713,334.728033472804,4,2,77,80,1,1
66713,-90.9090909090909,4,2,77,80,0,1
68051,332.40997229917,4,2,77,80,1,1
68051,-90.9090909090909,4,2,77,80,0,1
69380,336.134453781514,4,2,77,80,1,1
69380,-90.9090909090909,4,2,77,80,0,1
70724,331.950207468881,4,2,77,80,1,1
70724,-90.9090909090909,4,2,77,80,0,1
73378,332.871012482664,4,2,77,80,1,1
73378,-90.9090909090909,4,2,77,80,0,1
76040,335.664335664337,4,2,77,70,1,0
77382,339.943342776205,4,2,77,70,1,0
77721,330.12379642366,4,2,77,70,1,0
78711,332.871012482664,4,2,77,70,1,0
79376,335.195530726258,4,2,77,70,1,0
80046,337.078651685394,4,2,77,70,1,0
80046,-250,4,2,77,70,0,0
81394,315.789473684211,4,2,77,70,1,0
82025,339.46251768034,4,2,77,70,1,0
82025,-142.857142857143,4,2,77,70,0,0
82703,334.261838440112,4,2,77,70,1,0
84207,330.578512396695,4,2,77,60,1,0
84207,-200,4,2,77,60,0,0
84702,-142.857142857143,4,2,77,60,0,0
84867,362.537764350454,4,2,77,60,1,0
84867,-142.857142857143,4,2,77,60,0,0
85229,259.74025974026,4,2,77,60,1,0
85358,342.857142857143,4,2,77,70,1,0
85358,-111.111111111111,4,2,77,70,0,0
85700,333.796940194715,4,2,77,70,1,0
85700,-111.111111111111,4,2,77,70,0,0
86033,344.827586206897,4,2,77,70,1,0
86549,340.909090909091,4,2,77,70,1,0
86549,-111.111111111111,4,2,77,70,0,0
87060,326.086956521739,4,2,77,70,1,0
87549,315.789473684211,4,2,77,70,1,0
87549,-111.111111111111,4,2,77,70,0,0
88022,335.195530726257,4,2,77,70,1,0
88022,-200,4,2,77,70,0,0
88357,335.664335664336,4,2,77,60,1,0
90370,-200,4,2,77,60,0,0
90706,350.877192982456,4,2,77,60,1,0
90706,-125,4,2,77,60,0,0
91056,332.871012482663,4,2,77,60,1,0
91056,-125,4,2,77,60,0,0
92054,317.460317460317,4,2,77,60,1,0
92054,-125,4,2,77,60,0,0
92688,372.670807453416,4,2,77,60,1,0
92688,-125,4,2,77,60,0,0
92874,335.195530726257,4,2,77,60,1,0
92874,-125,4,2,77,60,0,0
93376,330.578512396694,4,2,77,60,1,0
93376,-125,4,2,77,60,0,0
94698,331.950207468879,4,2,77,60,1,0
94698,-125,4,2,77,60,0,0
96025,339.462517680339,4,2,77,60,1,0
96025,-125,4,2,77,60,0,0
97382,315.78947368421,4,2,77,60,1,0
97382,-125,4,2,77,60,0,0
97855,337.078651685393,4,2,77,60,1,0
97855,-125,4,2,77,60,0,0
98023,324.324324324324,4,2,77,60,1,0
98023,-125,4,2,77,60,0,0
98671,344.827586206896,4,2,77,60,1,0
98671,-111.111111111111,4,2,77,60,0,0
99705,323.886639676113,4,2,77,60,1,0
99705,-111.111111111111,4,2,77,60,0,0
100028,337.552742616033,4,2,77,60,1,0
100028,-111.111111111111,4,2,77,60,0,0
101040,324.763193504736,4,2,77,60,1,0
101040,-111.111111111111,4,2,77,60,0,0
101364,333.796940194715,4,2,77,60,1,0
101364,-111.111111111111,4,2,77,60,0,0
102699,332.871012482663,4,2,77,60,1,0
102699,-111.111111111111,4,2,77,60,0,0
105361,337.078651685393,4,2,77,60,1,0
105361,-111.111111111111,4,2,77,60,0,0
106709,334.261838440111,4,2,77,60,1,0
106709,-111.111111111111,4,2,77,60,0,0
108213,327.868852459016,4,2,77,60,1,0
108213,-111.111111111111,4,2,77,60,0,0
108540,321.71581769437,4,2,77,60,1,0
108540,-111.111111111111,4,2,77,60,0,0
108861,357.675111773472,4,2,77,60,1,0
108861,-111.111111111111,4,2,77,60,0,0
109039,336.605890603086,4,2,77,60,1,0
109039,-111.111111111111,4,2,77,60,0,0
109375,330.123796423659,4,2,77,70,1,0
109375,-125,4,2,77,70,0,0
110035,326.975476839237,4,2,77,70,1,0
110035,-111.111111111111,4,2,77,70,0,0
110688,334.728033472803,4,2,77,70,1,0
110688,-125,4,2,77,70,0,0
111357,339.462517680339,4,2,77,70,1,0
111357,-125,4,2,77,70,0,0
112035,331.950207468879,4,2,77,70,1,0
112035,-125,4,2,77,70,0,0
112698,334.261838440111,4,2,77,70,1,0
112698,-111.111111111111,4,2,77,70,0,0
113366,330.578512396694,4,2,77,70,1,0
113366,-125,4,2,77,70,0,0
113861,328.317373461012,4,2,77,70,1,0
113861,-125,4,2,77,70,0,0
114353,332.871012482662,4,2,77,70,1,0
114353,-125,4,2,77,70,0,0
114685,345.323741007193,4,2,77,70,1,0
114685,-125,4,2,77,70,0,0
115375,331.491712707181,4,2,77,70,1,0
115375,-111.111111111111,4,2,77,70,0,0
116037,334.26183844011,4,2,77,70,1,0
116037,-125,4,2,77,70,0,0
116705,337.552742616033,4,2,77,70,1,0
116705,-125,4,2,77,70,0,0
117380,333.796940194714,4,2,77,70,1,0
117380,-125,4,2,77,70,0,0
118047,338.983050847457,4,2,77,70,1,0
118047,-111.111111111111,4,2,77,70,0,0
118724,319.999999999999,4,2,77,70,1,0
118724,-125,4,2,77,70,0,0
119204,316.622691292875,4,2,77,70,1,0
119204,-125,4,2,77,70,0,0
119678,362.537764350452,4,2,77,70,1,0
119678,-125,4,2,77,70,0,0
120040,332.871012482662,4,2,77,5,1,0
124034,-100,4,2,77,50,0,0
125365,335.195530726256,4,2,77,5,1,0
125700,-100,4,2,77,50,0,0
126705,332.409972299168,4,2,77,80,1,1
126705,-90.9090909090909,4,2,77,80,0,1
128034,331.491712707181,4,2,77,80,1,1
128034,-90.9090909090909,4,2,77,80,0,1
129359,335.664335664335,4,2,77,80,1,1
129359,-90.9090909090909,4,2,77,80,0,1
131708,327.868852459016,4,2,77,80,1,1
131708,-90.9090909090909,4,2,77,80,0,1
132035,334.26183844011,4,2,77,80,1,1
132035,-90.9090909090909,4,2,77,80,0,1
133372,332.871012482662,4,2,77,80,1,1
133372,-90.9090909090909,4,2,77,80,0,1
134703,351.90615835777,4,2,77,80,1,1
134703,-90.9090909090909,4,2,77,80,0,1
135054,319.999999999999,4,2,77,80,1,1
135054,-90.9090909090909,4,2,77,80,0,1
135374,331.950207468879,4,2,77,80,1,1
135374,-90.9090909090909,4,2,77,80,0,1
136037,314.960629921259,4,2,77,80,1,1
136037,-90.9090909090909,4,2,77,80,0,1
136351,349.854227405247,4,2,77,80,1,1
136351,-90.9090909090909,4,2,77,80,0,1
136700,331.950207468879,4,2,77,80,1,1
136700,-90.9090909090909,4,2,77,80,0,1
137363,338.983050847457,4,2,77,80,1,1
137363,-90.9090909090909,4,2,77,80,0,1
138379,329.670329670329,4,2,77,80,1,1
138379,-90.9090909090909,4,2,77,80,0,1
138708,339.943342776203,4,2,77,80,1,1
138708,-90.9090909090909,4,2,77,80,0,1
139727,307.692307692307,4,2,77,80,1,1
139727,-90.9090909090909,4,2,77,80,0,1
140034,340.425531914893,4,2,77,80,1,1
140034,-90.9090909090909,4,2,77,80,0,1
141055,316.622691292875,4,2,77,80,1,1
141055,-90.9090909090909,4,2,77,80,0,1
141371,332.409972299168,4,2,77,80,1,1
141371,-90.9090909090909,4,2,77,80,0,1
142368,324.763193504735,4,2,77,80,1,1
142368,-90.9090909090909,4,2,77,80,0,1
142692,346.820809248554,4,2,77,80,1,1
142692,-90.9090909090909,4,2,77,80,0,1
143038,344.827586206895,4,2,77,80,1,1
143038,-90.9090909090909,4,2,77,80,0,1
143382,328.317373461011,4,2,77,80,1,1
143382,-90.9090909090909,4,2,77,80,0,1
144038,333.796940194714,4,2,77,80,1,1
144038,-90.9090909090909,4,2,77,80,0,1
145373,339.462517680338,4,2,77,80,1,1
145373,-90.9090909090909,4,2,77,80,0,1
146051,333.796940194714,4,2,77,80,1,1
146051,-90.9090909090909,4,2,77,80,0,1
146718,333.796940194714,4,2,77,70,1,0
146718,-90.9090909090909,4,2,77,70,0,0
148386,331.03448275862,4,2,77,70,1,0
149379,331.03448275862,4,2,77,70,1,0
150041,314.960629921259,4,2,77,70,1,0
150670,355.029585798815,4,2,77,70,1,0
151380,333.796940194714,4,2,77,70,1,0
152047,334.728033472803,4,2,77,70,1,0
152716,314.13612565445,4,2,77,70,1,0
153344,370.942812982997,4,2,77,70,1,0
153714,337.552742616033,4,2,77,70,1,0
154726,323.014804845221,4,2,77,70,1,0
155533,331.950207468879,4,2,77,70,1,0
156030,339.462517680339,4,2,77,70,1,0
157387,328.317373461012,4,2,77,70,1,0
158700,346.320346320346,4,2,77,70,1,0
159392,325.20325203252,4,2,77,70,1,0
160205,339.943342776203,4,2,77,70,1,0
160884,327.868852459016,4,2,77,70,1,0
161375,331.491712707182,4,2,77,50,1,0
162700,336.134453781512,4,2,77,5,1,0
163036,-100,4,2,77,50,0,0
164044,-100,4,2,77,70,0,0
164716,331.03448275862,4,2,77,70,1,0
165378,335.195530726256,4,2,77,70,1,0
167389,329.218106995884,4,2,77,70,1,0
168047,335.195530726256,4,2,77,70,1,0
169387,320.855614973261,4,2,77,70,1,0
170028,336.134453781511,4,2,77,70,1,0
170700,337.078651685392,4,2,77,70,1,0
172048,319.148936170212,4,2,77,70,1,0
172686,341.880341880341,4,2,77,70,1,0
173369,333.333333333332,4,2,77,70,1,0
174702,334.728033472802,4,2,77,80,1,1
174702,-90.9090909090909,4,2,77,80,0,1
176040,336.134453781511,4,2,77,80,1,1
176040,-90.9090909090909,4,2,77,80,0,1
177048,325.644504748981,4,2,77,80,1,1
177048,-90.9090909090909,4,2,77,80,0,1
177373,337.552742616033,4,2,77,80,1,1
177373,-90.9090909090909,4,2,77,80,0,1
178385,324.763193504735,4,2,77,80,1,1
178385,-90.9090909090909,4,2,77,80,0,1
178709,332.409972299168,4,2,77,80,1,1
178709,-90.9090909090909,4,2,77,80,0,1
180038,338.983050847457,4,2,77,80,1,1
180038,-90.9090909090909,4,2,77,80,0,1
180715,324.763193504735,4,2,77,80,1,1
180715,-90.9090909090909,4,2,77,80,0,1
181364,331.03448275862,4,2,77,80,1,1
181364,-90.9090909090909,4,2,77,80,0,1
182688,340.425531914892,4,2,77,80,1,1
182688,-90.9090909090909,4,2,77,80,0,1
184049,336.134453781511,4,2,77,70,1,0
184049,-90.9090909090909,4,2,77,70,0,0
185393,333.796940194713,4,2,77,70,1,0
186060,328.317373461011,4,2,77,70,1,0
186716,328.317373461011,4,2,77,70,1,0
188029,342.368045649071,4,2,77,70,1,0
188029,-250,4,2,77,70,0,0
189398,327.421555252386,4,2,77,70,1,0
189561,-142.857142857143,4,2,77,70,0,0
190052,339.943342776203,4,2,77,70,1,0
190731,328.317373461011,4,2,77,70,1,0
192044,331.950207468878,4,2,77,70,1,0
193371,333.333333333332,4,2,77,70,1,0
194704,339.943342776203,4,2,77,70,1,0
195043,323.886639676112,4,2,77,70,1,0
195528,333.796940194714,4,2,77,70,1,0
195861,341.880341880341,4,2,77,70,1,0
196372,338.028169014083,4,2,77,70,1,0
197048,326.975476839236,4,2,77,70,1,0
197211,-101.010101010101,4,2,77,70,0,0
197374,333.796940194714,4,2,77,70,1,0
199376,333.333333333333,4,2,77,70,1,0
200376,331.491712707182,4,2,77,70,1,0
200376,-250,4,2,77,70,0,0
202696,-250,4,2,77,5,0,0

[Colours]
Combo1 : 91,199,244
Combo2 : 203,235,137
Combo3 : 221,132,213
Combo4 : 255,169,151

[HitObjects]
70,84,1360,6,0,P|99:81|127:79,1,47.9999985351563,10|2,3:2|2:0,0:0:0:0:
186,30,1706,2,0,P|215:32|243:35,1,47.9999985351563,10|2,2:0|2:0,0:0:0:0:
302,86,2038,2,0,P|342:83|382:78,1,71.9999978027344,10|0,2:0|0:0,0:0:0:0:
373,80,2371,5,10,3:2:0:0:
440,142,2534,1,2,2:0:0:0:
405,220,2697,2,0,P|407:249|410:277,1,47.9999985351563,10|2,2:0|2:0,0:0:0:0:
312,371,3026,2,0,B|270:368|270:368|263:363|263:363|201:357,1,96,10|0,2:0|0:0,0:0:0:0:
217,358,3361,5,10,2:0:0:0:
131,354,3529,1,2,2:0:0:0:
133,268,3698,1,8,2:0:0:0:
219,270,3868,1,2,2:0:0:0:
122,269,4038,6,0,P|93:271|65:274,1,47.9999985351563,8|2,2:0|2:0,0:0:0:0:
69,188,4361,2,0,P|92:185|116:184,1,47.9999985351563,8|2,2:0|2:0,0:0:0:0:
183,128,4692,2,0,P|199:88|176:58,1,71.9999978027344,10|0,2:0|3:0,0:0:0:0:
186,65,5023,5,10,2:0:0:0:
263,182,5187,2,0,B|326:176|326:176|339:186|339:186|419:178,1,143.999995605469,6|0,3:2|3:0,0:0:0:0:
487,284,5682,1,14,2:0:0:0:
512,156,5850,1,0,3:0:0:0:
512,156,5934,1,8,2:0:0:0:
512,156,6018,1,8,2:0:0:0:
386,277,6186,2,0,P|392:315|399:359,1,71.9999978027344,6|0,3:2|0:0,0:0:0:0:
186,384,6522,5,8,2:0:0:0:
186,384,6606,1,8,2:0:0:0:
186,384,6690,2,0,P|196:315|208:247,1,120,4|0,3:2|0:0,0:0:0:0:
221,187,7026,2,0,P|178:168|130:180,1,80,10|0,2:0|0:0,0:0:0:0:
117,288,7362,1,2,3:2:0:0:
281,316,7530,2,0,L|409:300,1,120,2|0,3:2|0:0,0:0:0:0:
400,301,7866,5,0,0:0:0:0:
479,210,8034,2,0,P|489:156|472:125,1,80,2|0,3:2|0:0,0:0:0:0:
402,42,8367,1,10,2:0:0:0:
340,190,8534,2,0,B|264:178|298:229|195:212,1,120,2|0,2:0|0:0,0:0:0:0:
145,209,8867,2,0,P|136:160|143:130,1,80,2|8,3:2|2:0,0:0:0:0:
236,123,9117,1,0,0:0:0:0:
236,123,9200,2,0,P|245:84|239:45,1,80,6|0,3:2|3:0,0:0:0:0:
142,131,9534,5,0,0:0:0:0:
119,0,9700,2,0,L|0:14,1,120,10|0,2:0|0:0,0:0:0:0:
0,14,10034,1,2,3:2:0:0:
41,134,10200,2,0,L|51:217,1,80,2|8,3:2|2:0,0:0:0:0:
27,323,10534,1,0,3:0:0:0:
155,261,10700,2,0,B|198:264|198:264|220:254|220:254|305:272,1,120,2|0,3:2|0:0,0:0:0:0:
271,264,11034,1,10,2:0:0:0:
360,317,11200,2,0,P|377:271|365:234,1,80,2|0,2:0|3:0,0:0:0:0:
430,128,11534,6,0,B|463:146|463:146|516:132,1,80,10|0,2:0|0:0,0:0:0:0:
364,58,11867,2,0,B|314:46|272:70|302:94|262:114|199:88,1,160,10|0,2:0|3:0,0:0:0:0:
103,14,12376,2,0,B|65:-3|65:-3|18:58|79:122,1,160,14|2,2:0|3:2,0:0:0:0:
145,171,12873,2,0,P|140:206|135:258,1,80,2|8,3:2|2:0,0:0:0:0:
235,372,13205,6,0,B|304:365|304:365|310:373|310:373|420:362,1,160,2|2,2:0|2:0,0:0:0:0:
335,272,13710,1,10,2:0:0:0:
411,201,13880,2,0,L|404:108,1,80,2|0,2:0|0:0,0:0:0:0:
441,6,14210,1,2,3:2:0:0:
501,96,14370,1,10,2:0:0:0:
501,96,14530,1,2,3:2:0:0:
357,49,14690,6,0,L|265:56,1,80,2|2,3:2|2:0,0:0:0:0:
165,108,15028,1,10,2:0:0:0:
197,13,15198,1,2,2:0:0:0:
253,147,15367,2,0,L|261:250,1,80,2|0,3:2|3:0,0:0:0:0:
196,352,15706,1,10,2:0:0:0:
196,352,15876,1,2,2:0:0:0:
138,230,16045,1,2,3:2:0:0:
54,328,16205,1,10,2:0:0:0:
196,352,16365,6,0,B|267:347|267:347|276:357|276:357|374:349,1,160,2|8,2:0|2:0,0:0:0:0:
443,291,16850,1,4,0:3:0:0:
365,211,17015,1,8,0:3:0:0:
365,211,17098,1,4,0:3:0:0:
365,211,17180,2,0,L|358:154,1,40,8|4,0:3|0:3,0:0:0:0:
398,105,17345,1,4,3:2:0:0:
398,105,17683,5,10,2:0:0:0:
280,159,17852,2,0,L|133:148,1,128,2|0,2:0|3:0,0:0:0:0:
101,60,18360,2,0,L|190:53,1,64,10|0,2:0|0:0,0:0:0:0:
58,151,18699,6,0,B|66:197|66:197|61:215|61:215|72:293,1,128,2|10,3:2|2:0,0:0:0:0:
0,384,19201,2,0,P|58:361|126:380,1,128,2|0,2:0|3:0,0:0:0:0:
209,379,19703,1,8,2:0:0:0:
155,235,19870,5,2,3:2:0:0:
155,235,20037,2,0,P|163:287|162:325,1,64,2|0,3:2|0:0,0:0:0:0:
260,289,20372,2,0,P|257:257|251:225,1,64,10|0,2:0|0:0,0:0:0:0:
326,131,20707,6,0,P|357:149|401:145,1,64,2|0,2:0|3:0,0:0:0:0:
480,223,21042,2,0,P|448:225|421:242,1,64,10|0,2:0|0:0,0:0:0:0:
475,129,21376,5,2,3:2:0:0:
475,129,21542,2,0,P|477:86|483:41,1,64,2|8,2:0|2:0,0:0:0:0:
374,0,21876,2,0,P|377:31|378:63,1,64,2|0,2:0|0:0,0:0:0:0:
302,146,22210,2,0,B|221:138|270:191|156:178,1,128,2|0,3:2|3:0,0:0:0:0:
113,127,22697,1,0,3:0:0:0:
113,127,23030,6,0,P|102:83|111:57,1,64,10|2,2:0|2:0,0:0:0:0:
183,180,23364,2,0,L|171:263,1,64,2|0,2:0|3:0,0:0:0:0:
89,300,23698,2,0,L|79:236,1,64,10|0,2:0|0:0,0:0:0:0:
189,334,24032,6,0,P|237:350|315:306,1,128,2|10,3:2|2:0,0:0:0:0:
361,250,24534,2,0,L|500:274,1,128,2|0,2:0|3:0,0:0:0:0:
504,183,25036,1,8,2:0:0:0:
448,60,25203,5,2,3:2:0:0:
448,60,25370,2,0,P|439:95|433:143,1,64,2|0,3:2|0:0,0:0:0:0:
344,62,25706,2,0,P|348:30|357:0,1,64,10|0,2:0|0:0,0:0:0:0:
269,131,26043,6,0,P|236:112|206:110,1,64,2|0,2:0|3:0,0:0:0:0:
113,45,26379,2,0,P|144:40|171:23,1,64,10|0,2:0|0:0,0:0:0:0:
114,143,26716,5,2,3:2:0:0:
36,230,26880,2,0,L|51:318,1,64,14|0,2:0|0:0,0:0:0:0:
64,380,27208,1,8,0:3:0:0:
153,374,27372,1,8,2:0:0:0:
141,285,27536,1,8,3:3:0:0:
237,285,27700,2,0,L|320:284,1,64,8|4,0:3|0:3,0:0:0:0:
300,284,27947,5,4,0:3:0:0:
300,284,28029,2,0,B|303:229|303:229|294:213|294:213|295:135,1,143.999995605469,4|10,3:2|2:0,0:0:0:0:
188,169,28531,1,2,2:0:0:0:
253,54,28699,2,0,P|305:45|343:60,1,71.9999978027344,2|2,2:0|3:2,0:0:0:0:
159,83,29034,2,0,P|117:74|84:82,1,71.9999978027344,10|0,2:0|0:0,0:0:0:0:
17,184,29369,5,2,3:2:0:0:
113,237,29535,2,0,L|100:338,1,71.9999978027344,2|8,2:0|2:0,0:0:0:0:
198,367,29869,2,0,P|252:336|356:365,1,143.999995605469,2|0,2:0|3:0,0:0:0:0:
402,275,30369,1,8,2:0:0:0:
510,377,30535,5,2,3:2:0:0:
473,266,30702,2,0,L|373:278,1,71.9999978027344,2|0,3:2|0:0,0:0:0:0:
288,146,31036,2,0,P|319:194|284:258,1,107.999996704102,10|0,2:0|0:0,0:0:0:0:
306,239,31370,2,0,L|206:251,1,71.9999978027344,2|0,2:0|3:0,0:0:0:0:
186,151,31704,2,0,P|188:109|211:74,1,71.9999978027344,10|0,2:0|0:0,0:0:0:0:
260,18,32039,5,2,3:2:0:0:
110,67,32204,2,0,L|33:53,1,71.9999978027344,2|8,2:0|2:0,0:0:0:0:
5,180,32534,2,0,L|75:167,1,71.9999978027344,2|0,2:0|0:0,0:0:0:0:
139,262,32864,1,2,3:2:0:0:
247,227,33029,2,0,P|295:218|341:237,1,71.9999978027344,10|0,2:0|3:0,0:0:0:0:
451,207,33359,6,0,B|415:248|415:248|444:318,1,107.999996704102,2|0,3:2|0:0,0:0:0:0:
435,297,33692,2,0,B|467:292|467:292|471:299|471:299|519:291,1,71.9999978027344,10|0,2:0|0:0,0:0:0:0:
369,368,34025,2,0,P|320:379|277:327,1,107.999996704102,2|0,2:0|0:0,0:0:0:0:
280,342,34359,2,0,B|248:337|248:337|244:343|244:343|196:335,1,71.9999978027344,10|0,2:0|0:0,0:0:0:0:
136,175,34692,6,0,B|144:226|144:226|137:230|137:230|152:297,1,107.999996704102,2|0,3:2|0:0,0:0:0:0:
147,277,35026,1,10,2:0:0:0:
50,216,35194,1,0,0:0:0:0:
236,161,35361,2,0,L|383:187,1,143.999995605469,2|8,2:0|2:0,0:0:0:0:
440,252,35863,5,2,3:2:0:0:
399,100,36030,2,0,L|415:14,1,71.9999978027344,2|0,3:2|0:0,0:0:0:0:
288,3,36370,2,0,L|301:73,1,71.9999978027344,10|0,2:0|0:0,0:0:0:0:
236,161,36710,6,0,P|203:141|164:140,1,71.9999978027344,2|0,2:0|3:0,0:0:0:0:
88,66,37051,2,0,P|123:62|153:43,1,71.9999978027344,10|0,2:0|0:0,0:0:0:0:
13,6,37391,5,2,3:2:0:0:
90,158,37551,2,0,L|76:228,1,71.9999978027344,14|0,2:0|0:0,0:0:0:0:
191,330,37872,1,8,0:3:0:0:
167,230,38033,1,8,2:0:0:0:
98,315,38200,1,8,0:3:0:0:
255,257,38367,2,0,L|384:277,1,107.999996704102,10|0,2:0|0:0,0:0:0:0:
356,282,38701,6,0,B|368:187|368:187|362:174|362:174|371:74,1,192,12|0,3:2|3:0,0:0:0:0:
248,25,39356,2,0,B|188:36|188:36|187:44|187:44|117:54|117:54|156:16|156:16|152:14|152:14|184:-26,1,215.999993408203,12|0,3:2|3:0,0:0:0:0:
98,83,40039,6,0,L|111:153,2,64,14|0|0,3:2|3:0|3:0,0:0:0:0:
34,201,40534,1,2,3:2:0:0:
155,265,40700,2,0,L|225:252,2,64,14|0|0,3:2|3:0|3:0,0:0:0:0:
334,132,41198,5,0,3:0:0:0:
334,132,41281,1,0,3:0:0:0:
334,132,41364,2,0,B|322:211|322:211|328:221|328:221|310:337,1,192,12|0,3:2|3:0,0:0:0:0:
251,211,42037,2,0,B|231:241|231:241|277:222|317:221|317:221|323:231|323:231|407:207,1,215.999993408203,12|0,3:2|3:0,0:0:0:0:
494,298,42694,6,0,L|482:360,2,64,14|0|0,3:2|3:0|3:0,0:0:0:0:
372,384,43206,2,0,L|383:321,2,64,14|0|0,3:2|3:0|3:0,0:0:0:0:
420,240,43703,2,0,L|409:178,1,64,14|0,3:2|0:0,0:0:0:0:
227,237,44029,6,0,B|148:249|148:249|138:243|138:243|22:261,1,192,12|0,3:2|3:0,0:0:0:0:
121,142,44710,2,0,B|135:236|135:236|128:248|128:248|146:367,1,215.999993408203,12|0,3:2|3:0,0:0:0:0:
277,384,45382,6,0,L|347:371,2,64,14|0|0,3:2|3:0|3:0,0:0:0:0:
144,353,45871,1,2,3:2:0:0:
242,268,46034,2,0,L|312:255,2,64,12|0|2,3:2|3:0|3:2,0:0:0:0:
123,205,46538,1,0,3:0:0:0:
237,94,46707,6,0,B|316:106|316:106|326:100|326:100|442:118,1,192,12|0,3:2|3:0,0:0:0:0:
359,0,47388,2,0,B|339:20|339:20|315:33|315:33|325:78|325:78|323:86|323:86|355:200,1,215.999993408203,12|0,3:2|3:0,0:0:0:0:
407,305,48048,6,0,L|394:375,2,64,14|0|0,3:2|3:0|3:0,0:0:0:0:
351,188,48546,2,0,L|339:125,2,64,14|0|0,3:2|3:0|3:0,0:0:0:0:
272,322,49039,2,0,B|216:325|216:325|208:313|208:313|126:317,1,128,14|0,3:2|0:0,0:0:0:0:
256,192,53369,12,0,54699,0:0:0:0:
0,384,55033,5,0,0:0:0:0:
157,335,55367,1,0,0:0:0:0:
157,335,55534,1,0,0:0:0:0:
60,301,55701,1,0,0:0:0:0:
60,301,56036,6,0,B|50:244|50:244|57:229|57:229|45:167,1,132.00000402832,4|0,3:1|0:0,0:0:0:0:
35,93,56367,2,0,P|80:72|127:86,1,88.000002685547,10|0,2:0|0:0,0:0:0:0:
186,169,56698,1,2,3:2:0:0:
291,116,56864,1,0,3:0:0:0:
291,116,56947,1,0,0:0:0:0:
291,116,57030,2,0,L|398:133,1,88.000002685547,10|0,2:0|0:0,0:0:0:0:
443,44,57374,5,6,3:2:0:0:
409,216,57539,2,0,L|426:327,1,88.000002685547,2|8,2:0|2:0,0:0:0:0:
292,356,57869,2,0,B|195:338|237:403|110:380,1,176.000005371094,2|0,2:0|3:0,0:0:0:0:
38,340,58364,1,10,2:0:0:0:
147,274,58529,5,0,3:0:0:0:
57,184,58694,2,0,P|40:144|58:88,1,88.000002685547,6|2,3:2|2:0,0:0:0:0:
139,0,59028,1,10,2:0:0:0:
142,135,59195,1,2,2:0:0:0:
257,67,59362,6,0,L|348:84,1,88.000002685547,2|2,3:2|3:2,0:0:0:0:
460,183,59696,1,10,2:0:0:0:
452,40,59863,1,2,3:2:0:0:
456,209,60031,6,0,B|448:258|448:258|456:270|456:270|441:358,1,132.00000402832,6|0,3:2|0:0,0:0:0:0:
444,337,60365,1,10,2:0:0:0:
328,378,60532,1,2,3:2:0:0:
234,303,60699,2,0,L|127:320,1,88.000002685547,6|0,2:0|3:0,0:0:0:0:
29,377,61043,1,10,2:0:0:0:
66,241,61203,5,2,3:2:0:0:
66,241,61283,1,0,0:0:0:0:
66,241,61363,2,0,B|58:177|58:177|66:165|66:165|56:93,1,132.00000402832,4|0,3:2|0:0,0:0:0:0:
52,33,61698,2,0,P|101:16|140:27,1,88.000002685547,10|0,2:0|0:0,0:0:0:0:
179,139,62034,1,2,3:2:0:0:
76,114,62202,1,0,3:0:0:0:
229,48,62369,2,0,L|375:70,1,132.00000402832,10|0,2:0|0:0,0:0:0:0:
439,78,62705,6,0,P|448:125|429:165,1,88.000002685547,6|0,3:2|0:0,0:0:0:0:
324,219,63037,1,10,2:0:0:0:
397,318,63204,1,2,2:0:0:0:
397,318,63287,1,2,2:0:0:0:
397,318,63370,2,0,L|504:301,1,88.000002685547,2|0,3:2|3:0,0:0:0:0:
306,372,63703,2,0,B|247:364|247:364|239:354|239:354|161:346,1,132.00000402832,10|0,2:0|0:0,0:0:0:0:
180,347,64028,5,6,3:2:0:0:
59,373,64198,1,2,2:0:0:0:
109,260,64368,2,0,L|92:153,1,88.000002685547,10|2,2:0|2:0,0:0:0:0:
152,44,64708,1,2,3:2:0:0:
35,85,64879,1,0,3:0:0:0:
190,140,65049,2,0,P|246:127|298:141,1,88.000002685547,10|0,2:0|0:0,0:0:0:0:
383,194,65375,5,6,3:2:0:0:
471,249,65540,1,8,2:0:0:0:
503,102,65706,2,0,L|416:88,1,88.000002685547,2|2,2:0|3:2,0:0:0:0:
272,26,66038,2,0,L|285:112,1,88.000002685547,14|0,2:0|3:0,0:0:0:0:
254,229,66370,1,10,2:0:0:0:
127,61,66541,5,2,3:2:0:0:
127,61,66627,1,0,0:0:0:0:
127,61,66713,2,0,B|68:68|68:68|63:61|63:61|-17:72,1,132.00000402832,12|0,3:2|0:0,0:0:0:0:
34,144,67047,2,0,B|57:179|57:179|48:252,1,88.000002685547,10|0,2:0|3:0,0:0:0:0:
109,292,67298,1,0,3:0:0:0:
109,292,67382,2,0,B|150:296|150:296|153:292|153:292|209:299,1,88.000002685547,10|0,2:0|3:0,0:0:0:0:
271,148,67717,2,0,B|248:183|248:183|257:256,1,88.000002685547,10|0,2:0|3:0,0:0:0:0:
271,362,68051,5,14,3:2:0:0:
385,316,68217,1,0,3:0:0:0:
395,193,68383,1,8,2:0:0:0:
482,279,68549,5,6,3:2:0:0:
381,208,68715,1,8,2:0:0:0:
449,105,68881,1,0,3:0:0:0:
332,0,69048,2,0,L|345:86,1,88.000002685547,8|0,2:0|3:0,0:0:0:0:
132,174,69380,6,0,B|74:163|74:163|73:171|73:171|2:158,1,132.00000402832,12|0,3:2|0:0,0:0:0:0:
40,81,69716,2,0,B|22:45|22:45|44:-6,1,88.000002685547,10|0,2:0|3:0,0:0:0:0:
172,90,70052,2,0,B|217:81|217:81|218:87|218:87|275:77,1,88.000002685547,10|0,2:0|3:0,0:0:0:0:
337,193,70388,2,0,B|355:229|355:229|333:280,1,88.000002685547,10|0,2:0|3:0,0:0:0:0:
277,331,70640,5,0,0:0:0:0:
277,331,70724,1,14,3:2:0:0:
167,275,70889,1,0,3:0:0:0:
238,174,71055,1,8,2:0:0:0:
40,284,71221,5,6,3:2:0:0:
162,298,71387,1,8,2:0:0:0:
137,177,71553,1,0,3:0:0:0:
251,86,71719,2,0,L|238:172,1,88.000002685547,8|0,2:0|3:0,0:0:0:0:
308,228,71968,5,0,0:0:0:0:
308,228,72051,2,0,B|366:219|366:219|373:225|373:225|467:209,1,132.00000402832,12|0,3:2|0:0,0:0:0:0:
487,281,72383,2,0,B|505:314|505:314|490:389,1,88.000002685547,10|0,2:0|3:0,0:0:0:0:
328,377,72715,2,0,B|287:370|287:370|282:374|282:374|216:363,1,88.000002685547,10|0,2:0|3:0,0:0:0:0:
99,321,73047,1,10,2:0:0:0:
203,175,73213,5,0,3:0:0:0:
203,175,73296,1,0,3:0:0:0:
203,175,73378,2,0,B|195:117|195:117|202:107|202:107|187:22,1,132.00000402832,10|0,3:2|0:0,0:0:0:0:
113,17,73710,2,0,B|74:4|74:4|16:32,1,88.000002685547,10|0,2:0|3:0,0:0:0:0:
48,147,74043,2,0,B|42:186|42:186|47:194|47:194|36:254,1,88.000002685547,10|0,2:0|3:0,0:0:0:0:
109,337,74376,1,10,2:0:0:0:
255,263,74543,5,0,0:0:0:0:
255,263,74626,1,0,0:0:0:0:
255,263,74709,2,0,B|286:250|316:271|316:271|340:303|403:287,1,132.00000402832,14|0,3:2|0:0,0:0:0:0:
439,234,75042,2,0,B|451:186|451:186|428:127,1,88.000002685547,8|0,2:0|3:0,0:0:0:0:
349,51,75375,2,0,L|248:64,1,88.000002685547,8|0,2:0|3:0,0:0:0:0:
129,109,75708,1,8,2:0:0:0:
220,152,75874,1,0,3:0:0:0:
50,69,76040,1,10,3:2:0:0:
50,69,77382,5,10,3:2:0:0:
128,262,77721,1,10,3:2:0:0:
128,262,78711,6,0,L|32:246,1,80,10|8,3:2|0:3,0:0:0:0:
113,371,79043,2,0,L|191:357,1,80,2|8,3:2|0:3,0:0:0:0:
268,266,79376,6,0,L|253:203,1,53.3333333333333,10|10,2:0|2:0,0:0:0:0:
322,160,79599,5,8,2:0:0:0:
322,160,79711,2,0,L|337:97,1,53.3333333333333,8|4,0:3|0:3,0:0:0:0:
220,126,79934,5,4,0:3:0:0:
220,126,80046,2,0,B|155:100|74:128|120:176|48:203|-2:170,1,240,14|0,3:2|0:0,0:0:0:0:
2,172,81394,1,12,3:2:0:0:
50,273,81551,1,0,3:0:0:0:
50,273,81867,5,0,3:0:0:0:
152,228,82025,2,0,L|138:303,1,55.9999982910157,8|8,3:2|0:3,0:0:0:0:
228,381,82364,1,0,3:0:0:0:
243,290,82534,1,4,0:3:0:0:
138,369,82703,1,12,3:2:0:0:
104,357,84207,6,0,L|99:322,1,20,4|0,0:3|0:0,0:0:0:0:
2,378,84537,5,4,0:3:0:0:
104,357,84702,2,0,L|177:369,1,55.9999982910157,8|8,2:0|0:3,0:0:0:0:
190,265,85048,2,0,L|117:253,1,55.9999982910157,4|0,0:3|3:0,0:0:0:0:
135,256,85293,5,0,3:0:0:0:
135,256,85358,2,0,L|127:165,1,71.9999978027344,10|2,2:0|2:0,0:0:0:0:
181,78,85700,2,0,B|219:63|219:63|259:76,1,71.9999978027344,10|2,2:0|3:2,0:0:0:0:
248,72,85950,1,0,0:0:0:0:
248,72,86033,1,10,2:0:0:0:
338,176,86205,1,0,3:0:0:0:
222,166,86377,1,10,2:0:0:0:
434,85,86549,6,0,B|426:145|426:145|434:155|434:155|419:252,1,143.999995605469,6|0,3:2|3:0,0:0:0:0:
302,307,87060,1,10,2:0:0:0:
419,324,87223,1,8,2:0:0:0:
419,324,87304,1,8,2:0:0:0:
419,324,87386,1,8,2:0:0:0:
318,199,87549,2,0,L|162:218,1,143.999995605469,6|8,3:2|2:0,0:0:0:0:
175,216,87943,5,8,2:0:0:0:
175,216,88022,2,0,L|186:264,1,40,8|0,2:0|0:0,0:0:0:0:
106,152,88357,1,6,3:2:0:0:
106,152,89531,5,0,3:0:0:0:
159,0,89867,1,0,3:0:0:0:
245,142,90203,1,0,3:0:0:0:
302,33,90370,2,0,L|292:81,1,40,8|0,2:0|0:0,0:0:0:0:
387,47,90706,6,0,L|369:120,1,64,6|0,3:2|0:0,0:0:0:0:
284,156,91056,2,0,L|304:296,1,128,10|2,0:0|2:0,0:0:0:0:
387,332,91555,1,0,3:0:0:0:
301,380,91721,2,0,P|261:368|229:368,1,64,10|0,2:0|0:0,0:0:0:0:
144,264,92054,6,0,P|175:266|206:276,1,64,2|2,3:2|3:2,0:0:0:0:
149,358,92371,1,8,2:0:0:0:
45,384,92530,2,0,L|60:321,1,64,2|0,3:2|0:0,0:0:0:0:
10,248,92874,1,2,3:2:0:0:
107,187,93041,2,0,L|75:317,1,128,10|0,2:0|3:0,0:0:0:0:
185,127,93706,6,0,P|225:121|261:124,1,64,10|2,2:0|2:0,0:0:0:0:
332,213,94037,2,0,P|300:212|268:217,1,64,2|0,2:0|3:0,0:0:0:0:
335,121,94367,2,0,P|333:84|305:52,1,64,10|0,2:0|0:0,0:0:0:0:
268,217,94698,6,0,P|291:256|271:349,1,128,2|10,3:2|2:0,0:0:0:0:
189,384,95195,2,0,P|116:374|55:369,1,128,2|0,2:0|3:0,0:0:0:0:
3,300,95693,1,8,2:0:0:0:
98,187,95859,5,2,2:0:0:0:
98,187,96025,2,0,P|86:233|82:257,1,64,2|0,3:2|0:0,0:0:0:0:
0,165,96364,2,0,P|6:133|14:102,1,64,10|0,2:0|0:0,0:0:0:0:
103,78,96703,1,2,2:0:0:0:
103,78,96873,1,2,3:2:0:0:
175,131,97043,2,0,P|209:122|249:133,1,64,10|0,2:0|0:0,0:0:0:0:
306,78,97382,5,2,3:2:0:0:
273,210,97539,2,0,L|282:280,1,64,14|0,2:0|0:0,0:0:0:0:
294,356,97855,1,8,0:3:0:0:
202,372,98023,1,8,2:0:0:0:
184,284,98185,1,8,0:3:0:0:
105,317,98347,2,0,L|39:331,1,64,8|4,0:3|0:3,0:0:0:0:
42,330,98590,5,4,0:3:0:0:
42,330,98671,2,0,B|44:273|44:273|36:254|36:254|43:169,1,143.999995605469,4|10,3:2|2:0,0:0:0:0:
129,210,99188,1,2,2:0:0:0:
66,106,99360,2,0,P|18:97|-13:123,1,71.9999978027344,2|0,2:0|3:0,0:0:0:0:
163,122,99705,2,0,P|196:134|229:123,1,71.9999978027344,10|0,2:0|0:0,0:0:0:0:
286,48,100028,5,2,3:2:0:0:
266,208,100196,2,0,L|287:296,1,71.9999978027344,2|8,2:0|2:0,0:0:0:0:
405,333,100534,2,0,B|320:328|350:371|265:368,1,143.999995605469,2|0,2:0|3:0,0:0:0:0:
165,287,101040,1,8,2:0:0:0:
170,377,101202,5,2,2:0:0:0:
282,278,101364,2,0,L|266:208,1,71.9999978027344,2|0,3:2|0:0,0:0:0:0:
230,71,101697,2,0,P|282:54|334:92,1,107.999996704102,10|0,2:0|0:0,0:0:0:0:
326,79,102031,1,2,2:0:0:0:
266,208,102198,1,0,3:0:0:0:
376,179,102365,2,0,L|447:189,1,71.9999978027344,10|0,2:0|0:0,0:0:0:0:
500,113,102699,5,2,3:2:0:0:
461,277,102865,2,0,L|470:348,1,71.9999978027344,2|8,2:0|2:0,0:0:0:0:
347,384,103198,2,0,L|356:312,1,71.9999978027344,2|0,3:2|0:0,0:0:0:0:
242,375,103531,1,2,3:2:0:0:
177,280,103697,2,0,P|139:274|102:302,1,71.9999978027344,10|0,2:0|0:0,0:0:0:0:
87,146,104030,6,0,B|129:139|129:139|142:126|142:126|200:120,1,107.999996704102,2|0,3:2|0:0,0:0:0:0:
188,121,104363,2,0,B|198:83|198:83|184:45,1,71.9999978027344,10|0,2:0|0:0,0:0:0:0:
291,81,104696,2,0,P|339:60|400:73,1,107.999996704102,2|0,2:0|0:0,0:0:0:0:
392,68,105029,2,0,B|382:30|382:30|396:-8,1,71.9999978027344,10|0,2:0|0:0,0:0:0:0:
503,155,105361,6,0,B|496:197|496:197|488:206|488:206|476:267,1,107.999996704102,2|0,3:2|0:0,0:0:0:0:
477,258,105698,1,10,2:0:0:0:
388,196,105866,1,0,0:0:0:0:
365,324,106035,2,0,L|233:310,1,107.999996704102,2|0,2:0|0:0,0:0:0:0:
257,312,106372,1,10,2:0:0:0:
184,238,106540,1,0,3:0:0:0:
249,147,106709,6,0,L|240:75,1,71.9999978027344,2|0,3:2|0:0,0:0:0:0:
145,10,107043,2,0,P|101:2|62:20,1,71.9999978027344,10|0,2:0|0:0,0:0:0:0:
0,150,107377,1,2,2:0:0:0:
105,100,107544,1,2,3:2:0:0:
168,211,107711,2,0,L|75:196,1,71.9999978027344,10|0,2:0|0:0,0:0:0:0:
15,140,108046,5,2,3:2:0:0:
92,300,108213,2,0,L|164:309,1,71.9999978027344,14|0,2:0|0:0,0:0:0:0:
323,346,108540,1,8,0:3:0:0:
256,260,108700,1,8,2:0:0:0:
233,384,108861,1,8,0:3:0:0:
366,242,109039,2,0,L|474:228,1,107.999996704102,4|0,0:3|0:0,0:0:0:0:
467,234,109375,6,0,B|473:159|473:159|482:147|482:147|491:27,1,192,12|0,3:2|3:0,0:0:0:0:
379,3,110035,2,0,B|310:21|310:21|314:23|314:23|257:54|252:60|252:60|239:23|202:20,1,215.999993408203,12|0,3:2|3:0,0:0:0:0:
106,108,110688,6,0,L|181:96,2,64,14|0|0,3:2|3:0|3:0,0:0:0:0:
239,157,111190,1,2,3:2:0:0:
177,259,111357,2,0,L|189:334,2,64,14|0|0,3:2|3:0|3:0,0:0:0:0:
117,373,111866,1,0,3:0:0:0:
274,251,112035,6,0,B|349:245|349:245|361:236|361:236|481:227,1,192,12|0,3:2|3:0,0:0:0:0:
349,118,112698,2,0,B|355:200|355:200|365:213|365:213|375:345,1,215.999993408203,12|0,3:2|3:0,0:0:0:0:
246,254,113366,6,0,L|171:266,2,64,14|0|0,3:2|3:0|3:0,0:0:0:0:
125,159,113861,2,0,L|188:169,2,64,14|0|0,3:2|3:0|3:0,0:0:0:0:
250,57,114353,2,0,L|186:67,1,64,14|0,3:2|0:0,0:0:0:0:
0,0,114685,6,0,B|6:75|6:75|15:87|15:87|24:207,1,192,12|0,3:2|3:0,0:0:0:0:
115,313,115375,2,0,B|153:294|153:294|156:290|156:290|183:278|183:278|238:299|238:299|231:305|231:305|317:339,1,215.999993408203,12|0,3:2|3:0,0:0:0:0:
380,208,116037,6,0,L|369:271,2,64,12|0|0,3:2|3:0|3:0,0:0:0:0:
463,318,116538,1,2,3:2:0:0:
380,208,116705,2,0,L|316:218,2,64,12|0|2,3:2|3:0|3:2,0:0:0:0:
490,117,117211,1,0,3:0:0:0:
335,3,117380,6,0,B|260:9|260:9|248:18|248:18|128:27,1,192,12|0,3:2|3:0,0:0:0:0:
0,114,118047,2,0,B|11:157|11:157|17:164|17:164|19:200|19:200|37:249|37:249|53:208|53:208|81:177,1,215.999993408203,12|0,3:2|3:0,0:0:0:0:
197,266,118724,6,0,L|133:256,2,64,14|0|0,3:2|3:0|3:0,0:0:0:0:
318,368,119204,2,0,L|382:358,2,64,14|0|0,3:2|3:0|3:0,0:0:0:0:
359,226,119678,2,0,B|411:233|411:233|421:229|421:229|514:247,1,128,14|0,3:2|0:0,0:0:0:0:
256,192,124034,12,0,125365,0:0:0:0:
379,1,125700,5,0,0:0:0:0:
501,76,126035,1,0,0:0:0:0:
501,76,126202,1,0,0:0:0:0:
400,92,126370,1,0,0:0:0:0:
400,92,126705,6,0,B|405:147|405:147|400:163|400:163|408:251,1,132.00000402832,4|0,3:1|0:0,0:0:0:0:
413,301,127037,2,0,P|367:318|330:300,1,88.000002685547,10|0,2:0|0:0,0:0:0:0:
246,216,127369,1,2,3:2:0:0:
158,302,127536,1,0,3:0:0:0:
158,302,127619,1,0,0:0:0:0:
158,302,127702,2,0,L|62:283,1,88.000002685547,10|0,2:0|0:0,0:0:0:0:
21,367,128034,5,6,3:2:0:0:
48,197,128199,2,0,L|29:101,1,88.000002685547,2|8,2:0|2:0,0:0:0:0:
161,1,128531,2,0,B|269:-13|217:51|346:32,1,176.000005371094,2|0,2:0|3:0,0:0:0:0:
272,117,129028,1,10,2:0:0:0:
433,55,129194,5,0,0:0:0:0:
394,197,129359,2,0,L|405:287,1,88.000002685547,6|2,3:2|2:0,0:0:0:0:
284,384,129694,1,10,2:0:0:0:
384,378,129862,1,2,2:0:0:0:
261,251,130030,6,0,P|198:270|150:253,1,88.000002685547,2|2,3:2|2:0,0:0:0:0:
25,237,130365,1,10,2:0:0:0:
95,326,130533,1,2,2:0:0:0:
205,174,130701,6,0,B|195:109|195:109|200:93|200:93|184:11,1,132.00000402832,6|0,3:2|0:0,0:0:0:0:
190,44,131037,1,10,2:0:0:0:
297,103,131205,1,2,3:2:0:0:
387,19,131372,2,0,L|486:33,1,88.000002685547,6|0,2:0|3:0,0:0:0:0:
408,129,131708,1,10,2:0:0:0:
504,242,131871,5,2,3:2:0:0:
504,242,131953,1,0,0:0:0:0:
504,242,132035,2,0,B|449:247|449:247|447:259|447:259|352:265,1,132.00000402832,4|0,3:2|0:0,0:0:0:0:
302,260,132369,2,0,P|283:208|303:163,1,88.000002685547,10|0,2:0|0:0,0:0:0:0:
391,250,132703,1,2,3:2:0:0:
327,355,132870,1,0,3:0:0:0:
218,297,133037,2,0,L|66:320,1,132.00000402832,10|0,2:0|0:0,0:0:0:0:
7,329,133372,6,0,P|-6:283|22:234,1,88.000002685547,6|0,3:2|0:0,0:0:0:0:
63,137,133704,1,10,2:0:0:0:
169,199,133871,1,2,3:2:0:0:
169,199,133954,1,2,2:0:0:0:
169,199,134037,2,0,L|256:185,1,88.000002685547,2|0,2:0|3:0,0:0:0:0:
353,12,134370,6,0,B|343:60|343:60|348:74|348:74|331:152,1,132.00000402832,10|0,2:0|0:0,0:0:0:0:
384,207,134703,2,0,P|434:193|476:206,1,88.000002685547,6|2,3:2|2:0,0:0:0:0:
506,321,135054,1,10,2:0:0:0:
404,376,135214,1,2,2:0:0:0:
319,298,135374,2,0,L|218:313,1,88.000002685547,2|0,3:2|3:0,0:0:0:0:
91,325,135705,2,0,P|68:272|87:223,1,88.000002685547,10|0,2:0|0:0,0:0:0:0:
140,90,136037,6,0,B|202:96|202:96|210:87|210:87|306:98,1,132.00000402832,6|0,3:2|0:0,0:0:0:0:
344,107,136351,2,0,P|362:66|339:16,1,88.000002685547,10|4,2:0|3:2,0:0:0:0:
446,212,136700,2,0,L|351:199,1,88.000002685547,2|4,2:0|3:2,0:0:0:0:
273,316,137031,1,10,2:0:0:0:
120,231,137197,5,2,3:2:0:0:
120,231,137280,1,0,3:0:0:0:
120,231,137363,2,0,B|127:167|127:167|132:163|132:163|140:75,1,132.00000402832,12|0,3:2|0:0,0:0:0:0:
197,44,137701,2,0,B|237:61|237:61|303:38,1,88.000002685547,10|0,2:0|3:0,0:0:0:0:
351,100,137956,1,0,3:0:0:0:
351,100,138040,2,0,B|399:95|399:95|403:91|403:91|454:85,1,88.000002685547,10|0,2:0|3:0,0:0:0:0:
476,168,138295,1,0,3:0:0:0:
476,168,138379,2,0,B|493:208|493:208|470:274,1,88.000002685547,10|0,2:0|3:0,0:0:0:0:
341,364,138708,5,14,3:2:0:0:
258,273,138877,1,0,3:0:0:0:
140,311,139047,1,8,2:0:0:0:
233,167,139217,5,6,3:2:0:0:
281,280,139387,1,8,2:0:0:0:
390,224,139557,1,0,3:0:0:0:
469,335,139727,2,0,L|374:321,1,88.000002685547,8|0,2:0|3:0,0:0:0:0:
223,184,140034,6,0,B|170:194|170:194|158:188|158:188|76:205,1,132.00000402832,12|0,3:2|0:0,0:0:0:0:
30,147,140374,2,0,B|9:115|9:115|21:55,1,88.000002685547,10|0,2:0|3:0,0:0:0:0:
145,5,140714,2,0,B|187:13|187:13|190:8|190:8|247:18,1,88.000002685547,10|0,2:0|3:0,0:0:0:0:
302,65,140970,1,0,0:0:0:0:
302,65,141055,2,0,B|334:44|334:44|394:56,1,88.000002685547,10|0,2:0|3:0,0:0:0:0:
471,153,141371,5,14,3:2:0:0:
387,243,141537,1,0,3:0:0:0:
490,310,141703,1,8,2:0:0:0:
364,237,141869,5,6,3:2:0:0:
308,347,142035,1,8,2:0:0:0:
202,283,142202,1,0,3:0:0:0:
261,171,142368,2,0,L|245:77,1,88.000002685547,8|0,2:0|0:0,0:0:0:0:
178,32,142611,5,0,0:0:0:0:
178,32,142692,2,0,B|122:43|122:43|120:50|120:50|30:68,1,132.00000402832,12|0,3:2|0:0,0:0:0:0:
17,138,143038,2,0,B|6:182|6:182|40:243,1,88.000002685547,10|0,2:0|3:0,0:0:0:0:
189,358,143382,2,0,B|179:313|179:313|175:313|175:313|163:259,1,88.000002685547,10|0,2:0|3:0,0:0:0:0:
289,196,143710,2,0,B|300:152|300:152|266:91,1,88.000002685547,10|0,2:0|3:0,0:0:0:0:
304,32,143956,5,0,3:0:0:0:
304,32,144038,2,0,B|352:27|352:27|356:23|356:23|407:17,1,88.000002685547,10|0,3:2|0:0,0:0:0:0:
487,92,144371,1,10,2:0:0:0:
421,206,144538,2,0,B|426:254|426:254|430:258|430:258|436:309,1,88.000002685547,2|8,3:2|2:0,0:0:0:0:
328,357,144872,1,2,3:2:0:0:
244,266,145039,2,0,B|198:254|198:254|144:276,1,88.000002685547,8|0,2:0|3:0,0:0:0:0:
85,234,145289,5,0,3:0:0:0:
85,234,145373,2,0,B|76:169|76:169|80:163|80:163|71:83,1,132.00000402832,10|0,2:0|0:0,0:0:0:0:
122,35,145712,2,0,B|166:16|166:16|225:42,1,88.000002685547,8|0,2:0|3:0,0:0:0:0:
293,118,146051,2,0,B|341:113|341:113|345:109|345:109|396:103,1,88.000002685547,8|0,2:0|3:0,0:0:0:0:
461,90,146301,5,8,2:0:0:0:
461,90,146384,2,0,L|470:153,1,44.0000013427735,8|8,2:0|2:0,0:0:0:0:
424,206,146551,2,0,L|417:249,1,44.0000013427735,8|8,0:3|0:3,0:0:0:0:
465,319,146718,1,10,3:2:0:0:
465,319,148053,5,10,3:2:0:0:
242,281,148386,1,10,3:2:0:0:
242,281,149379,6,0,L|250:187,1,80,10|0,3:2|0:0,0:0:0:0:
154,140,149710,2,0,L|160:219,1,80,10|0,3:2|0:0,0:0:0:0:
120,330,150041,6,0,L|39:317,1,53.3333333333333,8|8,2:0|2:0,0:0:0:0:
5,262,150250,5,8,2:0:0:0:
5,262,150355,2,0,L|18:181,1,53.3333333333333,8|4,0:3|0:3,0:0:0:0:
4,92,150565,5,4,0:3:0:0:
4,92,150670,2,0,B|55:98|55:98|65:94|65:94|132:103,1,120,6|0,3:2|0:0,0:0:0:0:
236,0,151025,2,0,P|213:37|218:80,1,80,8|2,2:0|2:0,0:0:0:0:
309,148,151380,1,2,3:2:0:0:
207,199,151546,2,0,L|223:308,1,80,2|8,3:2|2:0,0:0:0:0:
167,356,151880,5,2,2:0:0:0:
314,274,152047,2,0,B|374:283|374:283|399:274|399:274|504:296,1,160,2|8,3:2|2:0,0:0:0:0:
497,179,152549,1,2,3:2:0:0:
497,179,152716,2,0,L|487:91,1,80,2|2,3:2|3:2,0:0:0:0:
430,27,153030,1,8,2:0:0:0:
402,163,153187,1,6,3:2:0:0:
269,69,153344,6,0,B|224:75|224:75|213:70|213:70|119:84,1,120,6|0,3:2|0:0,0:0:0:0:
65,97,153714,2,0,P|73:164|96:187,1,80,10|2,2:0|2:0,0:0:0:0:
131,271,154051,1,2,3:2:0:0:
131,271,154220,1,2,3:2:0:0:
184,161,154389,1,10,2:0:0:0:
269,255,154557,6,0,P|315:246|366:242,1,80,2|0,2:0|3:0,0:0:0:0:
501,150,154887,2,0,P|461:154|422:162,1,80,2|8,3:2|2:0,0:0:0:0:
372,14,155210,2,0,P|353:73|365:105,1,80,2|0,3:2|3:0,0:0:0:0:
201,21,155533,2,0,B|190:63|190:63|216:139,1,120,10|0,2:0|0:0,0:0:0:0:
217,141,155864,1,12,2:0:0:0:
33,219,156030,6,0,B|87:208|87:208|95:215|95:215|175:199,1,120,6|0,3:2|0:0,0:0:0:0:
225,248,156369,2,0,B|216:269|203:283|203:283|231:341,1,80,14|2,2:0|3:2,0:0:0:0:
298,384,156708,1,2,3:2:0:0:
298,384,156878,1,2,3:2:0:0:
353,249,157048,2,0,L|459:261,1,80,10|2,2:0|2:0,0:0:0:0:
512,62,157387,6,0,B|441:69|441:69|430:63|430:63|348:75,1,160,2|8,3:2|2:0,0:0:0:0:
227,82,157879,2,0,P|222:138|250:165,1,80,2|2,2:0|3:2,0:0:0:0:
247,253,158207,1,0,3:0:0:0:
247,253,158371,1,8,2:0:0:0:
330,165,158536,5,2,3:2:0:0:
156,208,158700,2,0,P|92:197|7:197,1,120,2|0,3:2|0:0,0:0:0:0:
42,275,159046,2,0,P|89:276|137:285,1,80,10|2,2:0|2:0,0:0:0:0:
236,357,159392,1,2,3:2:0:0:
236,357,159554,1,2,3:2:0:0:
141,377,159717,1,10,2:0:0:0:
271,265,159879,6,0,L|354:271,1,80,2|0,2:0|3:0,0:0:0:0:
473,283,160205,2,0,P|488:229|470:196,1,80,10|0,2:0|0:0,0:0:0:0:
388,87,160544,1,8,3:0:0:0:
350,175,160714,1,8,2:0:0:0:
350,175,160884,1,8,0:3:0:0:
475,123,161047,1,4,0:3:0:0:
304,48,161211,1,12,2:0:0:0:
256,192,161872,12,0,162700,0:0:0:0:
1,118,163036,5,0,0:0:0:0:
128,28,163372,1,0,0:0:0:0:
128,28,163540,1,0,0:0:0:0:
108,120,163708,1,0,0:0:0:0:
108,120,164044,5,8,3:2:0:0:
264,151,164212,1,8,3:2:0:0:
219,384,165378,5,8,3:2:0:0:
219,384,166718,5,8,3:2:0:0:
250,228,166886,1,8,3:2:0:0:
250,228,168047,6,0,L|348:240,1,80,8|0,3:2|0:0,0:0:0:0:
258,134,168382,2,0,L|356:146,1,80,8|0,3:2|0:0,0:0:0:0:
165,124,168717,6,0,L|67:112,1,80,8|0,3:2|0:0,0:0:0:0:
157,218,169052,2,0,L|59:206,1,80,8|0,3:2|0:0,0:0:0:0:
165,124,169387,5,8,3:2:0:0:
144,313,169547,1,8,3:2:0:0:
401,313,170700,5,8,3:2:0:0:
401,313,172048,5,8,3:2:0:0:
422,124,172208,1,8,3:2:0:0:
432,133,173369,6,0,L|341:145,1,53.3333333333333,10|8,3:2|2:0,0:0:0:0:
307,186,173591,5,8,0:3:0:0:
307,186,173702,2,0,L|216:174,1,53.3333333333333,4|4,3:0|0:3,0:0:0:0:
194,125,173924,5,4,0:3:0:0:
194,125,174035,2,0,L|103:137,1,53.3333333333333,8|8,3:0|0:3,0:0:0:0:
85,196,174257,5,8,0:3:0:0:
85,196,174369,2,0,P|97:234|99:267,1,53.3333333333333,8|8,2:0|2:0,0:0:0:0:
148,365,174591,5,8,2:0:0:0:
148,365,174702,2,0,B|146:366|207:358|207:358|211:363|211:363|289:354,1,132.00000402832,12|0,3:2|0:0,0:0:0:0:
388,271,175036,2,0,B|400:228|400:228|376:174,1,88.000002685547,10|0,2:0|3:0,0:0:0:0:
273,121,175371,2,0,B|238:125|238:125|234:121|234:121|186:127|187:126,1,88.000002685547,2|0,3:2|3:0,0:0:0:0:
119,87,175622,1,0,0:0:0:0:
119,87,175706,2,0,B|107:44|107:44|131:-10,1,88.000002685547,10|0,2:0|3:0,0:0:0:0:
264,5,176040,5,6,3:2:0:0:
297,123,176208,1,0,3:0:0:0:
411,78,176376,1,8,2:0:0:0:
261,250,176544,5,6,3:2:0:0:
312,138,176712,1,8,2:0:0:0:
417,202,176880,1,0,3:0:0:0:
491,305,177048,2,0,L|398:287,1,88.000002685547,8|0,2:0|3:0,0:0:0:0:
238,344,177373,6,0,B|174:351|174:351|172:360|172:360|83:370,1,132.00000402832,12|0,3:2|0:0,0:0:0:0:
65,298,177710,2,0,B|41:255|41:255|65:184,1,88.000002685547,10|0,2:0|3:0,0:0:0:0:
128,119,178048,2,0,B|163:123|163:123|167:119|167:119|215:125|214:124,1,88.000002685547,2|0,3:2|3:0,0:0:0:0:
289,72,178301,1,0,0:0:0:0:
289,72,178385,2,0,B|332:48|332:48|403:72,1,88.000002685547,10|0,2:0|3:0,0:0:0:0:
456,166,178709,5,6,3:2:0:0:
369,253,178875,1,0,3:0:0:0:
477,311,179041,1,8,2:0:0:0:
310,349,179207,5,6,3:2:0:0:
353,234,179373,1,8,2:0:0:0:
229,247,179540,1,0,3:0:0:0:
269,130,179706,2,0,L|249:23,1,88.000002685547,8|0,2:0|3:0,0:0:0:0:
173,7,179955,5,0,0:0:0:0:
173,7,180038,2,0,B|123:17|123:17|114:11|114:11|28:31,1,132.00000402832,12|0,3:2|0:0,0:0:0:0:
12,102,180376,2,0,B|5:147|5:147|46:186,1,88.000002685547,10|0,2:0|3:0,0:0:0:0:
128,265,180715,2,0,B|120:305|120:305|124:312|124:312|108:381,1,88.000002685547,10|0,2:0|3:0,0:0:0:0:
203,359,180958,1,0,0:0:0:0:
203,359,181039,2,0,B|248:352|248:352|287:393,1,88.000002685547,10|0,2:0|3:0,0:0:0:0:
400,320,181364,5,10,3:2:0:0:
296,253,181529,1,0,3:0:0:0:
375,158,181695,2,0,B|415:167|415:167|421:163|421:163|470:177,1,88.000002685547,10|0,2:0|3:0,0:0:0:0:
280,87,182026,2,0,B|240:96|240:96|234:92|234:92|185:106,1,88.000002685547,10|0,2:0|3:0,0:0:0:0:
121,63,182274,1,0,0:0:0:0:
121,63,182357,2,0,B|72:50|72:50|31:80,1,88.000002685547,10|0,2:0|3:0,0:0:0:0:
0,259,182688,6,0,B|63:246|63:246|71:251|71:251|161:233,1,132.00000402832,10|0,3:2|0:0,0:0:0:0:
195,289,183028,2,0,B|186:338|186:338|227:374,1,88.000002685547,8|0,2:0|3:0,0:0:0:0:
354,378,183368,2,0,B|394:369|394:369|400:373|400:373|449:359,1,88.000002685547,8|0,2:0|3:0,0:0:0:0:
491,230,183709,1,8,2:0:0:0:
385,274,183879,1,0,0:0:0:0:
309,132,184049,1,10,3:2:0:0:
309,132,185393,5,10,3:2:0:0:
502,57,185726,1,10,3:2:0:0:
502,57,186716,6,0,L|490:158,1,80,10|0,3:2|3:0,0:0:0:0:
397,195,187044,2,0,L|387:115,1,80,10|0,3:2|0:0,0:0:0:0:
292,56,187372,6,0,L|215:74,1,53.3333333333333,10|10,2:0|2:0,0:0:0:0:
176,125,187591,5,8,2:0:0:0:
176,125,187700,2,0,L|99:107,1,53.3333333333333,8|4,0:3|0:3,0:0:0:0:
42,25,187919,5,4,0:3:0:0:
42,25,188029,2,0,B|3:105|3:105|63:231,1,224,14|0,3:2|0:0,0:0:0:0:
0,384,189398,5,12,3:2:0:0:
105,351,189561,2,0,B|146:344|146:344|160:347|160:347|238:335,1,111.999996582031,0|0,3:0|0:0,0:0:0:0:
168,211,190052,2,0,L|156:267,3,40,8|0|0|8,2:0|0:0|3:0|2:0,0:0:0:0:
247,260,190391,1,8,2:0:0:0:
262,258,190475,1,8,3:0:0:0:
278,256,190560,1,8,0:3:0:0:
294,255,190645,1,8,0:3:0:0:
313,253,190731,6,0,B|364:249|364:249|370:258|370:258|462:253,1,120,4|0,3:2|0:0,0:0:0:0:
507,245,191059,2,0,P|518:192|501:158,1,80,10|0,2:0|0:0,0:0:0:0:
429,90,191387,1,2,3:2:0:0:
340,158,191551,2,0,L|233:142,1,80,2|8,3:2|2:0,0:0:0:0:
121,28,191880,6,0,B|100:89|100:89|151:201,1,160,2|2,3:2|2:0,0:0:0:0:
215,247,192375,1,10,2:0:0:0:
147,336,192541,2,0,L|60:323,1,80,2|0,2:0|3:0,0:0:0:0:
21,221,192873,1,2,3:2:0:0:
21,221,193039,1,10,2:0:0:0:
139,175,193205,1,6,3:2:0:0:
241,278,193371,6,0,B|299:269|299:269|304:273|304:273|383:260,1,120,6|0,3:2|0:0,0:0:0:0:
358,264,193704,1,10,2:0:0:0:
454,196,193871,1,2,2:0:0:0:
344,82,194037,6,0,B|265:84|317:123|195:118,1,120,2|0,3:2|0:0,0:0:0:0:
232,118,194371,1,10,2:0:0:0:
110,73,194537,1,2,2:0:0:0:
206,12,194704,1,2,3:2:0:0:
206,12,194873,1,2,2:0:0:0:
143,167,195043,6,0,L|168:348,1,160,10|0,2:0|3:0,0:0:0:0:
4,291,195528,2,0,B|48:271|48:271|82:289,1,80,10|0,2:0|0:0,0:0:0:0:
239,372,195861,6,0,B|308:362|308:362|323:371|323:371|413:356,1,160,14|0,3:2|3:0,0:0:0:0:
491,227,196372,2,0,B|465:259|465:259|472:327,1,80,14|0,2:0|0:0,0:0:0:0:
359,257,196710,1,2,3:2:0:0:
409,159,196879,2,0,L|399:57,1,80,2|8,3:2|2:0,0:0:0:0:
258,9,197211,6,0,B|158:1|203:50|92:43,1,160,2|2,2:0|2:0,0:0:0:0:
21,3,197707,1,10,2:0:0:0:
92,130,197874,2,0,L|76:225,1,80,2|0,2:0|3:0,0:0:0:0:
147,298,198208,1,2,3:2:0:0:
35,305,198375,1,10,2:0:0:0:
35,305,198542,1,2,3:2:0:0:
179,206,198709,6,0,B|214:211|214:211|221:207|221:207|291:221,1,80,10|2,2:0|3:2,0:0:0:0:
338,194,198959,1,0,0:0:0:0:
338,194,199042,2,0,B|331:144|331:144|364:97,1,80,10|2,2:0|3:2,0:0:0:0:
511,20,199376,5,8,3:2:0:0:
511,20,199487,2,0,L|502:72,1,53.3333333333333,8|8,2:0|2:0,0:0:0:0:
448,152,199709,5,8,0:3:0:0:
448,152,199820,2,0,L|456:204,1,53.3333333333333,8|8,0:3|0:3,0:0:0:0:
505,293,200042,6,0,L|496:345,2,53.3333333333333,4|4|4,3:0|0:3|0:3,0:0:0:0:
402,283,200376,6,0,B|285:350|169:282|229:221|109:137|-8:237,1,448,6|0,3:2|0:0,0:0:0:0:
