osu file format v14

[General]
AudioFilename: audio.mp3
AudioLeadIn: 0
PreviewTime: 55089
Countdown: 0
SampleSet: Soft
StackLeniency: 0.7
Mode: 0
LetterboxInBreaks: 0
WidescreenStoryboard: 0

[Editor]
DistanceSpacing: 2.2
BeatDivisor: 4
GridSize: 32
TimelineZoom: 1.5

[Metadata]
Title:STONE OCEAN (TV Size)
TitleUnicode:STONE OCEAN (TV Size)
Artist:ichigo from KISIDA KYODAN & THE AKEBOSI ROCKETS
ArtistUnicode:ichigo from 岸田教団&THE明星ロケッツ
Creator:Sotarks
Version:STONE FREE
Source:ジョジョの奇妙な冒険 ストーンオーシャン
Tags:akitoshi corinn -laura- kujinn reform keqing iljaaz pepekcz kishida kyoudan and the akeboshi jojos JoJo no Kimyou na Bouken JoJo's Bizarre Adventure Part 6: Stone Ocean free six p6 anime opening op rock japanese jrock j-rock pop jpop jolyne kuujou kujo kujou cujoh jotaro joutarou 空条 徐倫 Araki Hirohiko 荒木 飛呂彦 藤林聖子 Shoko Fujibayashi 河田貴央 Kawada Takao 家原正樹 Iehara Masaki david production female vocals vocalist my_angel_ram yuki
BeatmapID:3346256
BeatmapSetID:1639480

[Difficulty]
HPDrainRate:6
CircleSize:4
OverallDifficulty:8.8
ApproachRate:9.2
SliderMultiplier:1.72
SliderTickRate:1

[Events]
//Background and Video events
0,0,"bg.jpg",0,0
Video,-45,"vid.mp4"
//Break Periods
//Storyboard Layer 0 (Background)
//Storyboard Layer 1 (Fail)
//Storyboard Layer 2 (Pass)
//Storyboard Layer 3 (Foreground)
//Storyboard Layer 4 (Overlay)
//Storyboard Sound Samples

[TimingPoints]
506,333.333333333333,4,2,22,52,1,0
506,-121.951219512195,4,2,22,52,0,0
4339,-108.695652173913,4,2,22,52,0,0
5839,-98.0392156862744,4,2,22,62,0,0
11505,-81.9672131147541,4,2,22,62,0,0
12005,-98.0392156862745,4,2,22,62,0,0
16505,-108.695652173913,4,2,22,52,0,0
36505,-98.0392156862745,4,2,22,52,0,0
37839,-98.0392156862745,4,2,22,62,0,0
48839,-138.888888888889,4,2,22,42,0,0
55089,-138.888888888889,4,2,22,5,0,0
55172,-89.2857142857144,4,2,22,72,0,1
65839,-89.2857142857144,4,2,22,82,0,1
75172,-121.951219512195,4,2,22,62,0,0
77839,-121.951219512195,4,2,22,72,0,0
78505,-98.0392156862745,4,2,22,72,0,0
79172,-192.307692307692,4,2,22,72,0,0
80672,-121.951219512195,4,2,22,72,0,0
81839,-98.0392156862744,4,2,22,62,0,0
86172,-192.307692307692,4,2,22,62,0,0
88505,-192.307692307692,4,2,22,5,0,0

[Colours]
Combo1 : 241,255,66
Combo2 : 187,187,255
Combo3 : 181,245,249
Combo4 : 245,46,240

[HitObjects]
133,57,506,6,0,P|183:69|221:83,1,70.5200010760498,8|0,0:2|0:0,0:0:0:0:
121,163,839,2,0,P|86:170|52:181,1,70.5200010760498,8|0,0:2|0:0,0:0:0:0:
194,303,1172,2,0,P|216:233|227:138,1,141.0400021521,8|8,0:2|0:2,0:0:0:0:
201,75,1672,1,0,1:0:0:0:
324,215,1839,6,0,P|266:230|230:244,1,70.5200010760498,8|0,0:2|0:0,0:0:0:0:
359,75,2172,2,0,P|393:82|426:93,1,70.5200010760498,8|0,0:2|0:0,0:0:0:0:
343,283,2505,2,0,P|326:223|321:190,1,70.5200010760498,8|0,0:2|0:0,0:0:0:0:
379,8,2839,2,0,P|371:42|360:75,1,70.5200010760498,8|0,0:2|0:0,0:0:0:0:
234,133,3172,6,0,P|162:135|82:102,1,141.0400021521,8|8,0:2|0:2,0:0:0:0:
34,222,3672,1,0,1:0:0:0:
34,222,3755,1,0,1:0:0:0:
34,222,3839,2,0,P|67:211|101:203,1,70.5200010760498,8|0,0:2|0:0,0:0:0:0:
264,310,4172,1,10,0:2:0:0:
145,366,4339,6,0,B|157:343|171:319|171:319|159:280|159:280|177:243|191:205,1,158.239994687988,6|2,1:2|1:2,0:0:0:0:
301,128,4839,2,0,P|311:179|322:225,1,79.1199973439942,14|2,0:2|1:2,0:0:0:0:
317,205,5089,1,0,1:2:0:0:
317,205,5172,1,10,0:2:0:0:
147,96,5339,1,6,1:2:0:0:
147,96,5672,2,0,L|198:83,1,39.5599986719971,8|8,1:2|1:2,0:0:0:0:
294,28,5839,6,0,P|239:19|190:4,1,87.7200005354004,6|0,1:2|0:0,0:0:0:0:
44,85,6172,2,0,P|60:126|72:169,1,87.7200005354004,10|0,0:2|0:0,0:0:0:0:
234,264,6505,1,2,1:2:0:0:
234,264,6672,2,0,P|245:221|261:180,1,87.7200005354004,2|8,1:2|0:2,0:0:0:0:
96,323,7005,1,2,1:2:0:0:
96,323,7089,1,0,1:0:0:0:
96,323,7172,6,0,P|162:359|281:378,1,175.440001070801,2|10,1:2|0:2,0:0:0:0:
403,246,7672,1,2,0:2:0:0:
319,285,7839,1,0,3:2:0:0:
438,348,8005,1,2,1:2:0:0:
376,140,8172,1,10,0:2:0:0:
223,287,8339,1,6,1:2:0:0:
403,246,8505,5,0,1:2:0:0:
281,202,8672,1,2,0:2:0:0:
376,140,8839,2,0,P|441:128|481:126,1,87.7200005354004,10|0,0:2|0:0,0:0:0:0:
313,13,9172,1,2,3:2:0:0:
313,13,9339,2,0,P|290:75|272:110,1,87.7200005354004,2|10,1:2|0:2,0:0:0:0:
147,185,9672,1,2,1:2:0:0:
147,185,9755,1,0,1:0:0:0:
147,185,9839,6,0,P|116:115|169:1,1,175.440001070801,2|8,1:2|0:2,0:0:0:0:
263,138,10339,1,2,1:2:0:0:
263,138,10672,2,0,P|250:196|235:258,1,87.7200005354004,8|0,0:2|1:2,0:0:0:0:
83,92,11005,2,0,P|109:194|133:294,1,175.440001070801,12|2,0:2|1:2,0:0:0:0:
293,310,11505,6,0,B|262:321|230:327|230:327|208:356|208:356|171:363|134:372,1,157.379993516144,10|0,0:2|0:0,0:0:0:0:
131,378,11839,1,2,1:2:0:0:
243,223,12005,2,0,P|295:231|345:245,1,87.7200005354004,2|8,1:2|0:2,0:0:0:0:
488,281,12339,6,0,P|468:231|456:181,1,87.7200005354004,2|2,1:2|1:2,0:0:0:0:
450,51,12672,1,0,1:0:0:0:
450,51,12755,1,0,1:0:0:0:
450,51,12839,1,8,0:0:0:0:
335,97,13005,2,0,P|291:103|249:113,1,87.7200005354004,2|2,0:0|0:2,0:0:0:0:
83,90,13339,1,2,1:2:0:0:
156,163,13505,1,10,0:2:0:0:
177,52,13672,1,2,1:2:0:0:
52,208,13839,5,6,1:2:0:0:
249,113,14005,1,2,0:2:0:0:
75,0,14172,1,10,0:2:0:0:
268,130,14339,1,2,0:2:0:0:
84,90,14505,2,0,P|29:102|-14:117,1,87.7200005354004,2|2,1:2|1:2,0:0:0:0:
189,263,14839,1,10,0:2:0:0:
156,163,15005,1,2,0:2:0:0:
108,322,15172,5,2,3:2:0:0:
185,76,15339,1,10,0:2:0:0:
274,244,15505,2,0,P|206:258|172:266,1,87.7200005354004,2|0,0:2|1:2,0:0:0:0:
379,122,15839,2,0,P|447:136|481:144,1,87.7200005354004,8|8,0:2|0:3,0:0:0:0:
287,14,16172,1,8,0:3:0:0:
287,14,16339,1,4,1:3:0:0:
137,123,16505,6,0,P|197:113|292:172,1,158.239994687988,6|10,1:2|0:2,0:0:0:0:
361,243,17005,2,0,P|351:287|344:332,1,79.1199973439942,2|0,0:2|3:2,0:0:0:0:
222,339,17339,1,0,1:2:0:0:
222,339,17505,2,0,P|215:299|206:261,1,79.1199973439942,10|0,0:2|1:2,0:0:0:0:
0,281,17839,6,0,P|60:322|146:303,1,158.239994687988,2|10,1:2|0:2,0:0:0:0:
165,173,18339,2,0,P|121:182|72:197,1,79.1199973439942,2|0,0:2|3:2,0:0:0:0:
3,119,18672,1,0,1:2:0:0:
69,55,18839,1,8,0:2:0:0:
165,93,19005,1,2,1:2:0:0:
165,93,19172,6,0,P|177:48|179:3,1,79.1199973439942,2|0,1:2|0:0,0:0:0:0:
254,178,19505,2,0,P|209:190|169:210,1,79.1199973439942,10|0,0:2|0:0,0:0:0:0:
328,118,19839,2,0,P|340:73|342:28,1,79.1199973439942,2|0,3:2|1:2,0:0:0:0:
417,203,20172,2,0,P|372:215|332:235,1,79.1199973439942,8|0,0:2|1:2,0:0:0:0:
493,129,20505,5,2,1:2:0:0:
443,230,20672,1,2,0:2:0:0:
492,314,20839,1,10,0:2:0:0:
492,314,21005,2,0,P|431:337|391:337,1,79.1199973439942,2|0,0:2|3:2,0:0:0:0:
251,235,21339,1,2,1:2:0:0:
302,374,21505,1,8,0:2:0:0:
241,208,21672,1,0,1:2:0:0:
160,296,21839,6,0,P|82:300|17:212,1,158.239994687988,0|10,1:2|0:2,0:0:0:0:
147,129,22339,1,2,0:2:0:0:
37,97,22505,2,0,P|51:147|62:188,1,79.1199973439942,2|0,3:2|1:2,0:0:0:0:
129,21,22839,2,0,P|78:8|37:-2,1,79.1199973439942,10|0,0:2|1:2,0:0:0:0:
147,129,23172,6,0,P|217:108|317:88,1,158.239994687988,2|10,1:2|0:2,0:0:0:0:
397,145,23672,2,0,P|407:106|418:68,1,79.1199973439942,2|0,0:2|3:2,0:0:0:0:
261,216,24005,2,0,P|250:177|239:139,1,79.1199973439942,0|8,1:2|0:2,0:0:0:0:
380,259,24339,1,2,1:2:0:0:
285,341,24505,6,0,P|216:351|126:298,2,158.239994687988,2|10|2,1:2|0:2|3:2,0:0:0:0:
231,238,25339,1,0,1:2:0:0:
355,184,25505,2,0,P|344:222|333:260,1,79.1199973439942,10|0,0:2|1:2,0:0:0:0:
241,101,25839,5,2,1:2:0:0:
373,29,26005,2,0,P|334:19|296:9,1,79.1199973439942,14|0,0:0|0:0,0:0:0:0:
136,104,26339,1,10,0:3:0:0:
196,27,26505,1,8,0:0:0:0:
262,183,26672,1,10,0:3:0:0:
139,202,26839,1,6,0:3:0:0:
260,92,27005,1,4,1:3:0:0:
260,92,27089,1,4,1:3:0:0:
260,92,27172,6,0,P|346:100|435:140,1,158.239994687988,4|10,0:2|0:2,0:0:0:0:
512,217,27672,1,2,0:2:0:0:
512,217,27839,2,0,P|506:180|497:137,1,79.1199973439942,2|2,3:2|1:2,0:0:0:0:
380,230,28172,2,0,P|371:268|365:307,1,79.1199973439942,10|0,0:2|1:2,0:0:0:0:
211,204,28505,5,2,1:2:0:0:
270,351,28672,2,0,P|225:340|189:328,1,79.1199973439942,2|8,0:2|0:2,0:0:0:0:
28,270,29005,2,0,P|149:244|197:230,1,158.239994687988,2|0,0:2|1:2,0:0:0:0:
177,61,29505,1,8,0:2:0:0:
96,151,29672,1,2,1:2:0:0:
305,213,29839,6,0,P|285:165|268:129,1,79.1199973439942,2|0,1:2|0:0,0:0:0:0:
261,338,30172,2,0,P|312:344|352:347,1,79.1199973439942,10|0,0:2|0:0,0:0:0:0:
182,234,30505,2,0,P|150:275|127:308,1,79.1199973439942,2|0,3:2|1:2,0:0:0:0:
25,285,30839,1,10,0:2:0:0:
3,191,31005,1,0,1:2:0:0:
88,122,31172,5,2,1:2:0:0:
88,122,31339,2,0,P|43:111|7:99,1,79.1199973439942,2|8,0:2|0:2,0:0:0:0:
155,211,31672,2,0,P|244:196|328:166,1,158.239994687988,2|2,0:2|1:2,0:0:0:0:
204,46,32172,2,0,L|192:99,1,39.5599986719971,10|0,0:2|3:0,0:0:0:0:
303,138,32339,2,0,L|294:99,1,39.5599986719971,0|0,1:2|3:0,0:0:0:0:
333,20,32505,5,2,1:2:0:0:
174,118,32672,1,0,0:0:0:0:
357,238,32839,2,0,P|419:221|459:209,1,79.1199973439942,10|0,0:2|0:0,0:0:0:0:
159,131,33172,2,0,P|120:141|82:152,1,79.1199973439942,2|0,3:2|1:2,0:0:0:0:
166,323,33505,1,10,0:2:0:0:
19,240,33672,1,0,1:2:0:0:
191,335,33839,6,0,P|247:351|313:315,1,118.679996015991,2|0,1:2|0:0,0:0:0:0:
320,313,34172,2,0,P|311:270|303:222,1,79.1199973439942,10|0,0:2|0:0,0:0:0:0:
144,53,34505,2,0,P|153:96|161:144,1,79.1199973439942,2|0,3:2|1:2,0:0:0:0:
244,8,34839,1,8,0:2:0:0:
62,110,35005,1,2,1:2:0:0:
262,191,35172,5,2,1:2:0:0:
181,99,35339,1,0,0:0:0:0:
106,255,35505,2,0,P|114:302|121:337,1,79.1199973439942,8|0,0:2|0:0,0:0:0:0:
305,354,35839,2,0,P|260:337|226:325,1,79.1199973439942,2|0,3:2|1:2,0:0:0:0:
32,283,36172,2,0,P|69:269|106:256,1,79.1199973439942,10|0,0:2|1:2,0:0:0:0:
255,131,36505,5,2,1:2:0:0:
85,63,36672,2,0,P|96:113|110:167,1,87.7200005354004,10|0,0:2|0:0,0:0:0:0:
246,244,37005,1,10,1:3:0:0:
224,249,37088,1,0,1:0:0:0:
203,255,37171,1,8,0:2:0:0:
298,140,37339,1,6,1:3:0:0:
106,256,37505,1,6,1:3:0:0:
324,357,37672,2,0,L|339:297,1,43.8600002677002,0|0,1:0|1:0,0:0:0:0:
407,196,37839,6,0,B|370:207|340:213|340:213|320:241|320:241|280:250|243:263,1,175.440001070801,12|2,0:2|0:2,0:0:0:0:
121,197,38339,1,2,0:2:0:0:
240,69,38505,2,0,P|304:79|349:89,1,87.7200005354004,14|0,0:2|1:2,0:0:0:0:
250,260,38839,2,0,P|226:199|212:155,1,87.7200005354004,2|0,0:2|3:2,0:0:0:0:
407,196,39172,6,0,P|396:276|370:373,1,175.440001070801,10|0,0:2|0:0,0:0:0:0:
192,351,39672,1,2,1:2:0:0:
192,351,39755,1,0,1:0:0:0:
192,351,39839,2,0,P|148:342|105:336,1,87.7200005354004,8|0,0:2|1:2,0:0:0:0:
6,235,40172,1,2,3:2:0:0:
6,235,40255,1,0,1:0:0:0:
6,235,40339,1,0,1:2:0:0:
6,235,40422,1,0,1:0:0:0:
6,235,40505,5,8,0:2:0:0:
132,144,40672,2,0,P|58:95|-24:110,1,175.440001070801,0|2,1:2|1:2,0:0:0:0:
122,257,41172,2,0,P|166:245|219:234,1,87.7200005354004,14|0,0:2|1:2,0:0:0:0:
156,59,41505,2,0,P|144:103|127:154,1,87.7200005354004,2|0,0:2|1:2,0:0:0:0:
392,201,41839,6,0,B|364:191|335:182|335:182|302:145|302:145|262:138|206:121,1,175.440001070801,14|0,0:2|1:2,0:0:0:0:
485,284,42339,2,0,B|460:291|420:298|420:298|387:336|387:336|358:344|330:354,1,175.440001070801,14|0,0:2|1:2,0:0:0:0:
497,155,42839,1,14,0:2:0:0:
393,97,43005,1,0,0:0:0:0:
265,213,43172,6,0,P|193:228|165:239,1,87.7200005354004,12|0,0:2|1:2,0:0:0:0:
54,195,43505,1,2,0:2:0:0:
0,116,43672,1,2,1:2:0:0:
55,35,43839,2,0,P|98:41|140:54,1,87.7200005354004,10|2,0:2|1:2,0:0:0:0:
290,102,44172,2,0,P|274:61|264:18,1,87.7200005354004,2|0,0:2|1:2,0:0:0:0:
140,140,44505,6,0,P|87:196|123:314,1,175.440001070801,14|0,0:2|0:0,0:0:0:0:
244,364,45005,1,2,1:2:0:0:
244,364,45089,1,0,1:0:0:0:
244,364,45172,2,0,P|234:321|218:280,1,87.7200005354004,12|0,0:2|1:2,0:0:0:0:
302,161,45505,1,2,0:2:0:0:
302,161,45589,1,0,1:0:0:0:
302,161,45672,1,0,1:2:0:0:
302,161,45755,1,0,1:0:0:0:
302,161,45839,5,12,0:2:0:0:
402,279,46005,2,0,P|314:303|247:236,1,175.440001070801,0|2,1:2|1:2,0:0:0:0:
394,130,46505,1,14,0:2:0:0:
289,36,46672,1,2,1:2:0:0:
183,133,46839,2,0,P|139:126|97:113,1,87.7200005354004,2|0,0:2|1:2,0:0:0:0:
99,324,47172,6,0,B|127:314|156:305|156:305|189:268|189:268|229:261|285:244,1,175.440001070801,14|0,0:2|1:2,0:0:0:0:
21,116,47672,2,0,B|45:123|85:130|85:130|118:167|118:167|147:176|175:186,1,175.440001070801,14|0,0:2|0:0,0:0:0:0:
181,3,48172,1,14,0:2:0:0:
235,85,48339,1,0,3:0:0:0:
331,68,48505,1,4,0:0:0:0:
331,68,48839,5,2,0:2:0:0:
308,137,49005,1,2,0:2:0:0:
308,137,49172,2,0,P|315:182|321:204,1,61.9200015117188,2|0,0:2|0:0,0:0:0:0:
388,238,49505,2,0,P|395:207|399:177,1,61.9200015117188,2|0,0:2|0:0,0:0:0:0:
317,277,49839,1,2,0:2:0:0:
317,277,50005,2,0,P|360:307|452:307,2,123.840003023438,2|2|2,0:2|0:2|0:2,0:0:0:0:
246,231,50839,2,0,P|195:244|180:247,1,61.9200015117188,2|0,0:2|0:0,0:0:0:0:
122,302,51172,5,2,0:2:0:0:
319,197,51672,1,0,0:0:0:0:
319,197,51839,1,2,0:2:0:0:
148,63,52172,2,0,P|155:109|163:134,1,61.9200015117188,2|0,0:2|0:0,0:0:0:0:
223,183,52505,6,0,P|238:133|239:47,1,123.840003023438,2|0,0:2|0:0,0:0:0:0:
194,0,53005,1,2,0:2:0:0:
148,63,53172,2,0,L|115:54,3,30.9600007558594,0|0|0|0,3:0|3:0|3:0|3:0,3:0:0:0:
49,90,53505,1,0,3:0:0:0:
49,90,53589,1,0,3:0:0:0:
49,90,53672,1,0,3:0:0:0:
49,90,53755,1,0,3:0:0:0:
239,233,54172,5,2,0:2:0:0:
161,176,54339,1,0,3:0:0:0:
161,176,54422,1,0,3:0:0:0:
161,176,54505,2,0,L|206:167,1,30.9600007558594,2|0,3:2|3:0,3:0:0:0:
320,115,54672,2,0,L|275:106,1,30.9600007558594,0|0,3:0|3:0,3:0:0:0:
219,0,54839,2,0,P|211:56|205:99,1,92.8800022675782,2|0,3:2|0:0,0:0:0:0:
200,120,55172,6,0,P|141:129|89:140,1,96.3200011757813,6|0,1:2|0:0,0:0:0:0:
337,285,55505,2,0,P|358:229|375:178,1,96.3200011757813,10|0,0:2|0:0,0:0:0:0:
132,269,55839,2,0,P|167:358|287:339,1,192.640002351563,2|10,1:2|0:2,0:0:0:0:
249,215,56339,1,2,0:2:0:0:
249,215,56422,1,0,1:0:0:0:
249,215,56505,5,2,1:2:0:0:
44,309,56672,1,2,0:2:0:0:
164,152,56839,1,8,0:2:0:0:
0,89,57005,2,0,P|15:134|33:179,1,96.3200011757813,2|0,0:2|1:2,0:0:0:0:
203,37,57339,1,0,1:2:0:0:
203,37,57422,1,0,1:0:0:0:
203,37,57505,2,0,P|155:27|108:20,1,96.3200011757813,10|2,0:2|1:2,0:0:0:0:
258,161,57839,5,6,1:2:0:0:
340,71,58005,1,2,0:2:0:0:
164,152,58172,1,10,0:2:0:0:
311,301,58339,1,2,0:2:0:0:
382,170,58505,1,2,1:2:0:0:
117,274,58672,1,2,1:2:0:0:
258,161,58839,1,10,0:2:0:0:
105,77,59005,1,2,1:2:0:0:
271,269,59172,5,6,1:2:0:0:
339,36,59339,1,2,0:2:0:0:
263,295,59505,1,10,0:2:0:0:
105,77,59672,1,2,1:2:0:0:
351,138,59839,2,0,P|268:157|234:168,1,96.3200011757813,2|0,0:2|1:2,0:0:0:0:
23,251,60172,2,0,P|106:270|140:281,1,96.3200011757813,10|2,0:2|1:2,0:0:0:0:
395,302,60505,6,0,B|356:314|324:320|324:320|296:356|296:356|251:365|208:386,1,192.640002351563,4|10,1:2|0:2,0:0:0:0:
46,284,61005,1,0,0:0:0:0:
246,158,61172,2,0,P|233:225|224:280,1,96.3200011757813,2|0,1:2|1:2,0:0:0:0:
55,72,61505,2,0,P|119:49|171:30,1,96.3200011757813,8|0,0:2|1:0,0:0:0:0:
145,39,61755,1,0,1:0:0:0:
145,39,61839,5,2,1:2:0:0:
37,193,62005,1,2,0:0:0:0:
249,281,62172,1,10,0:2:0:0:
311,129,62339,2,0,P|265:112|220:96,1,96.3200011757813,2|0,0:2|1:2,0:0:0:0:
127,253,62672,1,0,1:2:0:0:
127,253,62755,1,0,1:0:0:0:
127,253,62839,2,0,P|136:300|144:347,1,96.3200011757813,8|2,0:2|1:2,0:0:0:0:
345,235,63172,5,6,1:2:0:0:
249,281,63339,1,2,0:2:0:0:
425,363,63505,1,8,0:2:0:0:
400,152,63672,1,2,1:2:0:0:
400,152,63755,1,0,1:0:0:0:
400,152,63839,1,2,1:2:0:0:
235,296,64005,1,0,1:2:0:0:
235,296,64089,1,0,1:0:0:0:
235,296,64172,2,0,P|164:285|126:271,1,96.3200011757813,14|0,0:2|0:0,0:0:0:0:
6,132,64505,5,6,1:2:0:0:
176,48,64672,1,8,0:2:0:0:
59,250,64839,1,2,0:2:0:0:
195,154,65005,2,0,L|255:168,1,48.1600005878906,0|0,1:2|1:0,0:0:0:0:
356,227,65172,2,0,P|345:158|332:109,1,96.3200011757813,10|0,0:2|1:2,0:0:0:0:
267,301,65505,1,14,0:2:0:0:
267,301,65672,1,2,0:2:0:0:
436,215,65839,5,14,0:2:0:0:
177,278,66005,1,0,1:2:0:0:
402,115,66172,1,10,0:2:0:0:
160,186,66339,1,0,1:2:0:0:
160,186,66422,1,0,1:0:0:0:
160,186,66505,1,10,0:2:0:0:
367,19,66672,1,0,1:2:0:0:
133,80,66839,2,0,P|68:91|15:94,1,96.3200011757813,10|0,0:2|0:0,0:0:0:0:
77,2,67172,5,10,0:2:0:0:
33,215,67339,1,0,1:0:0:0:
208,18,67505,1,8,0:2:0:0:
160,262,67672,1,2,1:2:0:0:
332,22,67839,1,10,0:2:0:0:
287,302,68006,1,0,1:2:0:0:
287,302,68089,1,0,1:0:0:0:
287,302,68172,1,8,0:2:0:0:
432,160,68339,1,0,1:2:0:0:
160,262,68505,6,0,P|175:330|186:374,1,96.3200011757813,14|0,0:2|0:0,0:0:0:0:
432,160,68839,2,0,P|420:113|410:66,1,96.3200011757813,10|0,0:2|0:0,0:0:0:0:
175,146,69172,1,10,0:2:0:0:
317,246,69339,1,0,1:2:0:0:
245,25,69505,1,10,0:2:0:0:
80,202,69672,1,0,1:2:0:0:
80,202,69755,1,0,1:0:0:0:
80,202,69839,5,10,0:2:0:0:
290,137,70005,1,0,1:2:0:0:
80,280,70172,1,8,0:2:0:0:
333,201,70338,1,2,1:2:0:0:
83,352,70505,1,10,0:2:0:0:
373,262,70671,1,0,1:2:0:0:
172,91,70839,1,8,0:2:0:0:
272,368,71005,1,0,1:2:0:0:
272,368,71089,1,0,1:0:0:0:
272,368,71172,6,0,B|258:337|236:306|236:306|252:266|252:266|241:235|229:175,1,192.640002351563,14|10,0:2|0:2,0:0:0:0:
148,340,71672,1,0,0:0:0:0:
333,201,71839,2,0,P|404:212|444:221,1,96.3200011757813,10|0,0:2|1:2,0:0:0:0:
139,108,72172,2,0,P|68:119|28:128,1,96.3200011757813,10|0,0:2|1:2,0:0:0:0:
11,133,72422,1,0,1:0:0:0:
11,133,72505,6,0,P|23:57|37:14,1,96.3200011757813,10|0,0:2|0:0,0:0:0:0:
199,215,72839,2,0,P|187:291|173:334,1,96.3200011757813,10|0,0:2|0:0,0:0:0:0:
275,123,73172,1,10,0:2:0:0:
89,234,73339,1,0,1:2:0:0:
318,348,73505,2,0,P|312:300|300:253,1,96.3200011757813,10|0,0:2|1:2,0:0:0:0:
416,272,73839,5,14,0:2:0:0:
215,334,74005,1,0,1:0:0:0:
415,185,74172,5,8,0:2:0:0:
180,252,74339,1,0,1:0:0:0:
411,100,74505,5,8,0:2:0:0:
146,169,74672,1,0,1:2:0:0:
408,12,74839,5,8,0:2:0:0:
114,83,75005,1,2,1:2:0:0:
295,181,75172,5,14,0:2:0:0:
87,293,76505,5,10,0:2:0:0:
189,27,76839,1,10,0:2:0:0:
364,268,77839,5,10,0:2:0:0:
240,220,78005,1,0,1:2:0:0:
334,164,78172,1,2,1:2:0:0:
256,319,78339,1,0,1:2:0:0:
133,225,78505,2,0,P|145:173|155:157,2,58.4800003569336,10|8|10,0:2|0:2|0:2,0:0:0:0:
253,111,78839,2,0,P|241:59|231:43,2,58.4800003569336,8|10|4,0:3|0:3|0:3,0:0:0:0:
168,0,79172,6,0,P|179:202|249:357,1,357.759997816406,6|8,1:2|0:2,0:0:0:0:
239,342,80672,6,0,P|253:234|262:183,1,141.0400021521,0|0,1:2|1:2,0:0:0:0:
334,40,81172,1,8,1:2:0:0:
232,107,81339,1,8,1:3:0:0:
339,186,81505,1,4,1:2:0:0:
366,109,81672,1,0,1:2:0:0:
232,245,81839,6,0,P|286:275|332:290,1,87.7200005354004,4|0,1:2|0:0,0:0:0:0:
232,107,82172,2,0,P|179:138|143:171,1,87.7200005354004,10|0,0:2|0:0,0:0:0:0:
354,152,82505,1,2,1:2:0:0:
354,152,82672,2,0,P|353:90|343:42,1,87.7200005354004,2|8,1:2|0:2,0:0:0:0:
232,0,83005,2,0,P|204:101|201:199,1,175.440001070801,2|2,1:2|1:2,0:0:0:0:
310,283,83505,1,8,0:2:0:0:
168,365,83672,2,0,P|99:372|23:282,1,175.440001070801,2|2,1:2|1:2,0:0:0:0:
88,66,84172,5,8,0:2:0:0:
113,265,84339,1,6,1:2:0:0:
193,43,84505,1,8,0:2:0:0:
227,278,84672,1,2,1:2:0:0:
227,278,84755,1,0,1:0:0:0:
227,278,84839,1,8,0:2:0:0:
300,21,85005,1,2,1:2:0:0:
346,290,85172,6,0,P|373:236|373:227,2,58.4800003569336,8|8|8,0:2|0:2|0:2,0:0:0:0:
424,128,85505,2,0,P|404:70|398:64,2,58.4800003569336,12|4|4,0:3|0:3|0:3,0:0:0:0:
322,161,85839,1,6,0:3:0:0:
465,226,86005,1,2,1:2:0:0:
496,70,86172,6,0,B|332:-1|194:137|291:233|111:398|-24:255,1,626.079996178711,6|0,1:2|0:0,0:0:0:0:
