osu file format v14

[General]
AudioFilename: audio.mp3
AudioLeadIn: 0
PreviewTime: 55089
Countdown: 0
SampleSet: Soft
StackLeniency: 0.3
Mode: 0
LetterboxInBreaks: 0
WidescreenStoryboard: 1

[Editor]
DistanceSpacing: 0.9
BeatDivisor: 3
GridSize: 32
TimelineZoom: 2.5

[Metadata]
Title:STONE OCEAN (TV Size)
TitleUnicode:STONE OCEAN (TV Size)
Artist:ichigo from KISIDA KYODAN & THE AKEBOSI ROCKETS
ArtistUnicode:ichigo from 岸田教団&THE明星ロケッツ
Creator:NeKroMan4ik
Version:keeVY's Easy
Source:ジョジョの奇妙な冒険 ストーンオーシャン
Tags:kishida kyoudan and the akeboshi jojos JoJo no Kimyou na Bouken JoJo's Bizarre Adventure Part 6: Stone Ocean free six p6 anime opening op rock japanese jrock j-rock pop jpop jolyne kuujou kujo kujou cujoh jotaro joutarou 空条 徐倫 Araki Hirohiko 荒木 飛呂彦 藤林聖子 Shoko Fujibayashi 河田貴央 Kawada Takao 家原正樹 Iehara Masaki david production shogunmoon shunao paradogi jjba keevy
BeatmapID:3345869
BeatmapSetID:1638949

[Difficulty]
HPDrainRate:3
CircleSize:3
OverallDifficulty:3
ApproachRate:4
SliderMultiplier:1
SliderTickRate:1

[Events]
//Background and Video events
0,0,"jolyne.jpg",0,0
Video,-45,"hey.mp4"
//Break Periods
2,48372,52852
//Storyboard Layer 0 (Background)
//Storyboard Layer 1 (Fail)
//Storyboard Layer 2 (Pass)
//Storyboard Layer 3 (Foreground)
//Storyboard Layer 4 (Overlay)
//Storyboard Sound Samples

[TimingPoints]
506,333.333333333333,4,2,0,60,1,0
506,-100,4,2,0,60,0,0
16505,-100,4,2,0,50,0,0
38089,-100,4,2,0,60,0,0
55172,-100,4,2,0,75,0,0
81839,-100,4,2,0,60,0,0

[Colours]
Combo1 : 182,221,134
Combo2 : 250,235,175
Combo3 : 245,202,173

[HitObjects]
503,298,506,6,0,L|406:325,1,100,8|8,0:0|0:0,0:0:0:0:
331,352,1172,1,8,0:0:0:0:
171,363,1839,2,0,P|130:333|108:284,1,100,8|8,0:0|0:0,0:0:0:0:
119,210,2505,1,8,0:0:0:0:
223,88,3172,6,0,L|356:115,2,100,8|8|8,0:0|0:0|0:0,0:0:0:0:
123,20,4339,1,2,1:2:0:0:
12,67,4839,1,14,0:0:0:0:
14,186,5339,1,6,1:2:0:0:
83,283,5839,6,0,B|202:257|172:321|299:294,1,200,12|2,0:0|1:2,0:0:0:0:
357,278,6839,1,8,0:0:0:0:
341,200,7172,2,0,P|322:153|384:62,1,150,2|2,1:2|0:0,0:0:0:0:
445,69,8005,2,0,P|491:105|529:137,1,100,2|6,1:2|1:2,0:0:0:0:
507,250,8839,1,10,0:0:0:0:
449,305,9172,2,0,P|373:299|328:311,1,100,2|8,1:2|0:0,0:0:0:0:
280,342,9839,2,0,B|232:312|208:268|208:268|150:260,1,150,2|2,1:2|0:0,0:0:0:0:
83,251,10672,1,14,0:0:0:0:
38,184,11005,1,14,0:0:0:0:
79,71,11505,5,14,0:0:0:0:
155,96,11839,2,0,P|218:121|276:110,1,100,2|8,1:2|0:0,0:0:0:0:
318,79,12505,1,2,1:2:0:0:
345,155,12839,1,10,0:0:0:0:
362,232,13172,2,0,P|308:255|253:231,1,100,0|10,1:0|0:0,0:0:0:0:
194,219,13839,5,2,1:2:0:0:
220,376,14505,2,0,P|285:364|335:356,1,100,2|8,0:0|0:0,0:0:0:0:
398,365,15172,1,0,1:0:0:0:
474,340,15505,1,2,0:0:0:0:
441,266,15839,2,0,P|426:205|437:157,1,100,8|8,0:0|0:3,0:0:0:0:
499,126,16505,5,4,1:2:0:0:
408,47,17005,2,0,P|337:29|273:101,1,150,2|8,0:0|0:0,0:0:0:0:
207,108,17839,2,0,L|44:70,2,150,2|2|8,1:2|0:2|0:0,0:0:0:0:
262,165,19172,1,2,1:2:0:0:
221,320,19839,2,0,P|143:348|96:323,1,100,2|10,0:0|0:0,0:0:0:0:
58,309,20505,2,0,P|35:234|12:139,1,150,2|2,1:2|0:1,0:0:0:0:
21,84,21339,1,2,1:0:0:0:
211,22,22172,5,10,0:0:0:0:
277,65,22505,2,0,P|341:83|396:63,1,100,2|10,0:0|0:0,0:0:0:0:
446,46,23172,2,0,P|498:92|489:187,1,150,2|2,1:2|0:0,0:0:0:0:
385,332,24505,2,0,L|275:312,1,100,2|10,1:2|0:0,0:0:0:0:
207,332,25172,2,0,P|184:272|196:213,1,100,2|10,0:0|0:0,0:0:0:0:
236,174,25839,2,0,L|411:150,1,150,2|8,0:0|0:3,0:0:0:0:
435,44,26839,1,4,0:3:0:0:
361,12,27172,6,0,B|284:19|284:19|255:43|255:43|166:54,1,200,4|2,1:2|0:0,0:0:0:0:
101,12,28172,1,10,0:0:0:0:
31,51,28505,2,0,B|3:99|3:99|36:214,1,150,2|2,1:2|0:0,0:0:0:0:
166,335,29839,6,0,P|230:287|232:243,1,100,2|10,1:2|0:2,0:0:0:0:
189,205,30505,1,2,0:0:0:0:
185,124,30839,1,10,0:0:0:0:
250,78,31172,2,0,B|346:60|323:110|423:81,1,150,2|2,1:2|0:2,0:0:0:0:
506,36,32172,1,10,0:0:0:0:
504,115,32505,6,0,L|500:245,1,100,2|10,1:2|0:0,0:0:0:0:
500,295,33172,1,2,0:0:0:0:
346,342,33839,2,0,P|291:356|242:341,1,100,2|10,1:2|0:2,0:0:0:0:
193,288,34505,1,2,0:2:0:0:
46,351,35172,6,0,P|6:294|24:243,1,100,2|10,1:2|0:0,0:0:0:0:
59,205,35839,1,2,0:0:0:0:
23,133,36172,1,10,0:0:0:0:
55,60,36505,2,0,P|128:42|234:71,1,150,2|8,0:0|0:3,0:0:0:0:
299,122,37505,5,8,0:0:0:0:
234,170,37839,2,0,B|220:194|216:226|216:226|212:232|212:232|203:271|223:328|277:367,1,200,6|10,1:2|0:0,0:0:0:0:
419,364,39172,5,14,0:0:0:0:
504,280,39672,1,2,1:2:0:0:
449,173,40172,1,2,0:0:0:0:
336,59,40839,5,2,0:0:0:0:
266,99,41172,2,0,B|256:109|256:109|161:96,1,100,12|2,0:0|0:0,0:0:0:0:
113,41,41839,1,14,0:0:0:0:
21,119,42339,1,14,0:0:0:0:
62,231,42839,1,14,0:0:0:0:
133,266,43172,2,0,B|194:246|202:192|202:192|205:188|205:188|170:144|185:79,1,200,12|14,0:0|0:0,0:0:0:0:
318,24,44505,5,14,0:0:0:0:
432,59,45005,1,2,0:0:0:0:
458,175,45505,1,14,0:0:0:0:
346,290,46172,5,2,0:0:0:0:
280,336,46505,2,0,B|263:327|263:327|169:342,1,100,14|2,0:0|0:0,0:0:0:0:
104,355,47172,1,14,0:0:0:0:
86,236,47672,1,14,0:0:0:0:
73,116,48172,1,14,0:0:0:0:
351,56,54172,6,0,L|475:36,2,100,0|0|0,0:0|0:0|0:0,0:0:0:0:
291,109,55172,6,0,P|231:115|186:79,1,100,4|10,1:2|0:0,0:0:0:0:
148,33,55839,1,2,1:2:0:0:
34,146,56505,2,0,B|28:190|28:190|69:305,1,150,2|2,1:2|0:2,0:0:0:0:
167,350,57505,1,10,0:0:0:0:
237,312,57839,2,0,P|281:308|347:329,1,100,2|8,1:2|0:0,0:0:0:0:
407,353,58505,1,2,1:2:0:0:
480,321,58839,1,10,0:0:0:0:
490,241,59172,2,0,P|476:181|406:165,1,100,2|10,1:2|0:2,0:0:0:0:
372,128,59839,2,0,P|325:135|289:182,1,100,2|8,0:0|0:0,0:0:0:0:
246,238,60505,5,0,1:0:0:0:
168,218,60839,1,10,0:0:0:0:
102,264,61172,2,0,P|8:251|9:141,1,200,2|2,1:2|1:2,0:0:0:0:
89,86,62339,2,0,L|245:58,1,150,2|10,0:0|0:0,0:0:0:0:
304,101,63172,2,0,L|318:214,1,100,2|10,1:2|0:0,0:0:0:0:
277,270,63839,1,2,1:2:0:0:
316,339,64172,1,10,0:2:0:0:
394,352,64505,2,0,P|444:333|492:316,2,100,2|2|10,1:2|0:2|0:0,0:0:0:0:
234,338,65839,6,0,P|171:320|115:321,1,100,12|10,0:0|0:0,0:0:0:0:
63,351,66505,1,10,0:0:0:0:
1,300,66839,1,10,0:0:0:0:
9,220,67172,2,0,B|100:183|79:244|190:203,1,150,10|0,0:0|1:2,0:0:0:0:
253,143,68172,1,8,0:0:0:0:
264,222,68505,2,0,L|280:335,1,100,10|10,0:0|0:0,0:0:0:0:
347,361,69172,1,10,0:0:0:0:
426,368,69505,1,10,0:0:0:0:
494,326,69839,2,0,P|497:248|437:167,1,150,10|2,0:0|0:0,0:0:0:0:
435,69,70839,5,8,0:0:0:0:
363,103,71172,2,0,P|301:115|245:89,1,100,12|10,0:0|0:0,0:0:0:0:
211,46,71839,1,10,0:0:0:0:
135,71,72172,1,10,0:0:0:0:
78,127,72505,2,0,P|86:187|125:222,1,100,10|10,0:0|0:0,0:0:0:0:
78,287,73172,2,0,P|100:344|162:375,1,100,10|10,0:0|0:0,0:0:0:0:
209,374,73839,2,0,L|442:328,1,200,10|8,0:0|0:0,0:0:0:0:
426,258,74839,1,8,0:0:0:0:
378,194,75172,1,14,0:0:0:0:
72,99,76505,5,4,0:3:0:0:
130,44,76839,1,4,0:3:0:0:
369,42,77839,5,8,0:0:0:0:
321,106,78172,1,8,0:3:0:0:
359,176,78505,2,0,P|402:197|442:224,2,66.6666666666667,10|10|2,0:0|0:0|0:0,0:0:0:0:
256,192,79172,12,12,80505,0:0:0:0:
444,90,81839,6,0,B|375:76|375:76|326:99|326:99|231:74,1,200,4|2,1:2|1:2,0:0:0:0:
173,91,82839,1,8,0:0:0:0:
162,170,83172,2,0,B|146:274|146:274|102:304,1,150,0|2,1:0|0:0,0:0:0:0:
7,235,84172,1,8,0:0:0:0:
28,158,84505,2,0,L|19:21,2,100,10|10|8,0:0|0:0|0:0,0:0:0:0:
7,235,85505,1,8,0:3:0:0:
49,303,85839,1,2,1:2:0:0:
11,373,86172,1,6,1:2:0:0:
256,192,86339,12,0,88505,0:0:0:0:
