osu file format v14

[General]
AudioFilename: audio.mp3
AudioLeadIn: 0
PreviewTime: 55089
Countdown: 0
SampleSet: Soft
StackLeniency: 0.3
Mode: 0
LetterboxInBreaks: 0
WidescreenStoryboard: 1

[Editor]
DistanceSpacing: 0.9
BeatDivisor: 4
GridSize: 32
TimelineZoom: 1.9

[Metadata]
Title:STONE OCEAN (TV Size)
TitleUnicode:STONE OCEAN (TV Size)
Artist:ichigo from KISIDA KYODAN & THE AKEBOSI ROCKETS
ArtistUnicode:ichigo from 岸田教団&THE明星ロケッツ
Creator:NeKroMan4ik
Version:Shunao's Hard
Source:ジョジョの奇妙な冒険 ストーンオーシャン
Tags:kishida kyoudan and the akeboshi jojos JoJo no Kimyou na Bouken JoJo's Bizarre Adventure Part 6: Stone Ocean free six p6 anime opening op rock japanese jrock j-rock pop jpop jolyne kuujou kujo kujou cujoh jotaro joutarou 空条 徐倫 Araki Hirohiko 荒木 飛呂彦 藤林聖子 Shoko Fujibayashi 河田貴央 Kawada Takao 家原正樹 Iehara Masaki david production shogunmoon shunao paradogi jjba keevy
BeatmapID:3345230
BeatmapSetID:1638949

[Difficulty]
HPDrainRate:5
CircleSize:3.7
OverallDifficulty:6
ApproachRate:8
SliderMultiplier:1.2
SliderTickRate:1

[Events]
//Background and Video events
0,0,"jolyne.jpg",0,0
Video,-45,"hey.mp4"
//Break Periods
//Storyboard Layer 0 (Background)
//Storyboard Layer 1 (Fail)
//Storyboard Layer 2 (Pass)
//Storyboard Layer 3 (Foreground)
//Storyboard Layer 4 (Overlay)
//Storyboard Sound Samples

[TimingPoints]
506,333.333333333333,4,2,0,60,1,0
506,-111.111111111111,4,2,0,60,0,0
4339,-100,4,2,0,60,0,0
16505,-111.111111111111,4,2,0,50,0,0
27172,-105.263157894737,4,2,0,50,0,0
38089,-105.263157894737,4,2,0,60,0,0
48505,-125,4,2,0,50,0,0
55172,-83.3333333333333,4,2,0,75,0,0
81839,-100,4,2,0,60,0,0
88505,-100,4,2,0,60,0,0

[Colours]
Combo1 : 182,221,134
Combo2 : 250,235,175
Combo3 : 245,202,173

[HitObjects]
338,49,506,6,0,P|388:23|455:23,2,107.999996704102,8|8|8,0:0|0:0|0:0,0:0:0:0:
197,127,1505,2,0,P|143:123|96:97,1,107.999996704102,8|8,0:0|0:0,0:0:0:0:
18,240,2172,6,0,P|45:283|49:346,1,107.999996704102,8|8,0:0|0:0,0:0:0:0:
126,366,2672,1,0,0:0:0:0:
126,366,2839,2,0,P|166:356|198:352,1,53.9999983520508,8|0,0:0|0:0,0:0:0:0:
258,340,3172,6,0,P|311:359|379:346,2,107.999996704102,8|8|8,0:0|0:0|0:0,0:0:0:0:
333,197,4172,1,8,0:0:0:0:
333,197,4339,1,2,1:2:0:0:
466,76,4672,6,0,L|501:72,2,30,0|0|14,1:0|0:0|0:0,0:0:0:0:
387,59,5004,1,8,0:0:0:0:
387,59,5088,1,8,0:0:0:0:
387,59,5171,1,8,0:0:0:0:
303,90,5339,2,0,P|269:81|228:84,1,60,6|0,1:2|0:0,0:0:0:0:
164,109,5672,1,8,0:0:0:0:
164,109,5755,1,8,0:0:0:0:
164,109,5839,6,0,L|172:173,1,60,12|0,0:0|0:0,0:0:0:0:
250,223,6172,2,0,L|242:287,1,60,8|0,0:0|0:0,0:0:0:0:
164,337,6505,1,2,1:2:0:0:
164,337,6672,2,0,L|91:345,1,60,0|8,1:0|0:0,0:0:0:0:
278,372,7172,6,0,P|328:368|361:355,1,60,2|0,1:2|0:0,0:0:0:0:
399,292,7505,1,8,0:0:0:0:
399,292,7672,2,0,P|428:292|458:298,1,60,2|0,0:0|1:0,0:0:0:0:
489,207,8005,1,2,1:2:0:0:
497,113,8172,1,8,0:0:0:0:
497,113,8255,1,2,0:0:0:0:
497,113,8339,6,0,P|456:79|386:82,1,120,6|0,1:2|0:0,0:0:0:0:
314,128,8839,2,0,P|271:146|240:148,1,60,10|0,0:0|0:0,0:0:0:0:
179,101,9172,1,2,1:2:0:0:
179,101,9339,2,0,P|146:89|105:81,1,60,0|8,1:0|0:0,0:0:0:0:
101,274,9839,6,0,P|107:305|115:335,1,60,2|0,1:2|0:0,0:0:0:0:
214,337,10172,1,8,0:0:0:0:
214,337,10339,2,0,P|243:342|272:338,1,60,2|0,0:0|1:0,0:0:0:0:
361,301,10672,2,0,P|390:295|419:299,1,60,14|0,0:0|0:0,0:0:0:0:
503,347,11005,6,0,P|525:284|508:227,1,120,14|0,0:0|1:0,0:0:0:0:
505,138,11505,2,0,P|467:123|429:119,1,60,14|0,0:0|0:0,0:0:0:0:
360,165,11839,1,2,1:2:0:0:
360,165,12005,2,0,P|322:180|284:184,1,60,2|8,1:2|0:0,0:0:0:0:
231,118,12339,6,0,P|180:129|169:209,1,120,2|2,0:0|0:2,0:0:0:0:
224,266,12839,1,10,0:0:0:0:
224,266,13005,2,0,P|210:311|206:346,1,60,2|0,0:0|1:0,0:0:0:0:
111,318,13339,2,0,P|120:352|126:382,2,60,2|10|2,1:2|0:0|1:2,0:0:0:0:
19,289,13839,6,0,P|25:259|32:230,1,60,2|2,1:2|0:0,0:0:0:0:
23,136,14172,2,0,P|72:122|108:125,1,60,10|2,0:2|0:0,0:0:0:0:
149,54,14505,2,0,P|196:80|275:63,1,120,2|8,0:0|0:0,0:0:0:0:
350,33,15005,1,2,0:0:0:0:
350,33,15172,6,0,P|403:23|432:27,1,60,0|8,1:0|0:3,0:0:0:0:
492,69,15505,2,0,L|500:2,2,60,2|4|8,0:0|0:3|0:0,0:0:0:0:
491,165,16005,1,8,0:3:0:0:
461,256,16172,1,8,0:3:0:0:
368,282,16339,1,8,0:3:0:0:
278,232,16505,6,0,P|236:221|210:218,1,53.9999983520508,4|0,1:2|0:0,0:0:0:0:
143,206,16839,1,8,0:0:0:0:
143,206,17005,2,0,P|87:217|58:273,1,107.999996704102,2|0,0:0|1:0,0:0:0:0:
53,343,17505,2,0,P|92:348|121:358,1,53.9999983520508,8|0,0:0|0:0,0:0:0:0:
187,384,17839,6,0,P|232:383|297:355,1,107.999996704102,2|10,1:2|0:0,0:0:0:0:
338,287,18339,2,0,P|393:284|431:324,1,107.999996704102,2|2,0:2|1:2,0:0:0:0:
507,363,18839,2,0,L|513:300,1,53.9999983520508,8|0,0:0|1:0,0:0:0:0:
481,228,19172,6,0,P|449:213|409:204,1,53.9999983520508,2|0,1:2|0:0,0:0:0:0:
355,165,19505,2,0,P|323:180|283:189,1,53.9999983520508,10|0,0:2|0:0,0:0:0:0:
232,233,19839,2,0,P|200:218|160:209,1,53.9999983520508,2|0,0:0|1:0,0:0:0:0:
103,175,20172,2,0,P|71:190|31:199,1,53.9999983520508,10|0,0:0|0:0,0:0:0:0:
13,118,20505,5,2,1:2:0:0:
13,118,20672,2,0,P|8:79|1:53,2,53.9999983520508,2|8|2,0:0|0:0|0:1,0:0:0:0:
30,290,21339,2,0,P|75:321|144:298,1,107.999996704102,2|2,1:0|1:0,0:0:0:0:
185,250,21839,5,2,1:2:0:0:
331,341,22172,2,0,P|373:331|398:332,1,53.9999983520508,10|2,0:0|0:2,0:0:0:0:
457,285,22505,2,0,P|469:251|492:221,2,53.9999983520508,2|0|10,0:0|1:0|0:0,0:0:0:0:
389,237,23005,1,2,0:0:0:0:
389,237,23172,6,0,P|377:190|378:166,1,53.9999983520508,2|0,1:2|0:0,0:0:0:0:
442,128,23505,1,10,0:0:0:0:
442,128,23672,2,0,P|408:101|342:101,2,107.999996704102,2|0|2,0:0|1:0|1:2,0:0:0:0:
502,66,24505,6,0,P|463:29|448:23,1,53.9999983520508,2|0,1:2|0:0,0:0:0:0:
377,17,24839,2,0,P|344:17|306:32,1,53.9999983520508,10|0,0:0|0:0,0:0:0:0:
245,58,25172,2,0,P|212:58|174:43,1,53.9999983520508,2|0,0:0|0:0,0:0:0:0:
115,11,25505,1,10,0:0:0:0:
24,159,25839,5,2,0:0:0:0:
24,159,26005,2,0,P|30:199|32:229,1,53.9999983520508,14|0,0:0|0:0,0:0:0:0:
114,188,26339,2,0,P|108:228|106:258,1,53.9999983520508,8|8,0:3|0:0,0:0:0:0:
42,299,26672,1,4,0:3:0:0:
75,378,26839,2,0,P|115:372|137:366,1,53.9999983520508,4|4,0:3|0:3,0:0:0:0:
168,348,27089,1,4,0:3:0:0:
168,348,27172,6,0,P|203:359|236:360,1,56.9999984779358,4|0,1:2|0:0,0:0:0:0:
308,327,27505,2,0,L|313:252,1,56.9999984779358,10|2,0:0|0:0,0:0:0:0:
228,232,27839,2,0,L|223:157,1,56.9999984779358,2|0,0:0|1:0,0:0:0:0:
187,91,28172,1,10,0:0:0:0:
360,27,28505,5,2,1:2:0:0:
360,27,28672,2,0,P|400:28|430:46,1,56.9999984779358,2|8,0:0|0:0,0:0:0:0:
484,94,29005,2,0,P|473:153|469:213,1,113.999996955872,2|0,0:0|1:0,0:0:0:0:
388,249,29505,1,8,0:0:0:0:
312,196,29672,1,2,1:2:0:0:
312,196,29839,6,0,P|275:186|236:183,1,56.9999984779358,2|0,1:2|0:0,0:0:0:0:
176,228,30172,2,0,P|139:238|100:241,1,56.9999984779358,10|0,0:2|0:0,0:0:0:0:
45,188,30505,2,0,P|38:155|37:122,1,56.9999984779358,2|0,0:0|1:0,0:0:0:0:
80,50,30839,2,0,P|73:83|72:116,1,56.9999984779358,10|0,0:0|0:0,0:0:0:0:
159,132,31172,5,2,1:2:0:0:
159,132,31339,2,0,P|188:126|223:117,1,56.9999984779358,2|8,0:2|0:0,0:0:0:0:
302,94,31672,2,0,P|314:121|322:157,1,56.9999984779358,2|0,0:2|0:0,0:0:0:0:
388,208,32005,1,2,1:2:0:0:
388,208,32172,2,0,P|376:235|368:271,1,56.9999984779358,10|0,0:2|1:0,0:0:0:0:
384,351,32505,5,2,1:2:0:0:
200,359,32839,2,0,P|152:367|129:367,1,56.9999984779358,10|0,0:0|0:0,0:0:0:0:
63,323,33172,2,0,P|15:315|-8:315,1,56.9999984779358,2|0,0:0|1:0,0:0:0:0:
30,226,33505,2,0,P|78:218|101:218,1,56.9999984779358,10|0,0:0|0:0,0:0:0:0:
177,228,33839,5,2,1:2:0:0:
250,62,34172,2,0,P|259:104|262:135,1,56.9999984779358,10|0,0:2|0:0,0:0:0:0:
310,194,34505,1,2,0:2:0:0:
427,54,34839,1,8,0:0:0:0:
489,120,35005,1,2,1:2:0:0:
489,120,35172,6,0,P|493:148|499:175,1,56.9999984779358,2|0,1:2|0:0,0:0:0:0:
459,257,35505,2,0,P|424:247|401:243,1,56.9999984779358,10|0,0:0|0:0,0:0:0:0:
316,272,35839,2,0,P|281:282|258:286,1,56.9999984779358,2|0,0:0|1:0,0:0:0:0:
195,222,36172,2,0,P|207:185|211:155,1,56.9999984779358,10|0,0:0|0:0,0:0:0:0:
174,82,36505,5,2,0:0:0:0:
174,82,36672,2,0,P|138:69|106:64,1,56.9999984779358,14|0,0:0|0:0,0:0:0:0:
41,112,37005,1,8,0:3:0:0:
41,112,37172,2,0,P|34:143|45:182,1,56.9999984779358,8|8,0:0|0:3,0:0:0:0:
63,255,37505,1,8,0:0:0:0:
142,299,37672,1,0,0:0:0:0:
231,281,37839,6,0,P|226:251|224:224,1,56.9999984779358,6|0,1:2|0:0,0:0:0:0:
309,193,38172,2,0,P|314:163|316:136,1,56.9999984779358,2|2,0:0|1:2,0:0:0:0:
399,98,38505,2,0,P|401:126|405:154,1,56.9999984779358,10|0,0:0|1:0,0:0:0:0:
496,160,38839,1,2,0:0:0:0:
424,327,39172,6,0,P|459:352|496:352,2,56.9999984779358,14|0|0,0:0|1:0|0:0,0:0:0:0:
340,288,39672,1,2,1:2:0:0:
340,288,39839,2,0,P|301:290|267:300,1,56.9999984779358,12|0,0:0|1:0,0:0:0:0:
222,362,40172,2,0,P|183:360|149:350,1,56.9999984779358,2|0,0:0|1:0,0:0:0:0:
106,285,40505,6,0,P|91:318|83:351,1,56.9999984779358,8|0,0:0|0:0,0:0:0:0:
21,271,40839,2,0,P|12:243|0:218,1,56.9999984779358,2|2,0:0|1:2,0:0:0:0:
79,172,41172,2,0,P|87:144|99:119,1,56.9999984779358,12|0,0:0|1:0,0:0:0:0:
128,32,41505,1,2,0:0:0:0:
308,24,41839,6,0,P|336:22|363:29,2,56.9999984779358,14|0|0,0:0|0:0|1:0,0:0:0:0:
268,106,42339,2,0,P|283:151|285:172,1,56.9999984779358,14|0,0:0|0:0,0:0:0:0:
239,240,42672,1,0,1:0:0:0:
239,240,42839,2,0,P|224:285|222:306,1,56.9999984779358,14|0,0:0|0:0,0:0:0:0:
162,363,43172,6,0,P|131:356|100:354,2,56.9999984779358,12|0|2,0:0|0:0|0:0,0:0:0:0:
256,375,43672,1,2,1:2:0:0:
256,375,43839,2,0,P|287:368|318:366,1,56.9999984779358,14|0,0:0|1:0,0:0:0:0:
402,356,44172,1,2,0:0:0:0:
498,201,44505,6,0,P|504:164|520:127,2,56.9999984779358,14|0|0,0:0|0:0|1:0,0:0:0:0:
410,228,45005,2,0,P|404:191|388:154,2,56.9999984779358,2|12|0,0:0|0:0|1:0,0:0:0:0:
320,251,45505,2,0,P|288:237|261:235,1,56.9999984779358,14|0,0:0|0:0,0:0:0:0:
206,164,45839,6,0,P|238:150|265:148,1,56.9999984779358,12|0,0:0|0:0,0:0:0:0:
323,82,46172,2,0,P|291:68|264:66,1,56.9999984779358,2|2,0:0|1:2,0:0:0:0:
185,28,46505,2,0,P|153:42|126:44,1,56.9999984779358,14|2,0:0|0:0,0:0:0:0:
43,18,46839,1,2,0:0:0:0:
21,198,47172,6,0,P|38:225|46:262,2,56.9999984779358,14|0|0,0:0|0:0|1:0,0:0:0:0:
100,152,47672,2,0,P|129:134|172:123,2,56.9999984779358,14|0|0,0:0|0:0|1:0,0:0:0:0:
169,213,48172,2,0,P|209:220|239:215,1,56.9999984779358,14|0,0:0|0:0,0:0:0:0:
443,78,48839,6,0,P|458:32|464:19,2,48,2|0|0,0:0|0:0|0:0,0:0:0:0:
321,200,49505,2,0,P|329:232|331:263,1,48,2|0,0:0|0:0,0:0:0:0:
347,336,49839,5,2,0:0:0:0:
347,336,50005,2,0,L|294:341,1,48,0|0,0:0|0:0,0:0:0:0:
217,369,50339,2,0,L|103:358,1,96,0|0,0:0|0:0,0:0:0:0:
36,343,50839,2,0,P|25:307|28:281,1,48,2|0,0:0|0:0,0:0:0:0:
98,251,51172,6,0,P|46:254|6:214,1,96,2|0,0:0|0:0,0:0:0:0:
38,56,51839,1,0,0:0:0:0:
209,72,52172,2,0,L|265:65,1,48,2|0,0:0|0:0,0:0:0:0:
335,101,52505,6,0,P|312:135|318:202,1,96,2|0,0:0|0:0,0:0:0:0:
391,223,53005,2,0,P|341:231|310:273,1,96,2|0,0:0|0:0,0:0:0:0:
317,350,53505,2,0,P|354:353|387:359,1,48
450,368,53839,5,0,0:0:0:0:
501,203,54172,1,2,0:0:0:0:
446,39,54505,2,0,P|469:24|501:17,2,48,2|0|0,0:0|0:0|0:0,0:0:0:0:
267,97,55172,6,0,L|276:188,1,71.9999978027344,4|0,1:2|0:0,0:0:0:0:
353,219,55505,2,0,L|344:309,1,71.9999978027344,10|0,0:0|0:0,0:0:0:0:
276,354,55839,2,0,P|230:369|186:363,1,71.9999978027344,2|0,1:2|1:0,0:0:0:0:
117,339,56172,1,10,0:0:0:0:
58,265,56339,1,0,0:0:0:0:
58,265,56505,6,0,P|49:205|37:179,2,71.9999978027344,2|2|8,1:2|0:0|0:0,0:0:0:0:
145,232,57005,2,0,P|196:188|271:200,1,143.999995605469,2|0,0:2|1:0,0:0:0:0:
346,248,57505,1,10,0:0:0:0:
433,213,57672,1,0,0:0:0:0:
488,137,57839,6,0,P|476:102|470:44,1,71.9999978027344,2|2,1:2|0:0,0:0:0:0:
401,3,58172,1,8,0:0:0:0:
339,73,58339,1,2,0:0:0:0:
339,73,58505,2,0,P|285:57|262:31,1,71.9999978027344,2|0,1:2|1:0,0:0:0:0:
184,17,58839,2,0,P|166:65|166:103,1,71.9999978027344,10|0,0:0|1:0,0:0:0:0:
79,125,59172,6,0,P|36:167|71:244,1,143.999995605469,2|10,1:2|0:2,0:0:0:0:
158,250,59672,1,0,1:0:0:0:
158,250,59839,2,0,P|176:298|176:336,1,71.9999978027344,2|0,0:0|1:0,0:0:0:0:
270,328,60172,2,0,P|274:292|289:259,1,71.9999978027344,8|0,0:0|1:0,0:0:0:0:
381,270,60505,6,0,P|421:279|485:276,1,71.9999978027344,0|0,1:0|0:0,0:0:0:0:
466,186,60839,2,0,P|426:177|362:180,1,71.9999978027344,10|0,0:0|0:0,0:0:0:0:
330,110,61172,2,0,P|290:119|226:116,1,71.9999978027344,2|0,1:2|1:0,0:0:0:0:
179,70,61505,1,10,0:0:0:0:
101,121,61672,1,0,0:0:0:0:
101,121,61838,6,0,P|89:83|82:33,2,71.9999978027344,2|0|10,1:2|0:0|0:0,0:0:0:0:
165,189,62338,2,0,P|144:230|119:337,1,143.999995605469,2|0,0:0|1:0,0:0:0:0:
200,373,62838,1,10,0:0:0:0:
293,379,63005,1,0,0:0:0:0:
384,357,63172,6,0,P|401:323|410:282,1,71.9999978027344,2|2,1:2|0:0,0:0:0:0:
376,202,63505,1,10,0:0:0:0:
308,269,63672,1,2,0:0:0:0:
308,269,63838,2,0,P|291:235|282:194,1,71.9999978027344,2|0,1:2|1:0,0:0:0:0:
212,139,64172,2,0,P|176:143|133:136,1,71.9999978027344,10|0,0:2|0:0,0:0:0:0:
61,187,64505,6,0,P|44:151|46:102,1,71.9999978027344,2|8,1:2|0:0,0:0:0:0:
69,29,64839,1,2,0:2:0:0:
166,37,65005,1,0,1:0:0:0:
166,37,65172,2,0,P|200:45|246:32,1,71.9999978027344,10|0,0:0|0:0,0:0:0:0:
325,10,65505,1,10,0:0:0:0:
415,32,65672,1,2,0:0:0:0:
477,102,65839,6,0,P|464:146|458:196,1,71.9999978027344,12|0,0:0|0:0,0:0:0:0:
366,160,66172,2,0,P|376:194|383:229,1,71.9999978027344,10|0,0:0|1:0,0:0:0:0:
290,213,66505,2,0,P|277:257|271:307,1,71.9999978027344,10|0,0:0|1:0,0:0:0:0:
178,279,66839,2,0,P|191:323|197:373,1,71.9999978027344,10|0,0:0|1:0,0:0:0:0:
103,368,67172,6,0,P|54:369|0:290,1,143.999995605469,10|8,0:0|0:0,0:0:0:0:
21,207,67672,1,0,1:2:0:0:
21,207,67839,2,0,P|75:191|106:169,1,71.9999978027344,8|0,0:0|1:0,0:0:0:0:
159,122,68172,2,0,P|196:116|233:125,1,71.9999978027344,8|0,0:0|1:0,0:0:0:0:
320,147,68505,6,0,P|342:101|345:61,1,71.9999978027344,10|0,0:0|0:0,0:0:0:0:
262,34,68839,2,0,P|240:80|237:120,1,71.9999978027344,10|0,0:0|0:0,0:0:0:0:
144,83,69172,2,0,P|166:37|169:-3,1,71.9999978027344,10|0,0:0|1:0,0:0:0:0:
75,6,69505,2,0,P|53:52|50:92,1,71.9999978027344,10|0,0:0|1:0,0:0:0:0:
44,166,69839,6,0,P|114:183|147:267,1,143.999995605469,10|8,0:0|0:0,0:0:0:0:
153,335,70339,1,2,0:0:0:0:
153,335,70505,2,0,P|192:344|235:331,1,71.9999978027344,8|0,0:0|1:0,0:0:0:0:
314,316,70839,2,0,P|353:307|396:320,1,71.9999978027344,8|0,0:0|1:0,0:0:0:0:
468,353,71172,6,0,L|478:277,1,71.9999978027344,12|0,0:0|0:0,0:0:0:0:
397,232,71505,2,0,L|387:160,1,71.9999978027344,10|0,0:0|0:0,0:0:0:0:
464,106,71839,2,0,L|474:30,1,71.9999978027344,10|0,0:0|1:0,0:0:0:0:
382,10,72172,1,10,0:0:0:0:
289,26,72339,1,0,1:0:0:0:
287,119,72505,6,0,P|250:127|207:115,1,71.9999978027344,10|0,0:0|1:0,0:0:0:0:
220,25,72839,2,0,P|255:18|289:26,1,71.9999978027344,10|0,0:0|1:0,0:0:0:0:
371,77,73172,2,0,P|379:121|364:173,1,71.9999978027344,10|0,0:0|0:0,0:0:0:0:
315,220,73505,1,10,0:0:0:0:
326,313,73672,1,0,1:0:0:0:
241,354,73839,6,0,B|166:330|177:389|89:363,1,143.999995605469,10|8,0:0|0:0,0:0:0:0:
35,300,74339,1,0,1:0:0:0:
35,300,74505,2,0,P|64:268|96:258,1,71.9999978027344,8|0,0:0|1:0,0:0:0:0:
165,201,74839,2,0,P|132:187|109:159,1,71.9999978027344,8|2,0:0|1:2,0:0:0:0:
75,72,75172,5,14,0:0:0:0:
75,72,76505,5,4,0:3:0:0:
257,26,76839,1,4,0:3:0:0:
257,26,77505,2,0,P|266:70|271:108,1,71.9999978027344,0|0,0:0|0:0,0:0:0:0:
244,187,77839,6,0,P|280:192|319:184,1,71.9999978027344,8|8,0:0|0:3,0:0:0:0:
399,145,78172,2,0,P|435:140|474:148,1,71.9999978027344,8|8,0:3|0:3,0:0:0:0:
500,235,78505,2,0,L|544:202,2,47.9999985351563,10|8|10,0:0|0:0|0:0,0:0:0:0:
450,273,78839,2,0,L|381:265,2,47.9999985351563,8|8|8,0:3|0:3|0:3,0:0:0:0:
471,331,79172,6,0,B|372:223|247:301|247:301|123:379|53:265|151:201|195:249,1,503.999984619141,6|0,1:2|0:0,0:0:0:0:
262,189,80505,5,12,0:0:0:0:
262,189,80672,2,0,P|224:148|132:148,1,143.999995605469,0|0,1:0|1:0,0:0:0:0:
58,189,81172,1,8,1:0:0:0:
22,101,81339,2,0,P|11:46|13:21,2,71.9999978027344,0|0|0,1:0|1:0|1:0,0:0:0:0:
105,51,81839,6,0,P|139:43|187:47,1,60,4|0,1:2|0:0,0:0:0:0:
252,55,82172,2,0,P|261:86|282:119,1,60,10|0,0:0|1:0,0:0:0:0:
364,142,82505,1,2,1:2:0:0:
364,142,82672,2,0,P|393:139|422:146,1,60,0|8,1:0|0:0,0:0:0:0:
488,208,83005,6,0,P|495:236|482:282,2,60,2|2|2,0:0|1:2|0:0,0:0:0:0:
408,247,83505,1,8,0:0:0:0:
408,247,83672,2,0,P|371:240|329:239,1,60,2|0,0:0|1:0,0:0:0:0:
262,263,84005,2,0,P|269:291|286:316,2,60,2|8|6,1:2|0:0|1:2,0:0:0:0:
188,210,84505,6,0,P|155:215|115:238,1,60,10|0,0:0|1:0,0:0:0:0:
68,291,84839,2,0,P|35:286|-5:263,1,60,10|0,0:0|1:0,0:0:0:0:
6,184,85172,2,0,P|66:177|111:139,1,120,8|8,0:0|0:3,0:0:0:0:
173,76,85672,1,2,0:0:0:0:
173,76,85838,6,0,P|165:42|177:0,1,60,2|2,1:2|0:0,0:0:0:0:
255,43,86172,1,6,1:2:0:0:
256,192,86255,12,0,88505,0:0:0:0:
