osu file format v14

[General]
AudioFilename: audio.mp3
AudioLeadIn: 0
PreviewTime: 55089
Countdown: 0
SampleSet: Soft
StackLeniency: 0.3
Mode: 0
LetterboxInBreaks: 0
WidescreenStoryboard: 1

[Editor]
DistanceSpacing: 0.9
BeatDivisor: 4
GridSize: 32
TimelineZoom: 1.9

[Metadata]
Title:STONE OCEAN (TV Size)
TitleUnicode:STONE OCEAN (TV Size)
Artist:ichigo from KISIDA KYODAN & THE AKEBOSI ROCKETS
ArtistUnicode:ichigo from 岸田教団&THE明星ロケッツ
Creator:NeKroMan4ik
Version:Normal
Source:ジョジョの奇妙な冒険 ストーンオーシャン
Tags:kishida kyoudan and the akeboshi jojos JoJo no Kimyou na Bouken JoJo's Bizarre Adventure Part 6: Stone Ocean free six p6 anime opening op rock japanese jrock j-rock pop jpop jolyne kuujou kujo kujou cujoh jotaro joutarou 空条 徐倫 Araki Hirohiko 荒木 飛呂彦 藤林聖子 Shoko Fujibayashi 河田貴央 Kawada Takao 家原正樹 Iehara Masaki david production shogunmoon shunao paradogi jjba keevy
BeatmapID:3345192
BeatmapSetID:1638949

[Difficulty]
HPDrainRate:4
CircleSize:3.5
OverallDifficulty:4
ApproachRate:5
SliderMultiplier:1
SliderTickRate:1

[Events]
//Background and Video events
0,0,"jolyne.jpg",0,0
Video,-45,"hey.mp4"
//Break Periods
2,48372,53972
//Storyboard Layer 0 (Background)
//Storyboard Layer 1 (Fail)
//Storyboard Layer 2 (Pass)
//Storyboard Layer 3 (Foreground)
//Storyboard Layer 4 (Overlay)
//Storyboard Sound Samples

[TimingPoints]
506,333.333333333333,4,2,0,60,1,0
506,-100,4,2,0,60,0,0
4339,-100,4,2,0,60,0,0
16505,-100,4,2,0,50,0,0
37505,-100,4,2,0,50,0,0
38089,-100,4,2,0,60,0,0
39172,-100,4,2,0,60,0,0
40839,-100,4,2,0,60,0,0
41839,-100,4,2,0,60,0,0
43505,-100,4,2,0,60,0,0
44505,-100,4,2,0,60,0,0
47172,-100,4,2,0,60,0,0
55172,-100,4,2,0,75,0,0
78505,-100,4,2,0,75,0,0
81839,-100,4,2,0,60,0,0
85172,-100,4,2,0,60,0,0
86172,-100,4,2,0,60,0,0

[Colours]
Combo1 : 182,221,134
Combo2 : 250,235,175
Combo3 : 245,202,173

[HitObjects]
23,84,506,6,0,P|72:92|121:102,1,100,8|8,0:0|0:0,0:0:0:0:
205,74,1172,2,0,P|245:96|309:81,1,100,8|8,0:0|0:0,0:0:0:0:
365,29,1839,1,8,0:0:0:0:
443,72,2172,1,8,0:0:0:0:
429,160,2505,1,8,0:0:0:0:
466,242,2839,1,8,0:0:0:0:
419,318,3172,6,0,L|315:337,1,100,8|8,0:0|0:0,0:0:0:0:
232,354,3839,2,0,L|242:292,1,50,8|0,0:0|0:0,0:0:0:0:
218,271,4172,1,8,0:0:0:0:
218,271,4339,6,0,L|114:290,1,100,2|0,1:2|1:0,0:0:0:0:
82,263,4839,2,0,P|87:211|56:160,1,100,14|8,0:0|0:0,0:0:0:0:
31,140,5339,1,6,1:2:0:0:
85,69,5672,1,8,0:0:0:0:
85,69,5839,6,0,L|197:85,1,100,12|8,0:0|0:0,0:0:0:0:
266,47,6505,2,0,P|277:20|281:-5,2,50,2|0|8,1:2|1:0|0:0,0:0:0:0:
279,136,7172,1,2,1:2:0:0:
298,226,7505,1,8,0:0:0:0:
298,226,7672,2,0,L|308:292,1,50,2|0,0:0|1:0,0:0:0:0:
284,315,8005,1,2,1:2:0:0:
352,373,8339,6,0,P|407:386|463:357,1,100,6|0,1:2|0:0,0:0:0:0:
480,342,8839,1,10,0:0:0:0:
449,258,9172,2,0,L|441:208,1,50,2|0,1:2|1:0,0:0:0:0:
461,168,9505,1,8,0:0:0:0:
420,87,9839,1,2,1:2:0:0:
331,68,10172,2,0,L|281:75,1,50,8|2,0:0|0:0,0:0:0:0:
253,110,10505,1,0,1:0:0:0:
253,110,10672,1,14,0:0:0:0:
177,60,11005,6,0,P|128:40|69:57,1,100,14|0,0:0|1:0,0:0:0:0:
50,80,11505,2,0,P|59:130|68:189,1,100,14|2,0:0|1:2,0:0:0:0:
52,221,12005,1,2,1:2:0:0:
52,221,12172,1,8,0:0:0:0:
35,309,12505,2,0,P|83:302|128:323,1,100,2|10,1:2|0:0,0:0:0:0:
161,354,13005,2,0,P|229:344|264:340,1,100,2|2,0:0|1:2,0:0:0:0:
300,360,13505,1,10,0:0:0:0:
378,315,13839,5,2,1:2:0:0:
460,351,14172,1,10,0:2:0:0:
512,278,14505,2,0,L|505:210,1,50,2|2,0:0|1:2,0:0:0:0:
476,194,14839,1,8,0:0:0:0:
415,127,15172,6,0,L|346:141,1,50,0|8,1:0|0:3,0:0:0:0:
322,124,15505,2,0,B|253:78|253:78|276:246,1,250,2|8,0:0|0:3,0:0:0:0:
302,279,16505,5,4,1:2:0:0:
242,347,16839,1,8,0:0:0:0:
242,347,17005,2,0,P|196:324|132:334,1,100,2|0,0:0|1:0,0:0:0:0:
107,346,17505,1,8,0:0:0:0:
23,383,17839,2,0,P|11:335|35:290,1,100,2|10,1:2|0:0,0:0:0:0:
56,253,18339,2,0,P|51:199|42:144,1,100,2|2,0:2|1:2,0:0:0:0:
14,119,18839,1,8,0:0:0:0:
72,50,19172,6,0,P|123:66|182:70,1,100,2|10,1:2|0:2,0:0:0:0:
242,122,19839,2,0,P|293:106|352:102,1,100,2|10,0:0|0:0,0:0:0:0:
415,54,20505,2,0,P|422:23|420:-3,2,50,2|2|8,1:2|0:0|0:0,0:0:0:0:
437,92,21005,1,2,0:1:0:0:
424,181,21339,1,2,1:0:0:0:
411,271,21672,1,2,1:0:0:0:
411,271,21839,6,0,P|362:292|318:277,1,100,2|10,1:2|0:0,0:0:0:0:
276,263,22339,1,2,0:2:0:0:
276,263,22505,2,0,P|213:282|165:308,1,100,2|10,0:0|0:0,0:0:0:0:
106,345,23172,2,0,P|87:309|114:243,1,100,2|10,1:2|0:0,0:0:0:0:
114,205,23672,1,2,0:0:0:0:
72,125,24005,1,0,1:0:0:0:
117,46,24339,1,2,1:2:0:0:
117,46,24505,6,0,L|233:66,1,100,2|10,1:2|0:0,0:0:0:0:
284,120,25172,2,0,L|382:103,1,100,2|10,0:0|0:0,0:0:0:0:
457,162,25839,1,2,0:0:0:0:
457,162,26005,2,0,L|447:219,1,50,14|0,0:0|0:0,0:0:0:0:
467,252,26339,1,8,0:3:0:0:
467,252,26505,2,0,L|458:311,1,50,8|4,0:0|0:3,0:0:0:0:
423,328,26839,1,4,0:3:0:0:
341,365,27172,5,4,1:2:0:0:
267,313,27505,2,0,P|258:254|253:202,1,100,10|2,0:0|0:0,0:0:0:0:
269,174,28005,1,2,1:2:0:0:
269,174,28172,1,10,0:0:0:0:
193,124,28505,2,0,P|204:95|204:66,2,50,2|2|8,1:2|0:0|0:0,0:0:0:0:
152,144,29005,2,0,P|111:122|43:133,1,100,2|0,0:0|1:0,0:0:0:0:
1,195,29672,5,2,1:2:0:0:
1,195,29839,2,0,P|14:242|18:303,1,100,2|10,1:2|0:2,0:0:0:0:
77,360,30505,2,0,P|126:363|170:341,1,100,2|10,0:0|0:0,0:0:0:0:
234,278,31172,1,2,1:2:0:0:
234,278,31339,2,0,L|300:291,1,50,2|8,0:2|0:0,0:0:0:0:
314,319,31672,1,2,0:2:0:0:
393,372,32005,1,2,1:2:0:0:
393,372,32172,2,0,L|459:359,1,50,10|0,0:0|1:0,0:0:0:0:
473,331,32505,5,2,1:2:0:0:
438,247,32839,2,0,P|444:186|451:132,1,100,10|2,0:0|0:0,0:0:0:0:
383,85,33505,2,0,P|355:90|322:95,1,50,10|0,0:0|0:0,0:0:0:0:
293,72,33839,1,2,1:2:0:0:
232,138,34172,2,0,P|226:199|219:253,1,100,10|2,0:2|0:2,0:0:0:0:
159,302,34838,2,0,P|134:305|109:310,1,50,8|2,0:0|1:2,0:0:0:0:
68,290,35172,5,2,1:2:0:0:
28,209,35505,1,10,0:0:0:0:
71,130,35839,1,2,0:0:0:0:
31,49,36172,1,10,0:0:0:0:
106,0,36505,2,0,B|157:9,1,50,2|14,0:0|0:0,0:0:0:0:
221,70,37005,2,0,B|270:61,1,50,8|8,0:3|0:0,0:0:0:0:
313,87,37339,1,8,0:3:0:0:
313,87,37505,2,0,P|359:67|416:77,1,100,8|6,0:0|1:2,0:0:0:0:
372,156,38172,6,0,L|365:218,1,50,2|2,0:0|1:2,0:0:0:0:
343,244,38505,1,10,0:0:0:0:
369,330,38839,1,2,0:0:0:0:
297,384,39172,2,0,B|203:374|256:340|144:333,2,150,14|2|2,0:0|1:2|0:0,0:0:0:0:
370,332,40505,5,8,0:0:0:0:
343,244,40839,2,0,L|350:182,1,50,2|2,0:0|1:2,0:0:0:0:
372,156,41172,1,12,0:0:0:0:
418,79,41505,1,2,0:0:0:0:
343,28,41839,2,0,P|294:41|229:48,1,100,14|0,0:0|1:0,0:0:0:0:
216,82,42339,2,0,P|167:69|102:62,1,100,14|0,0:0|1:0,0:0:0:0:
81,88,42839,1,14,0:0:0:0:
122,167,43172,5,12,0:0:0:0:
61,233,43505,2,0,L|71:299,1,50,2|2,0:0|1:2,0:0:0:0:
96,317,43839,1,14,0:0:0:0:
173,363,44172,1,2,0:0:0:0:
247,312,44505,2,0,B|229:210|261:244|250:143,2,150,14|2|14,0:0|0:0|0:0,0:0:0:0:
320,365,45839,5,12,0:0:0:0:
393,313,46172,2,0,L|447:304,1,50,2|2,0:0|1:2,0:0:0:0:
475,274,46505,2,0,P|486:239|482:212,1,50,14|2,0:0|0:0,0:0:0:0:
460,188,46839,1,2,0:0:0:0:
489,103,47172,6,0,P|442:96|385:134,1,100,14|0,0:0|1:0,0:0:0:0:
371,156,47672,2,0,L|269:142,1,100,14|0,0:0|1:0,0:0:0:0:
235,168,48172,1,14,0:0:0:0:
235,168,55172,5,4,1:2:0:0:
147,187,55505,2,0,L|26:205,2,100,10|2|10,0:0|1:2|0:0,0:0:0:0:
181,224,56339,1,0,0:0:0:0:
181,224,56505,2,0,L|173:281,1,50,2|2,1:2|0:0,0:0:0:0:
235,339,57005,2,0,P|315:322|347:334,1,100,2|0,0:2|1:0,0:0:0:0:
361,359,57505,2,0,L|429:348,1,50,10|0,0:0|1:0,0:0:0:0:
439,316,57839,5,2,1:2:0:0:
471,233,58172,1,8,0:0:0:0:
412,165,58505,1,2,1:2:0:0:
464,92,58839,2,0,L|471:30,1,50,10|0,0:0|1:0,0:0:0:0:
437,10,59172,5,2,1:2:0:0:
362,60,59505,1,10,0:2:0:0:
279,23,59839,2,0,P|225:43|164:48,1,100,2|8,0:0|0:0,0:0:0:0:
95,27,60505,5,0,1:0:0:0:
48,104,60839,2,0,P|77:152|69:208,1,100,10|2,0:0|1:2,0:0:0:0:
26,270,61505,2,0,P|52:284|84:285,1,50,10|0,0:0|0:0,0:0:0:0:
108,312,61839,6,0,L|219:298,1,100,2|10,1:2|0:0,0:0:0:0:
243,325,62339,2,0,P|288:350|349:337,1,100,2|0,0:0|1:0,0:0:0:0:
370,317,62839,1,10,0:0:0:0:
309,250,63172,6,0,L|301:189,1,50,2|2,1:2|0:0,0:0:0:0:
325,161,63505,2,0,L|317:100,1,50,10|2,0:0|0:0,0:0:0:0:
287,78,63839,1,2,1:2:0:0:
360,26,64172,2,0,L|421:34,1,50,10|0,0:2|0:0,0:0:0:0:
447,56,64505,5,2,1:2:0:0:
436,145,64839,1,2,0:2:0:0:
488,217,65172,1,10,0:0:0:0:
477,306,65506,1,10,0:0:0:0:
399,352,65839,5,12,0:0:0:0:
329,295,66172,2,0,P|279:279|224:294,1,100,10|10,0:0|0:0,0:0:0:0:
158,338,66839,1,10,0:0:0:0:
89,280,67172,2,0,P|76:230|85:166,1,100,10|8,0:0|0:0,0:0:0:0:
54,145,67672,2,0,L|153:134,1,100,0|0,1:2|1:0,0:0:0:0:
188,161,68172,2,0,L|287:172,1,100,8|10,0:0|0:0,0:0:0:0:
373,200,68839,6,0,L|378:141,1,50,10|0,0:0|0:0,0:0:0:0:
400,111,69172,1,10,0:0:0:0:
372,25,69505,1,10,0:0:0:0:
284,48,69839,2,0,L|185:37,1,100,10|8,0:0|0:0,0:0:0:0:
153,3,70339,2,0,L|54:14,1,100,2|0,0:0|1:0,0:0:0:0:
32,54,70839,2,0,L|50:115,1,50,8|0,0:0|1:0,0:0:0:0:
77,133,71172,5,12,0:0:0:0:
31,210,71505,2,0,P|73:229|134:204,1,100,10|10,0:0|0:0,0:0:0:0:
198,164,72172,1,10,0:0:0:0:
263,225,72505,1,10,0:0:0:0:
340,178,72839,2,0,P|382:159|443:184,1,100,10|10,0:0|0:0,0:0:0:0:
491,240,73505,2,0,P|485:264|480:297,1,50,10|0,0:0|1:0,0:0:0:0:
453,325,73839,5,10,0:0:0:0:
372,284,74172,1,8,0:0:0:0:
276,310,74505,1,8,0:0:0:0:
221,381,74839,1,8,0:0:0:0:
133,360,75172,1,14,0:0:0:0:
133,360,76505,5,4,0:3:0:0:
45,337,76839,1,4,0:3:0:0:
45,337,77839,6,0,L|36:277,1,50,8|8,0:0|0:3,0:0:0:0:
61,249,78172,2,0,L|52:189,1,50,8|8,0:3|0:3,0:0:0:0:
69,157,78505,2,0,P|35:138|-13:127,2,66.6666666666667,10|10|8,0:0|0:0|0:3,0:0:0:0:
125,135,79172,1,6,1:2:0:0:
256,192,79339,12,12,80505,0:0:0:0:
125,135,81172,6,0,L|182:128,1,50,8|0,1:0|1:0,0:0:0:0:
282,47,81839,5,4,1:2:0:0:
354,100,82172,2,0,P|408:99|453:127,1,100,10|2,0:0|1:2,0:0:0:0:
476,161,82672,1,0,1:0:0:0:
476,161,82839,1,8,0:0:0:0:
447,246,83172,2,0,P|397:243|353:266,1,100,2|8,1:2|0:0,0:0:0:0:
330,303,83672,2,0,L|224:290,1,100,2|2,0:0|1:2,0:0:0:0:
193,316,84172,1,8,0:0:0:0:
117,365,84506,5,10,0:0:0:0:
48,306,84839,1,10,0:0:0:0:
83,223,85172,2,0,L|65:103,1,100,8|8,0:0|0:3,0:0:0:0:
106,91,85672,1,2,0:0:0:0:
106,91,85839,2,0,L|172:99,1,50,8|2,0:3|0:0,0:0:0:0:
189,133,86172,1,6,1:2:0:0:
256,192,86339,12,0,88505,0:0:0:0:
