osu file format v14

[General]
AudioFilename: audio.mp3
AudioLeadIn: 0
PreviewTime: 55170
Countdown: 0
SampleSet: Normal
StackLeniency: 0.7
Mode: 1
LetterboxInBreaks: 0
WidescreenStoryboard: 0

[Editor]
DistanceSpacing: 1
BeatDivisor: 4
GridSize: 32
TimelineZoom: 1.9

[Metadata]
Title:STONE OCEAN (TV Size)
TitleUnicode:STONE OCEAN (TV Size)
Artist:ichigo from KISIDA KYODAN & THE AKEBOSI ROCKETS
ArtistUnicode:ichigo from 岸田教団&THE明星ロケッツ
Creator:Greenshell
Version:Ora Oni
Source:ジョジョの奇妙な冒険 ストーンオーシャン
Tags:hivie jojo jojo's bizarre adventure kimyou na bouken part 6 p6 jolyne kujo jrock j-rock japanese rock anime opening op 藤林聖子 Shoko Fujibayashi 河田貴央 Kawada Takao 家原正樹 Iehara Masaki david production
BeatmapID:3345055
BeatmapSetID:1638872

[Difficulty]
HPDrainRate:6
CircleSize:3
OverallDifficulty:6
ApproachRate:10
SliderMultiplier:1.4
SliderTickRate:1

[Events]
//Background and Video events
0,0,"jolyneeeeeeeee.jpg",0,55
Video,-55,"thanksheevee.mp4"
//Break Periods
2,48586,53389
//Storyboard Layer 0 (Background)
//Storyboard Layer 1 (Fail)
//Storyboard Layer 2 (Pass)
//Storyboard Layer 3 (Foreground)
//Storyboard Layer 4 (Overlay)
//Storyboard Sound Samples

[TimingPoints]
506,333.333333333333,4,1,0,80,1,0
38089,-125,4,1,0,80,0,0
41755,-100,4,1,0,80,0,0
43422,-125,4,1,0,80,0,0
47089,-100,4,1,0,80,0,0
48422,-125,4,1,0,50,0,0
53672,-100,4,1,0,60,0,0
55172,-100,4,1,0,80,0,1
75172,-83.3333333333333,4,1,0,80,0,0
77422,-100,4,1,0,80,0,0
86089,-66.6666666666667,4,1,0,80,0,0

[HitObjects]
288,160,506,5,8,0:0:0:0:
288,160,839,1,8,0:0:0:0:
288,160,1172,1,8,0:0:0:0:
288,160,1505,1,8,0:0:0:0:
288,160,1839,1,8,0:0:0:0:
288,160,2172,1,8,0:0:0:0:
288,160,2505,1,8,0:0:0:0:
224,160,2672,1,0,0:0:0:0:
288,160,2839,1,8,0:0:0:0:
224,160,3005,1,0,0:0:0:0:
288,160,3172,1,8,0:0:0:0:
288,160,3505,1,8,0:0:0:0:
224,160,3672,1,0,0:0:0:0:
224,160,3755,1,0,0:0:0:0:
288,160,3839,1,8,0:0:0:0:
224,160,4005,1,0,0:0:0:0:
224,160,4089,1,0,0:0:0:0:
288,160,4172,1,8,0:0:0:0:
224,160,4339,1,0,0:0:0:0:
224,160,4672,1,0,0:0:0:0:
288,160,4839,1,8,0:0:0:0:
224,160,5005,1,0,0:0:0:0:
288,160,5089,1,8,0:0:0:0:
224,160,5172,1,0,0:0:0:0:
288,224,5339,1,12,0:0:0:0:
288,160,5672,1,8,0:0:0:0:
288,160,5755,1,8,0:0:0:0:
224,160,5839,1,0,0:0:0:0:
288,160,6172,1,8,0:0:0:0:
224,160,6339,1,0,0:0:0:0:
288,160,6422,1,8,0:0:0:0:
224,160,6505,1,0,0:0:0:0:
224,160,6672,1,0,0:0:0:0:
288,160,6839,1,8,0:0:0:0:
224,160,7005,1,0,0:0:0:0:
224,160,7089,1,0,0:0:0:0:
288,160,7172,1,8,0:0:0:0:
288,160,7255,1,8,0:0:0:0:
224,160,7339,1,0,0:0:0:0:
288,160,7505,1,8,0:0:0:0:
224,160,7672,1,0,0:0:0:0:
224,160,7755,1,0,0:0:0:0:
224,160,7839,1,0,0:0:0:0:
288,160,8005,1,8,0:0:0:0:
224,160,8172,1,0,0:0:0:0:
224,160,8255,1,0,0:0:0:0:
288,160,8339,1,8,0:0:0:0:
224,160,8672,1,0,0:0:0:0:
288,160,8839,1,8,0:0:0:0:
288,160,9005,1,8,0:0:0:0:
288,160,9089,1,8,0:0:0:0:
224,160,9172,1,0,0:0:0:0:
224,160,9339,1,0,0:0:0:0:
288,160,9505,1,8,0:0:0:0:
288,160,9672,1,8,0:0:0:0:
224,160,9755,1,0,0:0:0:0:
288,160,9839,1,8,0:0:0:0:
288,160,9922,1,8,0:0:0:0:
224,160,10005,1,0,0:0:0:0:
288,160,10172,1,8,0:0:0:0:
224,160,10339,1,0,0:0:0:0:
288,160,10422,1,8,0:0:0:0:
224,160,10505,1,0,0:0:0:0:
288,160,10672,1,8,0:0:0:0:
288,160,11005,1,8,0:0:0:0:
224,160,11172,1,0,0:0:0:0:
224,160,11339,1,0,0:0:0:0:
288,224,11505,1,12,0:0:0:0:
224,160,11672,1,0,0:0:0:0:
288,160,11755,1,8,0:0:0:0:
224,160,11839,1,0,0:0:0:0:
224,160,12005,1,0,0:0:0:0:
288,160,12172,1,8,0:0:0:0:
224,160,12339,1,0,0:0:0:0:
288,160,12422,1,8,0:0:0:0:
224,160,12505,1,0,0:0:0:0:
224,160,12589,1,0,0:0:0:0:
288,160,12672,1,8,0:0:0:0:
224,160,12839,1,0,0:0:0:0:
288,160,13005,1,8,0:0:0:0:
288,160,13089,1,8,0:0:0:0:
288,160,13172,1,8,0:0:0:0:
288,160,13255,1,8,0:0:0:0:
224,160,13339,1,0,0:0:0:0:
224,160,13422,1,0,0:0:0:0:
288,160,13505,1,8,0:0:0:0:
224,160,13672,1,0,0:0:0:0:
224,160,13839,1,0,0:0:0:0:
224,160,14005,1,0,0:0:0:0:
224,160,14089,1,0,0:0:0:0:
288,160,14172,1,8,0:0:0:0:
224,160,14339,1,0,0:0:0:0:
288,160,14505,1,8,0:0:0:0:
288,160,14589,1,8,0:0:0:0:
224,160,14672,1,0,0:0:0:0:
224,160,14755,1,0,0:0:0:0:
288,160,14839,1,8,0:0:0:0:
288,160,15005,1,8,0:0:0:0:
224,160,15172,1,0,0:0:0:0:
288,160,15339,1,8,0:0:0:0:
224,160,15422,1,0,0:0:0:0:
288,160,15505,1,8,0:0:0:0:
224,160,15672,1,0,0:0:0:0:
288,160,15839,1,8,0:0:0:0:
288,160,15922,1,8,0:0:0:0:
224,160,16005,1,0,0:0:0:0:
224,160,16089,1,0,0:0:0:0:
288,160,16172,1,8,0:0:0:0:
224,160,16255,1,0,0:0:0:0:
288,160,16339,1,8,0:0:0:0:
224,224,16505,1,4,0:0:0:0:
288,160,16839,1,8,0:0:0:0:
224,160,17005,1,0,0:0:0:0:
224,160,17089,1,0,0:0:0:0:
224,160,17172,1,0,0:0:0:0:
224,160,17339,1,0,0:0:0:0:
288,160,17505,1,8,0:0:0:0:
224,160,17672,1,0,0:0:0:0:
224,160,17839,1,0,0:0:0:0:
288,160,18172,1,8,0:0:0:0:
224,160,18339,1,0,0:0:0:0:
224,160,18672,1,0,0:0:0:0:
288,160,18839,1,8,0:0:0:0:
224,160,19005,1,0,0:0:0:0:
224,160,19172,1,0,0:0:0:0:
288,160,19505,1,8,0:0:0:0:
224,160,19672,1,0,0:0:0:0:
224,160,19755,1,0,0:0:0:0:
288,160,19839,1,8,0:0:0:0:
224,160,20005,1,0,0:0:0:0:
288,160,20172,1,8,0:0:0:0:
224,160,20505,1,0,0:0:0:0:
288,160,20672,1,8,0:0:0:0:
288,160,20839,1,8,0:0:0:0:
224,160,21005,1,0,0:0:0:0:
288,160,21089,1,8,0:0:0:0:
224,160,21172,1,0,0:0:0:0:
224,160,21255,1,0,0:0:0:0:
288,160,21339,1,8,0:0:0:0:
224,160,21505,1,0,0:0:0:0:
288,160,21672,1,8,0:0:0:0:
224,160,21839,1,0,0:0:0:0:
288,160,22172,1,8,0:0:0:0:
288,160,22339,1,8,0:0:0:0:
288,160,22422,1,8,0:0:0:0:
224,160,22505,1,0,0:0:0:0:
224,160,22672,1,0,0:0:0:0:
288,160,22839,1,8,0:0:0:0:
224,160,23005,1,0,0:0:0:0:
224,160,23172,1,0,0:0:0:0:
288,160,23505,1,8,0:0:0:0:
224,160,23672,1,0,0:0:0:0:
224,160,24005,1,0,0:0:0:0:
288,160,24172,1,8,0:0:0:0:
224,160,24339,1,0,0:0:0:0:
224,160,24505,1,0,0:0:0:0:
288,160,24839,1,8,0:0:0:0:
224,160,25005,1,0,0:0:0:0:
224,160,25089,1,0,0:0:0:0:
288,160,25172,1,8,0:0:0:0:
224,160,25339,1,0,0:0:0:0:
288,160,25505,1,8,0:0:0:0:
288,160,25672,1,8,0:0:0:0:
224,160,25839,1,0,0:0:0:0:
288,224,26005,1,12,0:0:0:0:
224,160,26339,1,0,0:0:0:0:
288,160,26505,1,8,0:0:0:0:
288,160,26589,1,8,0:0:0:0:
224,160,26672,1,0,0:0:0:0:
224,160,26755,1,0,0:0:0:0:
288,160,26839,1,8,0:0:0:0:
224,160,27005,1,0,0:0:0:0:
288,160,27089,1,8,0:0:0:0:
224,160,27172,1,0,0:0:0:0:
288,160,27505,1,8,0:0:0:0:
224,160,27672,1,0,0:0:0:0:
224,160,27755,1,0,0:0:0:0:
224,160,27839,1,0,0:0:0:0:
224,160,28005,1,0,0:0:0:0:
288,160,28172,1,8,0:0:0:0:
224,160,28339,1,0,0:0:0:0:
288,160,28505,1,8,0:0:0:0:
224,160,28672,1,0,0:0:0:0:
224,160,28755,1,0,0:0:0:0:
288,160,28839,1,8,0:0:0:0:
224,160,29005,1,0,0:0:0:0:
224,160,29339,1,0,0:0:0:0:
288,160,29505,1,8,0:0:0:0:
288,160,29672,1,8,0:0:0:0:
288,160,29755,1,8,0:0:0:0:
224,160,29839,1,0,0:0:0:0:
224,160,30005,1,0,0:0:0:0:
288,160,30172,1,8,0:0:0:0:
224,160,30339,1,0,0:0:0:0:
224,160,30422,1,0,0:0:0:0:
288,160,30505,1,8,0:0:0:0:
288,160,30589,1,8,0:0:0:0:
224,160,30672,1,0,0:0:0:0:
288,160,30839,1,8,0:0:0:0:
224,160,31005,1,0,0:0:0:0:
288,160,31172,1,8,0:0:0:0:
288,160,31339,1,8,0:0:0:0:
288,160,31422,1,8,0:0:0:0:
224,160,31505,1,0,0:0:0:0:
288,160,31672,1,8,0:0:0:0:
224,160,31839,1,0,0:0:0:0:
224,160,31922,1,0,0:0:0:0:
288,160,32005,1,8,0:0:0:0:
288,160,32172,1,8,0:0:0:0:
224,160,32339,1,0,0:0:0:0:
224,160,32422,1,0,0:0:0:0:
224,160,32505,1,0,0:0:0:0:
288,224,32839,1,12,0:0:0:0:
288,224,33172,1,12,0:0:0:0:
224,160,33339,1,0,0:0:0:0:
288,160,33505,1,8,0:0:0:0:
288,160,33672,1,8,0:0:0:0:
288,160,33755,1,8,0:0:0:0:
224,160,33839,1,0,0:0:0:0:
288,224,34172,1,12,0:0:0:0:
288,224,34505,1,12,0:0:0:0:
224,160,34672,1,0,0:0:0:0:
288,160,34839,1,8,0:0:0:0:
224,160,35005,1,0,0:0:0:0:
224,160,35089,1,0,0:0:0:0:
224,160,35172,1,0,0:0:0:0:
224,160,35339,1,0,0:0:0:0:
288,160,35505,1,8,0:0:0:0:
224,160,35672,1,0,0:0:0:0:
224,160,35755,1,0,0:0:0:0:
288,160,35839,1,8,0:0:0:0:
288,160,35922,1,8,0:0:0:0:
224,160,36005,1,0,0:0:0:0:
288,160,36172,1,8,0:0:0:0:
288,160,36339,1,8,0:0:0:0:
288,160,36422,1,8,0:0:0:0:
224,160,36505,1,0,0:0:0:0:
288,224,36672,1,12,0:0:0:0:
224,160,37005,1,0,0:0:0:0:
288,160,37172,1,8,0:0:0:0:
224,160,37339,1,0,0:0:0:0:
288,160,37505,1,8,0:0:0:0:
224,224,37839,1,4,0:0:0:0:
288,160,38172,1,8,0:0:0:0:
224,160,38339,1,0,0:0:0:0:
288,224,38505,1,12,0:0:0:0:
224,160,38672,1,0,0:0:0:0:
224,160,38839,1,0,0:0:0:0:
224,224,39172,1,4,0:0:0:0:
224,160,39339,1,0,0:0:0:0:
224,160,39672,1,0,0:0:0:0:
288,224,39839,1,12,0:0:0:0:
288,160,40172,1,8,0:0:0:0:
224,224,40505,1,4,0:0:0:0:
288,160,40839,1,8,0:0:0:0:
224,160,41005,1,0,0:0:0:0:
288,224,41172,1,12,0:0:0:0:
288,160,41339,1,8,0:0:0:0:
224,160,41505,1,0,0:0:0:0:
288,224,41839,1,12,0:0:0:0:
224,160,42005,1,0,0:0:0:0:
224,160,42172,1,0,0:0:0:0:
288,224,42339,1,12,0:0:0:0:
224,160,42672,1,0,0:0:0:0:
288,224,42839,1,12,0:0:0:0:
224,224,43172,1,4,0:0:0:0:
288,160,43505,1,8,0:0:0:0:
288,160,43672,1,8,0:0:0:0:
224,224,43839,1,4,0:0:0:0:
288,160,44005,1,8,0:0:0:0:
224,160,44172,1,0,0:0:0:0:
224,224,44505,1,4,0:0:0:0:
224,160,44672,1,0,0:0:0:0:
224,160,45005,1,0,0:0:0:0:
288,224,45172,1,12,0:0:0:0:
288,160,45505,1,8,0:0:0:0:
224,224,45839,1,4,0:0:0:0:
288,160,46172,1,8,0:0:0:0:
288,160,46339,1,8,0:0:0:0:
224,224,46505,1,4,0:0:0:0:
288,160,46672,1,8,0:0:0:0:
288,160,46839,1,8,0:0:0:0:
288,224,47172,1,12,0:0:0:0:
224,160,47505,1,0,0:0:0:0:
288,224,47672,1,12,0:0:0:0:
224,160,47839,1,0,0:0:0:0:
224,160,48005,1,0,0:0:0:0:
288,224,48172,1,12,0:0:0:0:
224,160,53839,5,0,0:0:0:0:
288,160,54005,1,8,0:0:0:0:
288,160,54089,1,8,0:0:0:0:
224,160,54172,1,0,0:0:0:0:
224,160,54339,1,0,0:0:0:0:
288,160,54422,1,8,0:0:0:0:
224,160,54505,1,0,0:0:0:0:
224,160,54672,1,0,0:0:0:0:
224,160,54755,1,0,0:0:0:0:
288,160,54839,1,8,0:0:0:0:
224,224,55172,1,4,0:0:0:0:
224,160,55339,1,0,0:0:0:0:
224,160,55422,1,0,0:0:0:0:
288,160,55505,1,8,0:0:0:0:
224,160,55672,1,0,0:0:0:0:
288,160,55839,1,8,0:0:0:0:
288,160,55922,1,8,0:0:0:0:
224,160,56005,1,0,0:0:0:0:
288,224,56172,1,12,0:0:0:0:
224,160,56339,1,0,0:0:0:0:
224,160,56422,1,0,0:0:0:0:
288,160,56505,1,8,0:0:0:0:
224,160,56589,1,0,0:0:0:0:
288,160,56672,1,8,0:0:0:0:
224,160,56839,1,0,0:0:0:0:
288,160,57005,1,8,0:0:0:0:
288,160,57089,1,8,0:0:0:0:
224,160,57172,1,0,0:0:0:0:
224,160,57339,1,0,0:0:0:0:
288,224,57505,1,12,0:0:0:0:
224,160,57672,5,0,0:0:0:0:
288,160,57755,1,8,0:0:0:0:
224,160,57839,1,0,0:0:0:0:
224,160,58005,1,0,0:0:0:0:
224,160,58089,1,0,0:0:0:0:
288,160,58172,1,8,0:0:0:0:
224,160,58339,1,0,0:0:0:0:
288,160,58505,1,8,0:0:0:0:
224,160,58672,1,0,0:0:0:0:
224,160,58755,1,0,0:0:0:0:
288,160,58839,1,8,0:0:0:0:
224,160,58922,1,0,0:0:0:0:
288,160,59005,1,8,0:0:0:0:
288,160,59089,1,8,0:0:0:0:
224,160,59172,1,0,0:0:0:0:
224,160,59339,1,0,0:0:0:0:
288,160,59505,1,8,0:0:0:0:
224,160,59672,1,0,0:0:0:0:
288,160,59839,1,8,0:0:0:0:
288,160,59922,1,8,0:0:0:0:
224,160,60005,1,0,0:0:0:0:
224,160,60089,1,0,0:0:0:0:
288,160,60172,1,8,0:0:0:0:
288,160,60255,1,8,0:0:0:0:
288,160,60339,1,8,0:0:0:0:
288,160,60422,1,8,0:0:0:0:
224,160,60505,1,0,0:0:0:0:
224,160,60672,1,0,0:0:0:0:
224,160,60755,1,0,0:0:0:0:
288,160,60839,1,8,0:0:0:0:
224,160,61005,1,0,0:0:0:0:
288,160,61172,1,8,0:0:0:0:
288,160,61255,1,8,0:0:0:0:
224,160,61339,1,0,0:0:0:0:
288,224,61505,1,12,0:0:0:0:
224,160,61672,1,0,0:0:0:0:
224,160,61755,1,0,0:0:0:0:
288,160,61839,1,8,0:0:0:0:
224,160,62005,1,0,0:0:0:0:
224,160,62089,1,0,0:0:0:0:
288,160,62172,1,8,0:0:0:0:
224,160,62255,1,0,0:0:0:0:
288,160,62339,1,8,0:0:0:0:
224,160,62505,1,0,0:0:0:0:
224,160,62672,1,0,0:0:0:0:
288,224,62839,1,12,0:0:0:0:
288,160,63005,1,8,0:0:0:0:
288,160,63089,1,8,0:0:0:0:
224,160,63172,1,0,0:0:0:0:
224,160,63255,1,0,0:0:0:0:
288,160,63339,1,8,0:0:0:0:
288,160,63505,1,8,0:0:0:0:
224,160,63672,1,0,0:0:0:0:
224,160,63755,1,0,0:0:0:0:
288,160,63839,1,8,0:0:0:0:
224,160,64005,1,0,0:0:0:0:
288,160,64089,1,8,0:0:0:0:
224,160,64172,1,0,0:0:0:0:
224,160,64255,1,0,0:0:0:0:
288,160,64339,1,8,0:0:0:0:
224,160,64505,1,0,0:0:0:0:
288,160,64672,1,8,0:0:0:0:
288,160,64755,1,8,0:0:0:0:
224,160,64839,1,0,0:0:0:0:
224,160,65005,1,0,0:0:0:0:
288,160,65172,1,8,0:0:0:0:
224,160,65255,1,0,0:0:0:0:
224,160,65339,1,0,0:0:0:0:
224,160,65422,1,0,0:0:0:0:
288,160,65505,1,8,0:0:0:0:
288,160,65589,1,8,0:0:0:0:
224,160,65672,1,0,0:0:0:0:
288,224,65839,1,12,0:0:0:0:
288,160,66172,1,8,0:0:0:0:
224,160,66339,1,0,0:0:0:0:
224,160,66422,1,0,0:0:0:0:
288,160,66505,1,8,0:0:0:0:
224,160,66672,1,0,0:0:0:0:
288,160,66839,1,8,0:0:0:0:
288,160,66922,1,8,0:0:0:0:
288,160,67005,1,8,0:0:0:0:
224,160,67172,1,0,0:0:0:0:
224,160,67255,1,0,0:0:0:0:
224,160,67339,1,0,0:0:0:0:
224,160,67422,1,0,0:0:0:0:
288,160,67505,1,8,0:0:0:0:
288,160,67672,1,8,0:0:0:0:
288,160,67755,1,8,0:0:0:0:
288,160,67839,1,8,0:0:0:0:
288,160,67922,1,8,0:0:0:0:
224,160,68005,1,0,0:0:0:0:
288,160,68172,1,8,0:0:0:0:
224,160,68339,1,0,0:0:0:0:
288,160,68505,1,8,0:0:0:0:
224,160,68672,1,0,0:0:0:0:
288,160,68839,1,8,0:0:0:0:
224,160,69005,1,0,0:0:0:0:
224,160,69089,1,0,0:0:0:0:
288,160,69172,1,8,0:0:0:0:
224,160,69339,1,0,0:0:0:0:
288,160,69505,1,8,0:0:0:0:
288,160,69589,1,8,0:0:0:0:
224,160,69672,1,0,0:0:0:0:
288,160,69839,1,8,0:0:0:0:
224,160,69922,1,0,0:0:0:0:
224,160,70005,1,0,0:0:0:0:
224,160,70089,1,0,0:0:0:0:
288,160,70172,1,8,0:0:0:0:
224,160,70339,1,0,0:0:0:0:
288,160,70422,1,8,0:0:0:0:
288,160,70505,1,8,0:0:0:0:
288,160,70589,1,8,0:0:0:0:
224,160,70672,1,0,0:0:0:0:
288,160,70839,1,8,0:0:0:0:
224,160,71005,1,0,0:0:0:0:
224,160,71089,1,0,0:0:0:0:
288,160,71172,1,8,0:0:0:0:
224,160,71339,1,0,0:0:0:0:
288,160,71505,1,8,0:0:0:0:
224,160,71589,1,0,0:0:0:0:
224,160,71672,1,0,0:0:0:0:
288,160,71839,1,8,0:0:0:0:
288,160,71922,1,8,0:0:0:0:
224,160,72005,1,0,0:0:0:0:
224,160,72089,1,0,0:0:0:0:
288,160,72172,1,8,0:0:0:0:
224,160,72339,1,0,0:0:0:0:
224,160,72422,1,0,0:0:0:0:
288,160,72505,1,8,0:0:0:0:
224,160,72672,1,0,0:0:0:0:
288,160,72839,1,8,0:0:0:0:
288,160,72922,1,8,0:0:0:0:
224,160,73005,1,0,0:0:0:0:
288,160,73172,1,8,0:0:0:0:
224,160,73255,1,0,0:0:0:0:
224,160,73339,1,0,0:0:0:0:
224,160,73422,1,0,0:0:0:0:
288,160,73505,1,8,0:0:0:0:
224,160,73672,1,0,0:0:0:0:
224,160,73755,1,0,0:0:0:0:
288,160,73839,1,8,0:0:0:0:
224,160,74005,1,0,0:0:0:0:
288,160,74172,1,8,0:0:0:0:
224,160,74339,1,0,0:0:0:0:
224,160,74422,1,0,0:0:0:0:
288,160,74505,1,8,0:0:0:0:
288,160,74589,1,8,0:0:0:0:
224,160,74672,1,0,0:0:0:0:
224,160,74755,1,0,0:0:0:0:
288,160,74839,1,8,0:0:0:0:
224,160,74922,1,0,0:0:0:0:
288,160,75005,1,8,0:0:0:0:
224,224,75172,1,4,0:0:0:0:
224,224,76505,1,4,0:0:0:0:
224,224,76839,1,4,0:0:0:0:
288,160,77505,1,8,0:0:0:0:
288,224,77839,1,12,0:0:0:0:
224,160,78005,1,0,0:0:0:0:
288,160,78172,1,8,0:0:0:0:
224,160,78339,1,0,0:0:0:0:
288,160,78505,1,8,0:0:0:0:
288,160,78617,1,8,0:0:0:0:
288,160,78728,1,8,0:0:0:0:
224,160,78839,1,0,0:0:0:0:
224,160,78950,1,0,0:0:0:0:
224,160,79061,1,0,0:0:0:0:
288,224,79172,1,12,0:0:0:0:
224,160,80339,1,0,0:0:0:0:
224,160,80422,1,0,0:0:0:0:
288,160,80505,1,8,0:0:0:0:
224,160,80672,1,0,0:0:0:0:
224,160,81005,1,0,0:0:0:0:
288,160,81172,1,8,0:0:0:0:
288,160,81339,1,8,0:0:0:0:
288,160,81422,1,8,0:0:0:0:
288,160,81505,1,8,0:0:0:0:
288,160,81672,1,8,0:0:0:0:
224,224,81839,1,4,0:0:0:0:
288,160,82172,1,8,0:0:0:0:
224,160,82339,1,0,0:0:0:0:
288,160,82422,1,8,0:0:0:0:
224,160,82505,1,0,0:0:0:0:
224,160,82672,1,0,0:0:0:0:
288,160,82839,1,8,0:0:0:0:
224,160,83005,1,0,0:0:0:0:
288,160,83089,1,8,0:0:0:0:
224,160,83172,1,0,0:0:0:0:
224,160,83255,1,0,0:0:0:0:
288,160,83339,1,8,0:0:0:0:
224,160,83505,1,0,0:0:0:0:
288,160,83672,1,8,0:0:0:0:
288,160,83755,1,8,0:0:0:0:
288,160,83839,1,8,0:0:0:0:
288,160,83922,1,8,0:0:0:0:
224,160,84005,1,0,0:0:0:0:
224,160,84089,1,0,0:0:0:0:
288,160,84172,1,8,0:0:0:0:
224,160,84339,1,0,0:0:0:0:
288,160,84505,1,8,0:0:0:0:
224,160,84672,1,0,0:0:0:0:
224,160,84755,1,0,0:0:0:0:
288,160,84839,1,8,0:0:0:0:
224,160,85005,1,0,0:0:0:0:
288,160,85172,1,8,0:0:0:0:
288,160,85283,1,8,0:0:0:0:
288,160,85394,1,8,0:0:0:0:
224,160,85505,1,0,0:0:0:0:
288,160,85617,1,8,0:0:0:0:
288,160,85728,1,8,0:0:0:0:
224,160,85839,1,0,0:0:0:0:
224,160,86005,1,0,0:0:0:0:
288,224,86172,1,12,0:0:0:0:
