osu file format v14

[General]
AudioFilename: audio.mp3
AudioLeadIn: 0
PreviewTime: 55012
Countdown: 0
SampleSet: Soft
StackLeniency: 0.4
Mode: 0
LetterboxInBreaks: 0
WidescreenStoryboard: 1

[Editor]
Bookmarks: 4345,37845,48511,81845,86178
DistanceSpacing: 1.1
BeatDivisor: 4
GridSize: 8
TimelineZoom: 1.3

[Metadata]
Title:STONE OCEAN (TV Size)
TitleUnicode:STONE OCEAN (TV Size)
Artist:ichigo from KISIDA KYODAN & THE AKEBOSI ROCKETS
ArtistUnicode:ichigo from 岸田教団&THE明星ロケッツ
Creator:AirinCat
Version:NORMAL
Source:ジョジョの奇妙な冒険 ストーンオーシャン
Tags:kudosu so0p soop kishida kyoudan and the akeboshi jojos JoJo no Kimyou na Bouken JoJo's Bizarre Adventure Part 6: Stone Ocean free six p6 anime opening op rock japanese jrock j-rock pop jpop jolyne kuujou kujo kujou cujoh jotaro joutarou 空条 徐倫 Araki Hirohiko 荒木 飛呂彦 藤林聖子 Shoko Fujibayashi 河田貴央 Kawada Takao 家原正樹 Iehara Masaki david production
BeatmapID:3345968
BeatmapSetID:1639355

[Difficulty]
HPDrainRate:3
CircleSize:3.4
OverallDifficulty:4
ApproachRate:5.4
SliderMultiplier:1
SliderTickRate:1

[Events]
//Background and Video events
Video,-45,"hey.mp4"
0,0,"jolyneeeeeeeee.jpg",0,0
//Break Periods
2,48705,53845
//Storyboard Layer 0 (Background)
//Storyboard Layer 1 (Fail)
//Storyboard Layer 2 (Pass)
//Storyboard Layer 3 (Foreground)
//Storyboard Layer 4 (Overlay)
//Storyboard Sound Samples

[TimingPoints]
506,333.333333333333,4,2,1,50,1,0
506,-125,4,2,1,50,0,0
4339,-111.111111111111,4,2,1,60,0,0
16505,-111.111111111111,4,2,1,50,0,0
27172,-100,4,2,1,55,0,0
37505,-111.111111111111,4,2,1,60,0,0
37839,-111.111111111111,4,2,1,60,0,0
38505,-111.111111111111,4,2,1,60,0,0
39172,-111.111111111111,4,2,1,60,0,0
40505,-111.111111111111,4,2,1,60,0,0
41172,-111.111111111111,4,2,1,60,0,0
41505,-111.111111111111,4,2,1,60,0,0
41839,-111.111111111111,4,2,1,60,0,0
42339,-111.111111111111,4,2,1,60,0,0
42839,-111.111111111111,4,2,1,60,0,0
43172,-111.111111111111,4,2,1,60,0,0
44505,-111.111111111111,4,2,1,60,0,0
45505,-111.111111111111,4,2,1,60,0,0
45839,-111.111111111111,4,2,1,60,0,0
46839,-111.111111111111,4,2,1,60,0,0
47172,-111.111111111111,4,2,1,60,0,0
47672,-111.111111111111,4,2,1,60,0,0
48172,-111.111111111111,4,2,1,60,0,0
48839,-111.111111111111,4,2,1,30,0,0
53505,-111.111111111111,4,2,1,40,0,0
53672,-111.111111111111,4,2,1,50,0,0
54172,-111.111111111111,4,2,1,40,0,0
54839,-111.111111111111,4,2,1,40,0,0
55172,-100,4,2,1,70,0,1
75172,-111.111111111111,4,2,1,60,0,0
77505,-100,4,2,1,60,0,0
79172,-125,4,2,1,60,0,0
81172,-100,4,2,1,60,0,0
81839,-111.111111111111,4,2,1,60,0,0
86255,-111.111111111111,4,2,1,20,0,0

[Colours]
Combo1 : 91,199,244
Combo2 : 203,235,137
Combo3 : 221,132,213
Combo4 : 255,169,151

[HitObjects]
37,324,506,5,8,0:2:0:0:
99,262,839,1,8,0:2:0:0:
171,311,1172,2,0,L|259:294,1,80,8|8,0:2|0:2,0:2:0:0:
310,232,1839,2,0,L|296:176,1,40,8|0,0:2|3:2,0:0:0:0:
327,158,2172,2,0,L|420:138,1,80,8|8,0:2|0:2,0:2:0:0:
487,173,2839,1,8,0:2:0:0:
504,259,3172,1,8,0:2:0:0:
439,318,3505,1,8,0:2:0:0:
355,288,3839,2,0,L|271:306,1,80,8|8,0:2|0:2,0:0:0:0:
248,345,4339,6,0,P|213:335|155:320,1,89.9999972534181,2|0,1:3|1:2,0:2:0:0:
112,330,4839,1,8,0:2:0:0:
89,238,5172,1,8,0:2:0:0:
89,238,5339,2,0,L|118:135,1,89.9999972534181,6|8,1:2|0:2,0:2:0:0:
94,105,5839,5,4,1:2:0:0:
179,55,6172,2,0,P|221:70|265:79,1,89.9999972534181,10|2,0:2|1:2,0:2:0:0:
298,123,6672,1,2,1:2:0:0:
373,58,7005,1,0,3:2:0:0:
373,58,7172,2,0,B|412:36|412:36|448:62,1,89.9999972534181,2|10,1:2|0:2,0:2:0:0:
488,91,7672,1,2,0:2:0:0:
427,169,8005,2,0,L|435:226,1,44.999998626709,2|8,1:2|0:2,0:2:0:0:
468,249,8339,6,0,P|423:255|379:265,1,89.9999972534181,6|2,1:2|0:2,0:0:0:0:
345,301,8839,2,0,P|308:290|252:284,1,89.9999972534181,10|2,0:2|1:2,0:2:0:0:
217,312,9339,1,2,1:2:0:0:
165,227,9672,1,0,3:2:0:0:
165,227,9839,2,0,P|180:182|192:129,1,89.9999972534181,2|10,1:2|0:2,0:2:0:0:
226,107,10339,1,2,0:2:0:0:
144,50,10672,1,10,0:2:0:0:
48,77,11005,6,0,P|32:121|21:175,1,89.9999972534181,10|0,0:2|1:2,0:2:0:0:
58,197,11505,2,0,B|89:231|89:231|77:273,1,89.9999972534181,14|2,0:2|1:2,0:2:0:0:
47,313,12005,1,2,1:2:0:0:
134,369,12339,1,2,3:2:0:0:
134,369,12505,2,0,P|179:359|233:354,1,89.9999972534181,2|10,1:2|0:2,0:2:0:0:
249,312,13005,2,0,P|293:322|346:328,1,89.9999972534181,2|0,0:2|1:2,0:2:0:0:
378,355,13505,1,8,0:2:0:0:
459,299,13839,6,0,L|470:244,1,44.999998626709,0|2,1:2|1:2,0:0:0:0:
509,228,14172,2,0,L|498:173,1,44.999998626709,8|2,0:2|0:2,0:0:0:0:
500,134,14505,2,0,P|462:143|395:152,1,89.9999972534181,2|8,1:2|0:2,0:2:0:0:
318,116,15172,2,0,P|314:89|308:67,1,44.999998626709,2|10,1:2|0:2,0:0:0:0:
271,40,15505,2,0,P|228:46|175:64,1,89.9999972534181,2|8,0:2|0:2,0:2:0:0:
141,45,16005,1,8,0:3:0:0:
141,45,16172,1,8,0:3:0:0:
79,122,16505,5,4,1:2:0:0:
171,169,16839,1,10,0:2:0:0:
171,169,17005,2,0,P|189:209|196:254,1,89.9999972534181,2|0,0:2|1:2,0:2:0:0:
165,292,17505,1,10,0:2:0:0:
66,299,17839,2,0,P|47:258|41:213,1,89.9999972534181,2|8,1:2|0:2,0:2:0:0:
2,183,18339,2,0,P|21:142|34:96,1,89.9999972534181,2|0,0:2|1:2,0:2:0:0:
102,28,19005,1,2,1:2:0:0:
102,28,19172,6,0,P|142:45|201:58,1,89.9999972534181,2|10,1:2|0:2,0:2:0:0:
268,110,19839,2,0,P|295:105|315:99,1,44.999998626709,2|0,0:2|1:2,0:2:0:0:
358,82,20172,1,10,0:2:0:0:
454,120,20505,1,2,1:2:0:0:
454,120,20672,1,2,0:2:0:0:
445,218,21005,1,2,0:1:0:0:
349,246,21339,2,0,B|316:214|316:214|274:229,1,89.9999972534181,2|2,1:1|1:1,0:2:0:0:
229,250,21839,5,0,1:2:0:0:
159,180,22172,2,0,L|149:129,1,44.999998626709,10|2,0:2|0:2,0:0:0:0:
161,87,22505,2,0,P|116:96|72:102,1,89.9999972534181,2|10,0:2|0:2,0:2:0:0:
9,162,23172,2,0,P|20:206|26:266,1,89.9999972534181,2|10,1:2|0:2,0:2:0:0:
19,299,23672,1,2,0:3:0:0:
98,358,24005,1,2,1:3:0:0:
178,298,24339,1,2,1:3:0:0:
178,298,24505,6,0,P|220:312|265:317,1,89.9999972534181,2|10,1:2|0:2,0:2:0:0:
311,346,25005,1,2,0:2:0:0:
311,346,25172,1,2,0:2:0:0:
386,282,25505,1,10,0:2:0:0:
333,204,25839,1,2,1:2:0:0:
333,204,26005,2,0,P|347:159|355:107,2,89.9999972534181,14|4|8,0:2|0:3|0:3,0:2:0:0:
290,229,26839,1,4,0:3:0:0:
194,174,27172,5,6,1:2:0:0:
111,246,27505,2,0,L|123:307,1,50,10|0,0:2|0:2,0:2:0:0:
93,343,27839,2,0,P|68:346|44:353,2,50,2|2|10,0:2|1:2|0:2,0:0:0:0:
197,384,28505,1,2,1:2:0:0:
197,384,28672,2,0,P|228:376|267:374,1,50,2|8,0:2|0:2,0:2:0:0:
278,330,29005,2,0,B|332:331|326:351|374:353,1,100,2|0,0:2|1:2,0:2:0:0:
475,305,29672,1,2,1:2:0:0:
475,305,29839,5,2,1:2:0:0:
402,222,30172,1,10,0:2:0:0:
485,150,30505,2,0,P|485:123|489:93,1,50,2|0,0:2|1:2,0:2:0:0:
460,51,30839,1,10,0:2:0:0:
357,82,31172,1,2,1:2:0:0:
357,82,31339,2,0,P|332:77|299:73,1,50,2|8,0:2|0:2,0:2:0:0:
276,28,31672,2,0,P|229:39|165:52,1,100,2|2,0:2|1:2,0:2:0:0:
125,33,32172,1,10,0:2:0:0:
58,120,32505,5,2,1:2:0:0:
147,184,32839,1,10,0:2:0:0:
95,280,33172,2,0,P|67:287|39:297,1,50,2|0,0:2|1:2,0:0:0:0:
27,345,33505,1,10,0:2:0:0:
127,384,33839,1,2,1:2:0:0:
204,305,34172,1,10,0:2:0:0:
293,369,34505,2,0,L|351:357,1,50,2|0,0:2|1:2,0:0:0:0:
354,304,34839,2,0,L|423:314,1,50,8|2,0:2|1:2,0:0:0:0:
452,336,35172,6,0,P|458:280|471:233,1,100,2|10,1:2|0:2,0:2:0:0:
425,136,35839,2,0,P|400:129|368:124,1,50,2|0,0:2|1:2,0:0:0:0:
321,130,36172,1,10,0:2:0:0:
242,206,36505,1,2,1:2:0:0:
242,206,36672,2,0,P|232:248|229:313,2,100,14|4|8,0:2|0:3|0:3,0:0:0:0:
209,168,37505,1,8,0:2:0:0:
128,203,37839,5,12,0:2:0:0:
56,134,38172,2,0,L|70:81,1,44.999998626709,2|2,0:2|1:2,0:0:0:0:
80,42,38505,1,14,0:2:0:0:
171,3,38839,1,2,0:2:0:0:
232,80,39172,2,0,P|278:86|324:102,1,89.9999972534181,14|0,0:2|0:2,0:2:0:0:
368,98,39672,2,0,P|358:122|353:153,1,44.999998626709,2|12,1:2|0:2,0:2:0:0:
406,225,40172,1,2,0:2:0:0:
479,160,40505,5,14,0:2:0:0:
512,254,40839,2,0,P|501:278|494:307,1,44.999998626709,2|2,0:2|1:2,0:0:0:0:
511,343,41172,1,14,0:2:0:0:
424,384,41505,1,2,0:1:0:0:
359,308,41839,2,0,B|327:276|327:276|279:297,1,89.9999972534181,14|0,0:2|1:2,0:2:0:0:
251,329,42339,2,0,P|208:314|152:308,1,89.9999972534181,10|0,0:2|1:2,0:2:0:0:
125,338,42839,1,10,0:2:0:0:
59,263,43172,5,12,0:2:0:0:
133,198,43505,2,0,L|142:146,1,44.999998626709,2|2,0:2|1:2,0:0:0:0:
181,125,43839,2,0,L|232:134,2,44.999998626709,14|0|2,0:2|1:2|0:2,0:2:0:0:
151,30,44505,6,0,P|109:26|59:12,1,89.9999972534181,14|0,0:2|0:2,0:2:0:0:
22,41,45005,2,0,L|10:96,1,44.999998626709,2|14,1:2|0:2,0:0:0:0:
78,158,45505,2,0,L|65:212,1,44.999998626709,2|0,0:2|0:0,0:2:0:0:
26,230,45839,5,14,0:2:0:0:
86,308,46172,2,0,L|132:320,1,44.999998626709,2|2,0:2|1:2,0:0:0:0:
172,294,46505,2,0,L|187:235,2,44.999998626709,14|2|2,0:2|1:2|0:1,0:0:0:0:
259,340,47172,2,0,L|281:235,1,89.9999972534181,14|0,0:2|1:2,0:2:0:0:
318,223,47672,2,0,B|361:208|361:208|398:237,1,89.9999972534181,10|0,0:2|1:2,0:2:0:0:
421,278,48172,2,0,B|458:272|458:272|469:278|469:278|517:271,1,89.9999972534181,14|0,0:2|0:2,0:2:0:0:
90,347,55172,5,6,1:2:0:0:
11,270,55505,1,10,0:2:0:0:
87,190,55839,2,0,L|154:204,1,50,2|0,1:2|1:2,0:0:0:0:
176,237,56172,1,12,1:2:0:0:
270,178,56505,1,6,1:2:0:0:
270,178,56672,2,0,L|286:115,1,50,2|8,0:2|0:2,0:2:0:0:
319,88,57005,2,0,B|376:99|356:114|409:129,1,100,2|0,0:2|1:2,0:0:0:0:
457,103,57505,1,12,0:2:0:0:
497,205,57839,6,0,P|482:254|469:312,1,100,6|10,1:2|0:2,0:2:0:0:
492,357,58339,1,2,0:2:0:0:
492,357,58505,1,2,1:2:0:0:
385,384,58839,2,0,L|323:368,1,50,10|2,0:2|1:2,0:0:0:0:
304,327,59172,2,0,P|323:269|335:214,1,100,6|10,1:2|0:2,0:2:0:0:
310,186,59672,1,2,1:2:0:0:
310,186,59839,1,2,0:2:0:0:
210,139,60172,1,10,0:2:0:0:
146,228,60505,5,4,1:2:0:0:
233,295,60839,1,10,0:2:0:0:
153,371,61172,2,0,P|124:374|90:386,1,50,2|0,1:2|1:2,0:0:0:0:
53,357,61505,1,12,0:2:0:0:
12,254,61839,2,0,B|16:204|42:212|43:160,1,100,6|10,1:2|0:2,0:2:0:0:
19,111,62339,2,0,P|64:118|130:127,1,100,2|0,0:2|1:2,0:2:0:0:
161,92,62839,1,12,0:2:0:0:
226,180,63172,6,0,P|220:201|216:233,1,50,6|2,1:2|0:2,0:0:0:0:
168,255,63505,2,0,P|173:276|178:308,1,50,10|2,0:2|0:2,0:0:0:0:
218,341,63839,2,0,P|270:323|324:318,1,100,2|10,1:2|0:2,0:2:0:0:
392,240,64505,2,0,P|424:246|454:257,1,50,2|8,1:2|0:2,0:0:0:0:
494,238,64839,1,2,1:2:0:0:
495,128,65172,1,10,0:2:0:0:
396,80,65505,2,0,P|376:86|341:95,1,50,10|0,0:2|1:2,0:0:0:0:
316,139,65839,5,6,1:2:0:0:
234,65,66172,1,10,0:2:0:0:
138,120,66505,2,0,P|144:145|151:179,1,50,10|2,0:2|1:2,0:0:0:0:
124,218,66839,1,10,0:2:0:0:
205,291,67172,2,0,P|256:284|320:258,1,100,14|8,0:2|0:2,0:2:0:0:
334,312,67672,2,0,B|379:342|379:342|440:336|451:283,1,150,2|8,1:2|0:2,0:0:0:0:
440,237,68339,1,0,1:2:0:0:
440,237,68505,5,14,0:2:0:0:
508,152,68839,1,10,0:2:0:0:
459,53,69172,2,0,P|433:58|398:62,1,50,10|0,0:2|1:2,0:0:0:0:
356,44,69505,1,10,0:2:0:0:
323,149,69839,2,0,P|273:158|224:165,1,100,14|8,0:2|0:2,0:2:0:0:
183,197,70339,2,0,B|103:192|134:145|49:139,1,150,2|8,0:2|0:2,0:0:0:0:
24,190,71005,1,0,1:2:0:0:
24,190,71172,5,12,0:2:0:0:
55,295,71505,1,10,0:2:0:0:
164,305,71839,2,0,P|187:296|220:290,1,50,10|0,0:2|1:2,0:0:0:0:
230,239,72172,1,10,0:2:0:0:
291,148,72505,2,0,L|342:160,1,50,12|2,0:2|0:2,0:0:0:0:
391,138,72839,1,10,0:2:0:0:
478,204,73172,1,10,0:2:0:0:
425,300,73505,1,10,0:2:0:0:
316,318,73839,2,0,B|258:311|280:288|226:278,2,100,14|8|8,0:2|0:2|0:2,0:2:0:0:
335,209,74839,2,0,P|339:183|350:158,1,50,8|2,0:2|1:2,0:0:0:0:
376,120,75172,6,0,P|331:111|290:94,1,89.9999972534181,8|0,1:2|0:2,0:2:0:0:
191,86,75839,2,0,P|202:48|216:12,2,67.4999979400635,2|2|2,0:2|0:2|0:2,0:0:0:0:
153,118,76505,1,8,1:2:0:0:
217,193,76839,1,8,1:2:0:0:
124,226,77172,2,0,P|90:213|47:203,2,67.4999979400635,2|2|2,0:2|0:2|0:2,0:0:0:0:
145,276,77839,1,10,0:2:0:0:
221,354,78172,1,4,0:3:0:0:
314,296,78505,2,0,B|392:291|370:341|452:341,1,150,8|8,0:2|0:2,0:2:0:0:
495,350,79172,6,0,B|438:320|431:259|458:174|483:220|513:155|515:96|467:69,1,320,6|12,1:2|0:2,0:2:0:0:
424,58,80672,1,0,1:2:0:0:
356,111,81005,1,0,1:2:0:0:
356,111,81172,2,0,B|318:117|283:83|283:83|245:71|215:85,1,150,8|4,0:2|0:3,0:0:0:0:
170,117,81839,5,6,1:2:0:0:
86,45,82172,2,0,P|72:94|60:146,1,89.9999972534181,10|2,0:2|1:2,0:2:0:0:
26,165,82672,1,2,1:2:0:0:
63,261,83005,1,2,0:2:0:0:
63,261,83172,2,0,P|110:270|157:290,1,89.9999972534181,2|10,1:2|0:2,0:0:0:0:
176,326,83672,1,2,0:2:0:0:
259,273,84005,2,0,L|271:214,1,44.999998626709,2|10,1:2|0:2,0:0:0:0:
237,196,84339,1,6,1:2:0:0:
237,196,84505,5,10,0:2:0:0:
227,97,84839,1,10,0:2:0:0:
320,65,85172,2,0,B|385:74|363:120|430:135,1,134.999995880127,10|2,0:2|0:0,0:0:0:0:
478,146,85839,2,0,L|464:197,1,44.999998626709,4|2,0:3|0:2,0:2:0:0:
480,236,86172,5,6,1:2:0:0:
256,192,86339,12,0,88505,0:2:0:0:
