osu file format v14

[General]
AudioFilename: audio.mp3
AudioLeadIn: 0
PreviewTime: 55012
Countdown: 0
SampleSet: Soft
StackLeniency: 0.7
Mode: 0
LetterboxInBreaks: 0
WidescreenStoryboard: 1

[Editor]
Bookmarks: 4345,37845,48511,81845,86178
DistanceSpacing: 0.8
BeatDivisor: 4
GridSize: 4
TimelineZoom: 1.3

[Metadata]
Title:STONE OCEAN (TV Size)
TitleUnicode:STONE OCEAN (TV Size)
Artist:ichigo from KISIDA KYODAN & THE AKEBOSI ROCKETS
ArtistUnicode:ichigo from 岸田教団&THE明星ロケッツ
Creator:AirinCat
Version:KUDOSU'S EXPERT
Source:ジョジョの奇妙な冒険 ストーンオーシャン
Tags:kudosu so0p soop kishida kyoudan and the akeboshi jojos JoJo no Kimyou na Bouken JoJo's Bizarre Adventure Part 6: Stone Ocean free six p6 anime opening op rock japanese jrock j-rock pop jpop jolyne kuujou kujo kujou cujoh jotaro joutarou 空条 徐倫 Araki Hirohiko 荒木 飛呂彦 藤林聖子 Shoko Fujibayashi 河田貴央 Kawada Takao 家原正樹 Iehara Masaki david production
BeatmapID:3345967
BeatmapSetID:1639355

[Difficulty]
HPDrainRate:6
CircleSize:4.3
OverallDifficulty:8.5
ApproachRate:9.1
SliderMultiplier:1.6
SliderTickRate:1

[Events]
//Background and Video events
Video,-45,"hey.mp4"
0,0,"jolyneeeeeeeee.jpg",0,0
//Break Periods
//Storyboard Layer 0 (Background)
//Storyboard Layer 1 (Fail)
//Storyboard Layer 2 (Pass)
//Storyboard Layer 3 (Foreground)
//Storyboard Layer 4 (Overlay)
//Storyboard Sound Samples

[TimingPoints]
506,333.333333333333,4,2,1,50,1,0
506,-111.111111111111,4,2,1,50,0,0
4339,-74.0740740740741,4,2,1,60,0,0
5839,-95.2380952380952,4,2,1,60,0,0
16505,-111.111111111111,4,2,1,50,0,0
27172,-111.111111111111,4,2,1,55,0,0
32505,-76.9230769230769,4,2,1,55,0,0
32839,-111.111111111111,4,2,1,55,0,0
33839,-76.9230769230769,4,2,1,55,0,0
34172,-111.111111111111,4,2,1,55,0,0
37505,-111.111111111111,4,2,1,60,0,0
47172,-76.9230769230769,4,2,1,60,0,0
48839,-76.9230769230769,4,2,1,30,0,0
49839,-400,4,2,1,30,0,0
53005,-1000,4,2,1,30,0,0
53505,-1000,4,2,1,40,0,0
53672,-1000,4,2,1,50,0,0
54172,-1000,4,2,1,40,0,0
54339,-100,4,2,1,40,0,0
54505,-28.5714285714286,4,2,1,40,0,0
54839,-172.413793103448,4,2,1,40,0,0
55172,-86.9565217391304,4,2,1,70,0,0
55839,-95.2380952380952,4,2,1,70,0,0
75172,-95.2380952380952,4,2,1,60,0,0
76505,-80,4,2,1,60,0,0
78950,-95.2380952380952,4,2,1,60,0,0
80505,-80,4,2,1,60,0,0
81839,-95.2380952380952,4,2,1,60,0,0
86172,-47.6190476190476,4,2,1,60,0,0
86255,-47.6190476190476,4,2,1,20,0,0

[Colours]
Combo1 : 91,199,244
Combo2 : 203,235,137
Combo3 : 221,132,213
Combo4 : 255,169,151

[HitObjects]
452,367,506,6,8,L|458:398,1,17.9999994506836,10|8,0:0|0:0,0:0:0:0:
452,367,672,1,2,0:0:0:0:
512,317,838,1,8,0:0:0:0:
503,246,1005,1,2,0:1:0:0:
437,204,1172,1,8,0:0:0:0:
379,155,1505,2,8,P|372:136|373:126,1,17.9999994506836
373,138,1672,1,2,0:1:0:0:
396,71,1839,1,8,0:0:0:0:
468,37,2005,5,2,0:1:0:0:
481,41,2089,1,2,0:1:0:0:
494,46,2172,1,10,0:1:0:0:
314,88,2505,5,10,0:1:0:0:
301,83,2588,1,2,0:1:0:0:
288,79,2672,1,2,0:1:0:0:
234,22,2839,1,8,0:0:0:0:
162,53,3005,1,2,0:1:0:0:
13,16,3172,6,8,B|9:9|9:9|13:-4,1,17.9999994506836
13,16,3339,1,2,0:0:0:0:
80,53,3506,1,8,0:0:0:0:
80,53,3589,1,0,3:0:0:0:
90,132,3839,1,8,0:0:0:0:
90,132,4005,1,0,3:0:0:0:
43,194,4172,1,10,2:0:0:0:
0,249,4339,6,0,B|91:245|46:302|146:301,1,162.000000617981,2|0,3:0|0:0,0:0:0:0:
160,377,4672,5,2,3:0:0:0:
174,380,4755,1,0,3:0:0:0:
184,370,4839,1,14,0:0:0:0:
69,185,5005,5,0,3:0:0:0:
59,175,5089,1,0,3:0:0:0:
45,178,5172,1,10,2:0:0:0:
144,308,5339,6,0,P|241:325|364:346,1,216.000000823975,4|12,3:1|0:1,0:0:0:0:
479,272,5755,5,8,0:0:0:0:
484,277,5839,2,0,B|442:271|442:271|419:293|419:293|426:347|361:359,1,167.999994873047,6|8,3:2|0:0,0:0:0:0:
270,195,6339,1,2,0:1:0:0:
342,231,6505,2,0,B|319:197|319:197|276:195,1,83.9999974365235,2|2,3:2|3:1,0:0:0:0:
223,134,6839,2,0,B|205:139|205:139|199:161,2,41.9999987182618,8|2|0,0:0|0:0|3:0,0:0:0:0:
444,26,7172,6,0,P|430:97|410:215,1,167.999994873047,2|8,3:0|0:0,0:0:0:0:
455,23,7672,1,2,0:1:0:0:
348,97,7839,1,0,0:0:0:0:
178,35,8005,2,0,P|219:28|271:15,1,83.9999974365235,2|8,3:3|0:0,0:0:0:0:
416,265,8339,6,0,B|441:233|441:233|416:181,1,83.9999974365235,4|0,3:1|3:0,0:0:0:0:
249,293,8672,1,2,0:0:0:0:
399,366,8839,2,0,P|436:356|492:346,1,83.9999974365235,8|0,0:0|0:0,0:0:0:0:
217,213,9172,1,2,3:0:0:0:
202,213,9255,1,0,3:0:0:0:
195,225,9339,1,0,3:0:0:0:
336,119,9505,2,0,P|373:109|429:99,1,83.9999974365235,8|0,0:0|0:0,0:0:0:0:
202,60,9839,5,0,3:0:0:0:
140,14,10005,1,0,1:0:0:0:
61,24,10172,1,8,0:0:0:0:
24,91,10339,1,2,0:0:0:0:
375,290,10672,6,0,B|365:263|365:263|393:205,1,83.9999974365235,8|0,0:0|0:0,0:0:0:0:
443,378,11005,2,0,P|370:313|303:338,1,167.999994873047,8|0,0:0|0:0,0:0:0:0:
161,210,11505,1,12,0:0:0:0:
91,252,11672,1,2,0:0:0:0:
91,252,11755,1,2,0:0:0:0:
91,252,11839,2,0,P|28:250|1:191,1,125.999996154785,4|0,1:1|0:0,0:0:0:0:
0,199,12172,1,8,0:0:0:0:
208,304,12339,2,0,P|214:341|159:377,1,83.9999974365235,2|0,0:1|3:0,0:0:0:0:
92,131,12672,5,10,2:1:0:0:
282,222,12839,1,8,0:0:0:0:
113,41,13005,2,0,P|69:51|30:58,1,83.9999974365235,10|0,0:1|3:0,0:0:0:0:
336,106,13339,5,2,3:1:0:0:
187,179,13505,1,8,0:0:0:0:
268,336,13672,1,0,1:1:0:0:
417,263,13838,1,2,3:0:0:0:
307,224,14005,5,2,0:0:0:0:
307,224,14089,1,2,0:0:0:0:
307,224,14172,2,0,B|259:235|259:235|243:257|243:257|194:268,1,125.999996154785,8|0,0:0|2:0,0:0:0:0:
345,116,14505,2,0,B|392:127|392:127|408:149|408:149|457:160,1,125.999996154785,2|0,3:1|2:0,0:0:0:0:
457,160,14839,1,8,0:0:0:0:
253,40,15005,1,2,0:1:0:0:
346,5,15172,5,0,3:0:0:0:
157,83,15339,1,8,0:3:0:0:
380,217,15505,5,2,0:1:0:0:
476,260,15672,1,8,0:3:0:0:
280,156,15839,5,8,2:2:0:0:
280,156,16005,1,4,3:1:0:0:
512,176,16172,5,8,2:2:0:0:
342,302,16339,1,4,3:1:0:0:
427,339,16505,6,0,P|348:337|312:393,1,143.999995605469,4|10,3:2|0:0,0:0:0:0:
166,269,17005,1,2,0:0:0:0:
166,269,17172,2,0,P|195:276|259:288,1,71.9999978027344,0|2,0:0|3:3,0:0:0:0:
309,212,17505,2,0,P|298:157|265:143,1,71.9999978027344,8|0,0:0|0:0,0:0:0:0:
105,210,17839,6,8,P|120:275|138:366,1,143.999995605469,2|10,3:0|0:0,0:0:0:0:
30,243,18339,1,2,0:0:0:0:
30,243,18422,1,2,0:0:0:0:
30,243,18505,2,0,B|7:213|7:213|26:184,1,71.9999978027344,2|2,0:0|3:0,0:0:0:0:
159,94,18839,2,0,B|181:123|181:123|162:152,1,71.9999978027344,8|0,0:0|3:0,0:0:0:0:
61,77,19172,5,2,3:2:0:0:
61,77,19505,1,8,0:0:0:0:
98,10,19672,1,2,0:3:0:0:
177,0,19839,1,2,2:2:0:0:
239,46,20005,1,0,1:0:0:0:
306,90,20172,2,0,P|339:84|399:70,1,71.9999978027344,8|0,0:0|0:0,0:0:0:0:
504,231,20505,6,0,P|459:178|390:185,1,143.999995605469,2|8,3:2|0:0,0:0:0:0:
506,307,21005,1,2,3:1:0:0:
512,384,21339,1,2,3:3:0:0:
512,384,21505,1,8,0:0:0:0:
285,258,21672,1,2,3:3:0:0:
365,277,21839,6,0,B|308:289|308:289|289:315|289:315|232:328,1,143.999995605469,0|10,3:0|2:0,0:0:0:0:
126,249,22339,1,2,0:0:0:0:
53,285,22505,2,0,L|37:371,1,71.9999978027344,2|2,0:0|3:3,0:0:0:0:
125,238,22839,2,0,P|118:198|112:167,1,71.9999978027344,8|0,0:0|0:0,0:0:0:0:
207,49,23172,6,0,P|289:68|276:135,1,143.999995605469,2|10,3:2|0:0,0:0:0:0:
100,61,23672,2,0,P|103:18|142:-5,1,71.9999978027344,2|0,0:1|0:1,0:1:0:0:
296,124,24005,2,0,P|293:167|254:190,1,71.9999978027344,2|8,3:1|0:2,0:1:0:0:
290,114,24339,1,2,3:3:0:0:
384,62,24505,6,0,B|473:58|429:113|526:112,1,143.999995605469,2|8,3:2|0:0,0:0:0:0:
309,11,25172,2,0,B|219:7|263:62|166:61,1,143.999995605469,2|8,3:2|0:0,0:0:0:0:
317,14,25672,1,0,0:0:0:0:
417,163,25839,5,4,0:3:0:0:
288,214,26005,2,0,B|264:187|264:187|282:132,1,71.9999978027344,14|0,0:0|0:0,0:0:0:0:
478,270,26339,2,0,P|470:307|464:348,1,71.9999978027344,8|8,0:3|0:0,0:0:0:0:
366,281,26672,1,8,0:3:0:0:
366,281,26839,1,8,0:3:0:0:
221,327,27005,5,8,0:3:0:0:
221,327,27089,1,8,0:3:0:0:
221,327,27172,2,0,P|142:325|106:381,1,143.999995605469,4|10,3:2|0:0,0:0:0:0:
107,382,27672,1,2,0:0:0:0:
47,332,27838,1,0,3:0:0:0:
56,261,28005,1,2,3:1:0:0:
122,219,28172,1,8,0:0:0:0:
186,177,28339,5,2,0:0:0:0:
186,177,28422,1,2,0:0:0:0:
186,177,28505,2,0,B|186:142|186:142|157:120,1,71.9999978027344,0|0,3:0|0:0,0:0:0:0:
48,256,28839,1,8,0:0:0:0:
214,331,29005,2,0,P|287:319|372:305,1,143.999995605469,2|0,0:0|3:0,0:0:0:0:
478,328,29505,2,0,B|482:362|482:362|452:384,1,71.9999978027344,8|0,0:0|3:0,0:0:0:0:
277,238,29839,6,0,B|268:169|268:169|329:125,1,143.999995605469,2|10,3:2|0:0,0:0:0:0:
445,60,30339,1,2,0:3:0:0:
512,106,30505,2,0,P|505:137|495:200,1,71.9999978027344,2|0,2:0|3:0,2:0:0:0:
328,38,30839,2,0,B|283:47|283:47|268:67|268:67|223:78,1,107.999996704102,8|0,2:0|2:0,0:0:0:0:
223,69,31172,5,2,3:2:0:0:
103,61,31339,2,0,B|101:24|101:24|138:-6,1,71.9999978027344,2|8,0:0|0:0,0:0:0:0:
240,176,31672,2,0,P|228:249|214:334,1,143.999995605469,2|2,0:0|3:3,0:0:0:0:
135,331,32172,6,2,B|129:322|129:322|133:316,6,17.9999994506836,10|2|2|2|2|2|2,0:0|0:0|0:0|0:0|0:0|0:0|0:0,0:0:0:0:
268,384,32505,6,0,B|357:388|313:333|410:334,1,155.999992858887,2|0,3:2|0:0,0:0:0:0:
464,282,32839,2,0,B|492:304|492:304|486:338,1,71.9999978027344,10|0,0:1|0:0,0:0:0:0:
313,249,33172,2,0,P|324:184|333:130,1,107.999996704102,10|0,0:1|0:0,0:0:0:0:
273,82,33505,2,0,B|243:104|243:104|249:140,1,71.9999978027344,10|0,0:2|0:0,0:0:0:0:
476,91,33839,6,0,P|403:86|363:19,1,155.999992858887,0|0,3:0|0:0,0:0:0:0:
371,7,34172,2,0,P|395:56|373:87,1,71.9999978027344,10|0,0:1|0:0,0:0:0:0:
239,162,34505,2,0,P|168:146|98:132,1,143.999995605469,10|8,0:1|0:1,0:1:0:0:
6,181,35005,1,2,3:2:0:0:
120,261,35172,6,0,P|194:267|225:337,1,143.999995605469,2|10,3:2|0:0,0:0:0:0:
70,379,35672,1,2,0:0:0:0:
70,379,35755,1,2,0:0:0:0:
70,379,35839,2,0,B|32:378|32:378|12:350,1,71.9999978027344,2|0,3:2|3:0,0:0:0:0:
229,329,36172,2,0,P|264:334|299:342,1,71.9999978027344,10|0,2:2|0:0,0:0:0:0:
420,209,36505,5,2,3:2:0:0:
504,242,36672,2,0,P|430:248|399:318,1,143.999995605469,14|8,2:2|0:3,0:0:0:0:
266,158,37172,1,4,1:1:0:0:
373,112,37339,1,8,0:3:0:0:
286,242,37505,2,0,P|250:235|207:228,1,71.9999978027344,0|8,3:0|2:3,2:0:0:0:
0,175,37839,6,0,B|55:161|55:161|74:136|74:136|129:125,1,143.999995605469,12|2,2:0|2:0,0:0:0:0:
290,236,38339,1,2,3:2:0:0:
447,185,38505,2,0,P|431:255|420:326,1,143.999995605469,12|2,0:0|0:0,0:0:0:0:
212,236,39172,5,14,0:0:0:0:
113,305,39339,2,0,B|92:333|92:333|115:383,1,71.9999978027344,0|0,3:0|0:0,0:0:0:0:
198,134,39672,5,2,3:2:0:0:
297,203,39839,2,0,B|318:231|318:231|295:281,1,71.9999978027344,14|0,2:2|3:0,0:0:0:0:
101,135,40172,2,0,B|85:101|85:101|106:73,1,71.9999978027344,4|0,2:1|0:0,0:0:0:0:
205,136,40422,5,2,3:0:0:0:
205,136,40505,2,0,B|294:140|250:85|347:86,1,143.999995605469,14|2,2:2|0:0,0:0:0:0:
343,81,41005,1,2,3:2:0:0:
403,131,41171,1,8,2:2:0:0:
394,202,41338,1,2,3:1:0:0:
328,244,41505,1,8,0:0:0:0:
511,323,41672,5,0,3:0:0:0:
511,323,41755,1,0,3:0:0:0:
511,323,41839,2,0,P|437:329|406:399,1,143.999995605469,14|0,2:2|3:2,0:0:0:0:
252,249,42339,2,0,P|279:243|322:234,1,71.9999978027344,14|0,0:0|0:0,0:0:0:0:
198,329,42672,1,0,3:0:0:0:
105,274,42839,2,0,P|31:268|0:198,1,143.999995605469,14|14,2:2|2:2,0:0:0:0:
171,143,43505,6,0,P|220:152|304:166,1,107.999996704102,2|0,0:0|0:0,0:0:0:0:
283,169,43839,1,8,0:0:0:0:
404,61,44005,1,2,3:2:0:0:
283,5,44172,1,2,0:0:0:0:
412,216,44339,1,4,3:1:0:0:
319,271,44505,6,0,P|245:277|214:347,1,143.999995605469,14|0,2:2|2:2,0:0:0:0:
315,160,45005,1,2,3:2:0:0:
496,210,45172,2,0,B|497:174|497:174|468:154,1,71.9999978027344,12|0,0:0|3:0,0:0:0:0:
426,314,45505,2,0,P|432:344|440:391,1,71.9999978027344,2|0,0:0|3:0,0:0:0:0:
227,341,45839,5,12,0:0:0:0:
150,314,46005,1,2,3:2:0:0:
312,368,46172,5,4,1:1:0:0:
383,307,46339,1,2,3:2:0:0:
480,329,46505,1,14,0:0:0:0:
291,233,46672,1,2,1:0:0:0:
97,381,46839,1,4,0:3:0:0:
155,319,47005,1,2,3:3:0:0:
63,170,47172,6,0,P|51:234|33:335,1,155.999992858887,14|0,0:0|0:0,0:0:0:0:
35,323,47505,1,0,3:0:0:0:
303,226,47672,2,0,P|289:303|276:380,1,155.999992858887,14|0,0:0|0:0,0:0:0:0:
276,380,48005,1,0,3:0:0:0:
188,133,48172,5,12,0:0:0:0:
111,112,48339,1,4,0:1:0:0:
70,179,48505,1,0,0:0:0:0:
458,330,49839,6,0,L|451:369,2,40,2|0|8,2:2|3:0|2:0,2:0:0:0:
453,325,51172,1,0,3:2:0:0:
392,286,51339,1,2,2:1:0:0:
326,314,51506,1,2,2:3:0:0:
310,384,51672,1,0,2:2:0:0:
310,384,51839,1,8,0:0:0:0:
38,191,52172,1,2,0:0:0:0:
298,87,52505,1,2,0:0:0:0:
217,44,53005,6,2,B|201:55|201:55|207:74,1,40,0|0,0:0|0:0,0:1:0:0:
207,74,54005,1,2,0:3:0:0:
388,139,54255,5,2,0:1:0:0:
388,139,54339,2,0,L|378:194,1,40,2|0,0:1|0:0,0:0:0:0:
459,104,54505,6,0,L|444:9,6,70.000000667572,2|2|2|2|2|2|2,0:1|0:0|0:0|0:0|0:0|0:0|0:0,0:0:0:0:
309,204,54839,6,0,L|319:273,1,69.6000021240235,2|2,0:1|0:0,0:0:0:0:
416,308,55172,6,0,B|373:289|373:289|343:306|343:306|335:365|264:359,1,184.000003509522,6|8,3:2|0:0,0:0:0:0:
144,243,55672,1,0,0:0:0:0:
57,286,55839,2,0,P|66:321|78:387,1,83.9999974365235,2|0,3:2|3:0,0:0:0:0:
231,199,56172,2,2,P|215:124|199:50,1,125.999996154785,8|0,0:0|0:0,0:1:0:0:
271,28,56505,6,0,B|286:41|286:41|284:83,2,41.9999987182618,0|0|0,3:0|3:0|3:0,0:0:0:0:
150,238,56839,2,0,B|135:225|135:225|137:183,1,41.9999987182618,8|0,2:0|2:0,0:0:0:0:
234,203,57005,2,0,B|325:214|281:264|391:275,1,167.999994873047,2|0,0:0|3:0,0:0:0:0:
125,113,57505,2,0,P|76:126|53:175,1,83.9999974365235,8|0,0:0|3:0,0:0:0:0:
233,208,57839,6,0,B|282:197|282:197|298:175|298:175|346:164,1,125.999996154785,2|0,3:2|2:0,0:0:0:0:
345,164,58173,1,8,2:0:0:0:
467,57,58339,1,2,0:0:0:0:
346,1,58506,1,2,0:0:0:0:
475,212,58673,1,4,3:1:0:0:
288,95,58839,2,0,P|248:103|206:112,1,83.9999974365235,10|0,0:0|3:0,0:0:0:0:
104,74,59172,5,2,3:2:0:0:
252,183,59339,1,2,3:2:0:0:
77,269,59505,2,0,B|52:234|52:234|73:197,1,83.9999974365235,8|0,0:0|0:0,0:0:0:0:
284,261,59839,2,0,B|314:314|314:314|276:366,1,125.999996154785,8|0,0:0|0:0,0:0:0:0:
166,380,60172,2,0,P|171:331|179:284,1,83.9999974365235,10|0,0:0|3:0,0:0:0:0:
351,325,60505,5,0,3:0:0:0:
412,269,60672,1,2,0:0:0:0:
489,303,60839,1,8,0:0:0:0:
430,367,61005,1,0,0:0:0:0:
207,187,61172,2,0,B|137:195|171:233|87:241,1,125.999996154785,2|0,3:0|3:2,0:0:0:0:
90,231,61505,2,8,B|65:196|65:196|92:142,1,83.9999974365235,10|0,0:0|3:0,0:0:0:0:
52,5,61839,6,0,P|101:67|180:55,1,167.999994873047,0|8,3:0|0:0,0:0:0:0:
299,159,62339,1,2,0:0:0:0:
382,108,62505,2,0,P|421:58|482:68,1,125.999996154785,0|0,3:0|0:0,0:0:0:0:
479,75,62839,2,0,P|432:56|426:5,1,83.9999974365235,8|0,0:0|3:0,0:0:0:0:
511,214,63172,6,0,P|501:260|492:316,1,83.9999974365235,0|2,3:0|0:0,0:0:0:0:
301,167,63505,1,8,0:0:0:0:
392,112,63672,1,0,0:0:0:0:
333,270,63839,2,0,B|284:259|284:259|268:237|268:237|220:226,1,125.999996154785,2|0,3:2|2:0,0:0:0:0:
213,233,64172,1,8,0:0:0:0:
120,168,64339,1,0,3:0:0:0:
80,271,64505,5,2,3:2:0:0:
237,123,64672,1,8,0:0:0:0:
39,55,64839,1,2,0:0:0:0:
114,160,65005,1,2,3:2:0:0:
245,24,65172,6,0,B|336:35|292:85|402:96,1,167.999994873047,12|8,0:0|2:3,0:0:0:0:
466,47,65672,1,4,1:1:0:0:
246,127,65839,6,0,B|155:138|199:188|89:199,1,167.999994873047,12|8,0:0|2:3,0:0:0:0:
265,316,66339,1,0,3:0:0:0:
265,316,66422,1,0,3:0:0:0:
265,316,66505,2,0,B|291:284|291:284|266:237,1,83.9999974365235,8|0,0:0|3:0,0:0:0:0:
17,161,66839,2,0,B|-3:198|-3:198|22:230,1,83.9999974365235,8|0,0:0|0:0,0:0:0:0:
256,33,67172,5,8,0:0:0:0:
388,96,67339,1,2,0:0:0:0:
469,41,67505,1,8,0:0:0:0:
246,151,67672,5,4,1:1:0:0:
114,88,67839,1,10,0:0:0:0:
33,143,68005,1,0,1:0:0:0:
209,226,68172,2,0,B|258:215|258:215|274:193|274:193|322:182,1,125.999996154785,10|0,2:2|2:0,0:0:0:0:
386,110,68505,6,0,P|365:195|350:289,1,167.999994873047,8|8,0:0|0:0,0:0:0:0:
167,371,69005,1,2,0:0:0:0:
187,296,69172,2,0,P|154:354|171:377,1,83.9999974365235,10|0,0:0|3:0,0:0:0:0:
320,181,69505,2,0,P|297:128|212:126,1,125.999996154785,10|0,0:0|0:0,0:0:0:0:
163,80,69839,6,0,B|148:95|148:95|162:132,2,41.9999987182618,12|0|0,2:0|3:0|3:0,0:0:0:0:
321,226,70172,2,0,B|336:211|336:211|322:174,1,41.9999987182618,12|0,2:0|2:0,2:0:0:0:
245,193,70339,5,4,1:1:0:0:
102,265,70505,1,8,0:0:0:0:
243,361,70672,1,0,1:0:0:0:
117,182,70839,2,0,B|75:173|75:173|39:215,1,83.9999974365235,8|0,0:0|3:0,0:0:0:0:
250,364,71172,6,0,B|341:353|297:303|407:292,1,167.999994873047,12|8,0:0|2:2,0:0:0:0:
479,344,71672,1,0,0:0:0:0:
327,209,71839,2,0,B|297:234|297:234|313:290,1,83.9999974365235,8|0,0:0|0:0,0:0:0:0:
466,159,72172,2,0,P|459:107|454:65,1,83.9999974365235,8|0,0:0|0:0,0:0:0:0:
333,199,72505,5,8,0:0:0:0:
253,165,72672,1,2,0:1:0:0:
142,334,72839,5,8,0:0:0:0:
222,300,73006,1,2,0:1:0:0:
104,239,73172,5,8,0:0:0:0:
285,383,73339,1,2,0:0:0:0:
48,297,73505,2,0,P|57:234|69:159,1,125.999996154785,8|0,0:0|0:0,0:0:0:0:
104,91,73839,5,8,0:0:0:0:
36,60,74005,1,0,3:0:0:0:
2,129,74172,1,8,0:0:0:0:
233,269,74339,5,0,1:0:0:0:
274,180,74506,1,8,2:0:0:0:
50,303,74672,5,0,1:0:0:0:
84,372,74839,1,8,2:0:0:0:
7,365,75005,1,4,0:1:0:0:
47,343,75172,1,8,0:3:0:0:
380,273,76505,6,0,B|465:278|417:327|511:336,1,150,10|0,2:0|0:0,0:0:0:0:
340,208,76839,2,0,B|254:213|302:262|208:271,1,150,10|0,2:0|0:0,0:0:0:0:
210,270,77172,1,2,0:0:0:0:
168,21,77839,5,8,3:0:0:0:
116,76,78005,1,8,1:0:0:0:
126,155,78172,1,8,0:0:0:0:
193,192,78339,1,10,0:0:0:0:
345,277,78505,5,8,2:2:0:0:
365,307,78616,5,8,2:2:0:0:
358,343,78727,5,8,2:2:0:0:
329,365,78838,5,8,2:2:0:0:
259,365,78950,6,0,P|263:326|286:311,1,55.9999982910157,8|8,0:3|0:3,0:0:0:0:
281,312,79172,5,4,1:1:0:0:
56,154,80505,6,0,L|44:99,1,50,12|0,0:0|0:0,0:0:0:0:
51,98,80672,1,0,3:0:0:0:
152,202,81089,5,0,3:0:0:0:
152,202,81172,1,8,0:3:0:0:
85,239,81339,1,0,3:0:0:0:
75,318,81505,1,0,3:0:0:0:
122,380,81672,1,8,2:3:0:0:
447,363,81839,6,0,P|398:303|293:325,1,167.999994873047,6|8,3:2|0:0,0:0:0:0:
224,166,82339,1,2,0:1:0:0:
152,202,82505,2,0,B|175:168|175:168|218:166,1,83.9999974365235,2|2,3:2|3:1,0:0:0:0:
385,88,82839,1,8,0:0:0:0:
331,31,83005,6,0,P|343:100|356:188,1,125.999996154785,2|0,3:2|0:0,0:1:0:0:
363,161,83339,1,0,0:0:0:0:
448,219,83505,2,0,B|466:202|466:202|458:172,2,41.9999987182618,8|0|0,0:0|3:0|3:0,0:0:0:0:
348,270,83839,1,2,3:0:0:0:
243,322,84005,1,8,0:3:0:0:
390,374,84172,5,8,0:0:0:0:
178,224,84339,1,4,3:1:0:0:
114,283,84505,6,0,B|66:294|66:294|50:316|50:316|1:327,1,125.999996154785,8|0,0:0|2:0,0:0:0:0:
1,326,84839,1,8,0:0:0:0:
154,382,85005,1,2,0:0:0:0:
42,143,85172,5,8,0:0:0:0:
33,152,85283,6,8,L|48:223,1,55.9999982910157
136,106,85505,5,8,2:2:0:0:
156,76,85616,5,8,2:2:0:0:
149,40,85727,5,8,2:2:0:0:
120,18,85839,6,0,P|71:29|18:39,1,83.9999974365235,4|2,3:0|0:1,0:0:0:0:
302,136,86172,6,0,P|351:147|403:157,1,83.9999974365235,4|4,3:2|0:1,0:0:0:0:
