osu file format v14

[General]
AudioFilename: audio.mp3
AudioLeadIn: 0
PreviewTime: 55012
Countdown: 0
SampleSet: Soft
StackLeniency: 0.7
Mode: 0
LetterboxInBreaks: 0
WidescreenStoryboard: 1

[Editor]
Bookmarks: 4345,37845,48511,81845,86178
DistanceSpacing: 0.8
BeatDivisor: 4
GridSize: 8
TimelineZoom: 1.3

[Metadata]
Title:STONE OCEAN (TV Size)
TitleUnicode:STONE OCEAN (TV Size)
Artist:ichigo from KISIDA KYODAN & THE AKEBOSI ROCKETS
ArtistUnicode:ichigo from 岸田教団&THE明星ロケッツ
Creator:AirinCat
Version:INSANE
Source:ジョジョの奇妙な冒険 ストーンオーシャン
Tags:kudosu so0p soop kishida kyoudan and the akeboshi jojos JoJo no Kimyou na Bouken JoJo's Bizarre Adventure Part 6: Stone Ocean free six p6 anime opening op rock japanese jrock j-rock pop jpop jolyne kuujou kujo kujou cujoh jotaro joutarou 空条 徐倫 Araki Hirohiko 荒木 飛呂彦 藤林聖子 Shoko Fujibayashi 河田貴央 Kawada Takao 家原正樹 Iehara Masaki david production
BeatmapID:3345966
BeatmapSetID:1639355

[Difficulty]
HPDrainRate:5
CircleSize:4
OverallDifficulty:7.8
ApproachRate:9
SliderMultiplier:1.6
SliderTickRate:1

[Events]
//Background and Video events
Video,-45,"hey.mp4"
0,0,"jolyneeeeeeeee.jpg",0,0
//Break Periods
2,48705,51905
//Storyboard Layer 0 (Background)
//Storyboard Layer 1 (Fail)
//Storyboard Layer 2 (Pass)
//Storyboard Layer 3 (Foreground)
//Storyboard Layer 4 (Overlay)
//Storyboard Sound Samples

[TimingPoints]
506,333.333333333333,4,2,1,50,1,0
506,-125,4,2,1,50,0,0
4339,-100,4,2,1,60,0,0
16505,-111.111111111111,4,2,1,50,0,0
27172,-100,4,2,1,55,0,0
37505,-111.111111111111,4,2,1,60,0,0
37839,-125,4,2,1,60,0,0
38505,-125,4,2,1,60,0,0
39172,-76.923076923077,4,2,1,60,0,0
40505,-111.111111111111,4,2,1,60,0,0
41172,-111.111111111111,4,2,1,60,0,0
41505,-90.9090909090909,4,2,1,60,0,0
41839,-76.9230769230769,4,2,1,60,0,0
42339,-76.9230769230769,4,2,1,60,0,0
42839,-76.9230769230769,4,2,1,60,0,0
43172,-111.111111111111,4,2,1,60,0,0
44505,-76.9230769230769,4,2,1,60,0,0
45505,-71.4285714285714,4,2,1,60,0,0
45839,-111.111111111111,4,2,1,60,0,0
46839,-90.9090909090909,4,2,1,60,0,0
47172,-76.9230769230769,4,2,1,60,0,0
47672,-76.9230769230769,4,2,1,60,0,0
48172,-76.9230769230769,4,2,1,60,0,0
48839,-125,4,2,1,30,0,0
53505,-125,4,2,1,40,0,0
53672,-125,4,2,1,50,0,0
54172,-125,4,2,1,40,0,0
54839,-166.666666666667,4,2,1,40,0,0
55172,-83.3333333333333,4,2,1,70,0,1
75172,-111.111111111111,4,2,1,60,0,0
77505,-90.9090909090908,4,2,1,60,0,0
79172,-181.818181818182,4,2,1,60,0,0
81839,-100,4,2,1,60,0,0
86255,-100,4,2,1,20,0,0

[Colours]
Combo1 : 91,199,244
Combo2 : 203,235,137
Combo3 : 221,132,213
Combo4 : 255,169,151

[HitObjects]
12,323,506,6,0,P|22:353|30:389,1,64,8|0,0:2|3:2,0:2:0:0:
131,183,839,2,0,P|120:152|112:121,1,64,8|0,0:2|3:2,0:0:0:0:
13,234,1172,2,0,B|71:236|62:278|128:281,1,128,8|8,0:2|0:2,0:2:0:0:
128,281,1672,1,0,3:2:0:0:
241,209,1839,2,0,P|248:175|260:145,1,64,8|0,0:2|3:2,0:0:0:0:
333,286,2172,2,0,B|367:273|394:292|394:292|406:329|437:334,1,128,8|8,0:2|0:2,0:2:0:0:
478,259,2672,1,0,3:2:0:0:
420,200,2839,1,8,0:2:0:0:
420,200,3005,1,0,3:2:0:0:
333,286,3172,6,0,P|301:289|270:298,1,64,8|0,0:2|3:2,0:2:0:0:
151,159,3505,2,0,P|183:154|219:144,1,64,8|0,0:2|1:2,0:0:0:0:
283,196,3839,1,8,0:2:0:0:
174,314,4005,1,0,1:2:0:0:
174,314,4089,1,0,1:2:0:0:
174,314,4172,1,8,0:2:0:0:
47,251,4339,6,0,P|0:189|25:116,1,160,2|0,1:3|1:2,0:2:0:0:
142,25,4839,2,0,P|182:38|233:51,1,80,8|8,0:2|0:2,0:0:0:0:
218,47,5089,1,8,0:2:0:0:
218,47,5172,1,8,0:2:0:0:
387,170,5339,6,0,P|311:172|280:241,1,160,6|8,1:2|0:2,0:2:0:0:
280,241,5755,1,8,0:2:0:0:
280,241,5839,1,4,1:2:0:0:
512,141,6172,6,0,P|497:82|483:24,1,120,10|0,0:2|0:2,0:2:0:0:
483,24,6505,1,2,1:2:0:0:
386,151,6672,2,0,P|347:159|308:171,1,80,2|8,1:2|0:2,0:2:0:0:
142,82,7005,5,0,3:2:0:0:
197,10,7172,2,0,B|247:42|247:42|229:99,1,120,2|0,1:2|0:2,0:2:0:0:
229,99,7505,1,10,0:2:0:0:
77,169,7672,2,0,L|48:85,1,80,2|0,0:2|1:2,0:2:0:0:
228,193,8005,2,0,L|208:272,1,80,2|8,1:2|0:2,0:2:0:0:
29,273,8339,5,6,1:2:0:0:
87,379,8505,1,0,1:2:0:0:
87,379,8672,1,2,0:2:0:0:
208,269,8839,2,0,P|266:262|307:310,1,120,10|0,0:2|0:2,0:2:0:0:
305,304,9172,1,2,1:2:0:0:
192,160,9339,2,0,P|200:115|208:80,1,80,2|8,1:2|0:2,0:2:0:0:
435,34,9672,5,0,3:2:0:0:
434,117,9839,2,0,B|368:108|399:78|329:65,1,120,2|0,1:2|0:2,0:2:0:0:
329,65,10172,1,10,0:2:0:0:
428,229,10339,2,0,P|463:213|506:202,1,80,2|0,0:2|1:2,0:2:0:0:
227,117,10672,5,10,0:2:0:0:
227,117,11005,2,0,P|241:202|257:274,1,160,10|0,0:2|1:2,0:2:0:0:
73,384,11505,2,0,P|101:333|159:330,1,120,14|0,0:2|0:2,0:2:0:0:
157,329,11839,1,2,1:2:0:0:
18,262,12005,2,0,P|11:219|0:175,1,80,2|8,1:2|0:2,0:2:0:0:
171,95,12339,1,2,3:2:0:0:
171,95,12422,1,2,3:2:0:0:
171,95,12505,2,0,P|161:133|155:173,1,80,2|0,1:2|0:2,0:2:0:0:
31,56,12839,5,10,0:2:0:0:
183,0,13005,2,0,B|267:20|228:63|314:83,1,160,2|0,0:2|1:2,0:2:0:0:
466,22,13505,1,8,0:2:0:0:
466,22,13672,1,0,1:2:0:0:
357,11,13839,5,0,1:2:0:0:
459,102,14005,1,2,1:2:0:0:
341,185,14172,1,8,0:2:0:0:
460,311,14339,1,2,0:2:0:0:
502,226,14505,2,0,P|425:217|370:282,1,160,2|8,1:2|0:2,0:2:0:0:
257,225,15005,1,2,1:2:0:0:
301,381,15172,5,2,1:2:0:0:
372,273,15339,1,10,0:2:0:0:
195,342,15505,2,0,L|118:320,1,80,2|4,0:2|0:3,0:2:0:0:
53,160,15839,1,8,0:2:0:0:
53,160,16005,1,8,0:3:0:0:
160,228,16172,1,8,0:3:0:0:
160,228,16255,1,4,0:3:0:0:
160,228,16339,1,8,0:3:0:0:
160,228,16422,1,4,0:3:0:0:
160,228,16505,2,0,P|176:168|197:113,1,107.999996704102,4|0,1:2|0:2,0:2:0:0:
191,124,16839,5,10,0:2:0:0:
134,32,17005,2,0,P|183:80|252:69,1,143.999995605469,2|0,0:2|1:2,0:2:0:0:
324,1,17505,2,0,P|361:11|413:21,1,71.9999978027344,10|0,0:2|0:2,0:2:0:0:
511,106,17839,6,0,P|440:118|370:136,1,143.999995605469,2|8,1:2|0:2,0:2:0:0:
297,209,18339,2,0,P|297:277|359:304,1,143.999995605469,2|0,0:2|1:2,0:2:0:0:
390,222,18839,1,8,0:2:0:0:
390,222,19005,1,2,1:2:0:0:
262,358,19172,6,0,L|174:380,1,71.9999978027344,2|0,1:2|0:2,0:2:0:0:
69,284,19505,1,10,0:2:0:0:
69,284,19839,2,0,L|157:262,1,71.9999978027344,2|0,0:2|1:2,0:2:0:0:
206,166,20172,2,0,L|186:81,1,71.9999978027344,10|0,0:2|3:2,0:0:0:0:
189,95,20422,1,0,3:2:0:0:
189,95,20505,5,2,1:2:0:0:
60,69,20672,2,0,P|70:104|83:158,1,71.9999978027344,2|8,0:2|0:2,0:2:0:0:
299,74,21005,1,2,0:1:0:0:
299,74,21339,2,0,P|288:38|276:-15,1,71.9999978027344,2|8,1:1|0:2,0:2:0:0:
420,90,21672,1,2,1:1:0:0:
268,210,21839,5,0,1:2:0:0:
268,210,22172,1,10,0:2:0:0:
343,157,22339,1,2,0:2:0:0:
406,279,22505,2,0,P|443:286|494:302,1,71.9999978027344,2|0,0:2|1:2,0:2:0:0:
512,182,22839,2,0,P|474:175|424:159,1,71.9999978027344,10|0,0:2|0:2,0:2:0:0:
290,226,23172,6,0,B|208:238|238:269|164:290,1,143.999995605469,2|10,1:2|0:2,0:2:0:0:
47,207,23672,1,2,0:3:0:0:
47,207,24005,2,0,P|42:169|36:124,1,71.9999978027344,2|8,1:3|0:2,0:2:0:0:
199,20,24339,1,2,1:3:0:0:
229,112,24505,2,0,P|177:122|117:56,1,143.999995605469,2|10,1:2|0:2,0:2:0:0:
267,207,25005,1,2,0:2:0:0:
267,207,25089,1,2,0:2:0:0:
267,207,25172,2,0,L|247:287,1,71.9999978027344,2|0,0:2|1:2,0:2:0:0:
412,323,25505,2,0,L|432:243,1,71.9999978027344,10|0,0:2|0:0,0:2:0:0:
466,63,25839,5,2,1:2:0:0:
365,163,26005,1,14,0:2:0:0:
365,163,26339,1,4,0:3:0:0:
469,169,26505,1,8,0:2:0:0:
375,52,26672,1,8,0:3:0:0:
260,155,26839,1,4,0:3:0:0:
198,85,27005,5,8,0:3:0:0:
198,85,27089,1,8,0:3:0:0:
198,85,27172,2,0,P|210:42|221:0,1,80,6|0,1:2|0:0,0:2:0:0:
355,158,27505,2,0,P|343:201|331:244,1,80,10|0,0:2|0:2,0:2:0:0:
208,338,27839,1,2,0:2:0:0:
208,338,28005,1,2,1:2:0:0:
124,290,28172,2,0,P|162:246|219:251,1,120,10|0,0:2|0:0,0:2:0:0:
219,251,28505,5,2,1:2:0:0:
99,376,28672,2,0,P|62:363|17:353,1,80,2|8,0:2|0:2,0:2:0:0:
0,194,29005,2,0,P|73:213|126:157,1,160,2|0,0:2|1:2,0:2:0:0:
41,91,29505,1,8,0:2:0:0:
41,91,29672,1,2,1:2:0:0:
228,106,29839,6,0,P|237:67|252:22,1,80,2|0,1:2|0:2,0:2:0:0:
164,1,30172,2,0,P|154:39|140:85,1,80,10|0,0:2|0:0,0:2:0:0:
283,225,30505,2,0,P|322:233|359:247,1,80,2|0,0:2|1:2,0:2:0:0:
391,165,30839,2,0,P|351:156|314:142,1,80,10|0,0:2|0:0,0:2:0:0:
166,305,31172,5,2,1:2:0:0:
97,236,31339,2,0,P|142:225|191:206,1,80,2|8,0:2|0:2,0:2:0:0:
350,314,31672,2,0,P|274:310|242:378,1,160,2|2,0:2|1:2,0:2:0:0:
427,371,32172,2,0,B|455:340|455:340|442:303,1,80,10|0,0:2|1:2,0:2:0:0:
354,90,32505,6,0,P|344:149|327:218,1,120,2|0,1:2|0:2,0:2:0:0:
330,207,32839,2,0,B|291:220|291:220|261:195,1,80,10|0,0:2|0:2,0:2:0:0:
455,75,33172,2,0,P|445:113|439:153,1,80,2|0,0:2|1:2,0:0:0:0:
232,112,33505,2,0,P|243:73|249:33,1,80,10|0,0:2|1:2,0:2:0:0:
48,210,33839,2,0,P|87:167|145:172,1,120,2|0,1:2|0:2,0:2:0:0:
144,171,34172,2,0,P|133:209|127:249,1,80,10|0,0:2|0:2,0:2:0:0:
288,279,34505,2,0,P|297:240|303:200,1,80,2|0,0:2|1:2,0:0:0:0:
198,330,34839,1,8,0:2:0:0:
198,330,35005,1,2,1:2:0:0:
365,361,35172,6,0,P|411:367|457:380,1,80,2|0,1:2|0:2,0:2:0:0:
484,248,35505,2,0,P|443:240|404:231,1,80,10|0,0:2|0:0,0:2:0:0:
267,100,35839,1,2,0:2:0:0:
267,100,36005,1,0,1:2:0:0:
374,63,36172,2,0,P|364:105|355:153,1,80,10|0,0:2|0:2,0:2:0:0:
247,284,36505,5,2,1:2:0:0:
140,155,36672,1,14,0:2:0:0:
140,155,37005,1,4,0:3:0:0:
217,203,37172,1,8,0:2:0:0:
171,309,37339,1,8,0:3:0:0:
283,373,37505,2,0,P|317:365|353:359,1,71.9999978027344,8|4,0:2|0:3,0:2:0:0:
128,239,37839,6,0,P|66:252|5:270,1,128,12|2,0:2|0:2,0:2:0:0:
87,148,38339,1,2,1:2:0:0:
13,117,38505,2,0,L|-3:37,1,64,14|0,0:2|1:2,0:0:0:0:
141,18,38839,2,0,L|153:80,1,64,2|0,0:2|1:2,0:2:0:0:
250,209,39172,6,0,P|343:180|353:82,1,207.999990478516,14|0,0:2|0:2,0:2:0:0:
286,10,39672,2,0,P|256:51|270:99,2,103.999995239258,2|12|0,1:2|0:2|1:2,0:2:0:0:
458,48,40172,2,0,P|471:96|442:137,1,103.999995239258,2|0,0:2|1:2,0:2:0:0:
383,183,40422,5,0,1:2:0:0:
384,194,40505,2,0,P|452:182|491:243,1,143.999995605469,14|2,0:2|0:2,0:2:0:0:
361,338,41005,1,2,1:2:0:0:
286,306,41172,2,0,L|272:234,1,71.9999978027344,14|0,0:2|1:2,0:2:0:0:
215,125,41505,2,2,B|243:91|243:91|284:106,1,88.000002685547,2|0,0:1|1:2,0:1:0:0:
164,246,41839,6,0,P|116:188|42:198,1,155.999992858887,14|0,0:2|0:2,0:2:0:0:
42,197,42172,1,0,1:2:0:0:
0,384,42339,2,0,P|45:324|119:333,1,155.999992858887,10|0,0:2|0:2,0:2:0:0:
118,332,42672,1,0,1:2:0:0:
249,248,42839,2,0,B|259:207|235:167|216:189|190:151|200:106,1,155.999992858887,10|0,0:2|0:2,0:2:0:0:
199,108,43172,6,0,P|237:117|274:122,1,71.9999978027344,12|0,0:2|1:2,0:2:0:0:
404,214,43505,1,2,0:2:0:0:
404,214,43672,1,2,1:2:0:0:
473,154,43839,2,0,L|487:66,1,71.9999978027344,14|0,0:2|1:2,0:2:0:0:
369,62,44172,2,0,L|357:133,1,71.9999978027344,2|0,0:2|1:2,0:2:0:0:
399,314,44505,6,0,P|448:320|485:285,2,103.999995239258,14|0|0,0:2|1:2|0:2,0:2:0:0:
273,195,45005,1,2,1:2:0:0:
273,195,45089,1,0,1:2:0:0:
273,195,45172,2,0,P|223:188|186:223,1,103.999995239258,14|0,0:2|1:2,0:2:0:0:
299,339,45505,2,0,B|304:247|349:281|366:189,1,167.999994873047,2|0,0:2|0:2,0:2:0:0:
365,189,45839,6,0,P|409:200|446:209,1,71.9999978027344,14|0,0:2|1:2,0:2:0:0:
332,38,46172,1,2,0:2:0:0:
332,38,46339,1,2,1:2:0:0:
249,75,46505,2,0,L|231:144,1,71.9999978027344,14|2,0:2|1:2,0:0:0:0:
132,314,46839,2,0,B|98:286|98:286|117:246,1,88.000002685547,2|0,0:1|1:2,0:2:0:0:
312,266,47172,6,0,B|393:266|376:305|453:323,1,155.999992858887,14|0,0:2|0:2,0:2:0:0:
453,322,47505,1,0,1:2:0:0:
277,173,47672,2,0,P|295:94|304:19,1,155.999992858887,10|0,0:2|0:2,0:2:0:0:
304,19,48005,1,0,1:2:0:0:
166,209,48172,2,0,P|69:186|8:264,1,207.999990478516,14|0,0:2|0:2,0:2:0:0:
256,192,52505,12,0,53839,0:0:0:0:
136,98,54172,6,0,L|144:134,3,32,2|0|0|0,3:2|3:2|3:2|3:2,0:0:0:0:
222,186,54505,2,0,L|215:225,1,32,2|0,3:2|3:2,0:2:0:0:
122,263,54672,2,0,L|137:314,1,32,2|0,3:2|3:2,0:2:0:0:
221,384,54839,2,0,L|242:315,1,71.9999978027344,2|0,0:2|0:2,0:2:0:0:
335,264,55172,6,0,B|413:270|388:317|460:325,1,143.999995605469,6|0,1:2|0:2,0:2:0:0:
460,325,55505,2,0,P|475:280|487:228,1,95.9999970703126,10|0,0:2|0:2,0:2:0:0:
353,43,55839,1,2,1:2:0:0:
353,43,56005,1,0,1:2:0:0:
318,166,56172,2,0,P|363:154|411:147,1,95.9999970703126,12|0,1:2|0:2,0:2:0:0:
229,41,56505,5,6,1:2:0:0:
172,165,56672,2,0,P|179:203|191:265,1,95.9999970703126,2|8,0:2|0:2,0:2:0:0:
17,288,57005,2,0,P|9:240|0:193,1,95.9999970703126,2|0,0:2|1:2,0:0:0:0:
148,33,57339,1,0,1:2:0:0:
34,5,57505,2,0,P|46:45|57:104,1,95.9999970703126,12|2,0:2|1:2,0:2:0:0:
264,175,57839,6,0,B|335:161|314:111|385:95,1,143.999995605469,6|0,1:2|0:2,0:2:0:0:
380,96,58172,2,0,P|318:85|279:74,1,95.9999970703126,10|2,0:2|0:2,0:0:0:0:
230,275,58505,2,0,P|291:285|331:297,1,95.9999970703126,2|2,1:2|1:2,0:0:0:0:
483,166,58839,5,10,0:2:0:0:
355,191,59005,1,2,1:2:0:0:
433,358,59172,2,0,P|445:308|464:263,1,95.9999970703126,6|0,1:2|0:2,0:2:0:0:
243,175,59505,1,10,0:2:0:0:
323,294,59672,1,2,1:2:0:0:
243,175,59839,2,0,B|157:184|194:225|117:237,1,143.999995605469,2|0,0:2|0:2,0:2:0:0:
117,236,60172,2,0,P|100:188|95:143,1,95.9999970703126,10|0,0:2|1:2,0:2:0:0:
348,80,60505,5,4,1:2:0:0:
348,80,60839,2,0,P|365:128|370:173,1,95.9999970703126,10|0,0:2|0:2,0:2:0:0:
266,350,61172,1,2,1:2:0:0:
266,350,61339,1,0,1:2:0:0:
358,355,61505,2,0,P|348:286|287:252,1,143.999995605469,12|0,0:2|0:2,0:2:0:0:
284,169,61839,6,0,P|248:252|157:253,1,191.999994140625,6|10,1:2|0:2,0:2:0:0:
3,159,62339,1,2,0:2:0:0:
84,72,62505,2,0,P|91:116|106:171,1,95.9999970703126,0|0,1:2|1:2,0:0:0:0:
26,341,62839,2,0,P|14:284|-7:236,1,95.9999970703126,12|2,0:2|1:2,0:2:0:0:
213,179,63172,5,6,1:2:0:0:
103,260,63339,1,2,0:2:0:0:
289,353,63505,2,0,P|294:305|306:259,1,95.9999970703126,10|2,0:2|0:2,0:0:0:0:
385,200,63839,2,0,P|430:213|478:220,1,95.9999970703126,2|0,1:2|1:2,0:2:0:0:
217,304,64172,2,0,P|172:251|104:260,1,143.999995605469,10|0,0:2|0:2,0:2:0:0:
103,260,64505,6,0,P|98:210|80:149,1,95.9999970703126,2|8,1:2|0:2,0:0:0:0:
223,22,64839,1,2,1:2:0:0:
355,122,65005,1,0,1:2:0:0:
355,122,65089,1,0,1:2:0:0:
355,122,65172,2,0,P|407:106|461:101,1,95.9999970703126,10|0,0:2|1:2,0:2:0:0:
331,13,65505,1,10,0:2:0:0:
231,153,65672,5,0,1:2:0:0:
231,153,65755,1,0,1:2:0:0:
231,153,65839,2,0,P|291:190|286:260,1,143.999995605469,6|0,1:2|0:2,0:2:0:0:
287,256,66172,1,10,0:2:0:0:
387,370,66339,1,0,1:2:0:0:
387,370,66422,1,0,1:2:0:0:
387,370,66505,2,0,P|397:320|415:270,1,95.9999970703126,10|2,0:2|1:2,0:0:0:0:
194,241,66839,2,0,P|184:288|169:333,1,95.9999970703126,10|0,0:2|0:0,0:2:0:0:
405,163,67172,6,0,P|315:176|265:99,1,191.999994140625,14|8,0:2|0:2,0:2:0:0:
54,26,67672,2,0,P|101:16|145:0,1,95.9999970703126,2|8,1:2|0:2,0:0:0:0:
143,192,68005,1,0,1:2:0:0:
143,192,68089,1,0,1:2:0:0:
143,192,68172,2,0,P|98:175|51:165,1,95.9999970703126,8|0,0:2|1:2,0:0:0:0:
208,384,68505,6,0,P|264:342|265:273,1,143.999995605469,14|0,0:2|0:0,0:0:0:0:
264,272,68839,2,0,P|309:256|356:249,1,95.9999970703126,10|0,0:2|0:2,0:2:0:0:
507,166,69172,1,10,0:2:0:0:
460,315,69339,1,0,1:2:0:0:
362,163,69505,1,10,0:2:0:0:
455,85,69672,5,0,1:2:0:0:
455,85,69755,1,0,1:2:0:0:
455,85,69839,2,0,P|381:140|294:111,1,191.999994140625,14|8,0:2|0:2,0:2:0:0:
95,123,70339,2,0,P|114:70|125:19,1,95.9999970703126,2|8,0:2|0:2,0:0:0:0:
210,183,70672,1,0,1:2:0:0:
93,245,70839,1,8,0:2:0:0:
224,348,71005,1,0,1:2:0:0:
224,348,71089,1,0,1:2:0:0:
224,348,71172,2,0,B|302:343|274:295|349:288,1,143.999995605469,12|0,0:2|0:2,0:2:0:0:
349,287,71505,6,0,P|342:239|326:192,1,95.9999970703126,10|0,0:2|0:2,0:2:0:0:
436,11,71839,1,10,0:2:0:0:
497,107,72005,1,0,1:2:0:0:
497,107,72089,1,0,1:2:0:0:
497,107,72172,2,0,P|431:130|372:93,1,143.999995605469,10|0,0:2|1:2,0:0:0:0:
372,93,72505,6,0,P|322:104|266:112,1,95.9999970703126,12|2,0:2|0:2,0:0:0:0:
316,302,72839,2,0,P|365:286|412:281,1,95.9999970703126,10|0,0:2|0:2,0:2:0:0:
215,195,73172,1,10,0:2:0:0:
215,195,73339,1,0,1:2:0:0:
115,360,73505,1,10,0:2:0:0:
63,284,73672,1,0,1:2:0:0:
63,284,73755,1,0,1:2:0:0:
63,284,73839,6,0,P|152:269|202:346,1,191.999994140625,14|8,0:2|0:2,0:2:0:0:
28,184,74339,1,2,0:2:0:0:
28,184,74505,2,0,P|40:133|50:84,1,95.9999970703126,8|0,0:2|1:2,0:2:0:0:
261,33,74839,1,8,0:2:0:0:
170,128,75005,1,2,1:2:0:0:
133,37,75172,6,0,B|205:64|170:92|247:120,1,143.999995605469,8|0,1:2|0:2,0:2:0:0:
246,120,75839,1,2,0:2:0:0:
358,6,76089,1,2,0:2:0:0:
246,120,76339,1,2,0:2:0:0:
349,184,76505,6,0,P|354:148|362:113,1,71.9999978027344,8|0,1:2|0:2,0:2:0:0:
508,143,76839,2,0,P|502:178|494:213,1,71.9999978027344,8|0,1:2|0:2,0:2:0:0:
417,326,77172,2,0,B|361:311|380:295|322:277,1,107.999996704102,2|2,0:2|0:2,0:0:0:0:
322,276,77505,2,0,P|311:315|306:366,1,88.000002685547,2|2,0:2|0:2,0:0:0:0:
120,335,77839,6,0,P|131:291|136:248,1,88.000002685547,10|4,0:2|0:3,0:0:0:0:
304,97,78172,1,4,0:3:0:0:
248,224,78339,1,12,0:3:0:0:
111,111,78505,2,0,L|96:54,2,58.6666684570313,8|8|8,0:2|0:2|0:2,0:2:0:0:
209,78,78839,1,8,0:2:0:0:
207,86,78950,2,0,L|190:14,1,58.6666684570313,8|8,0:2|0:2,0:2:0:0:
39,149,79172,6,0,B|140:120|216:161|237:238|214:301|157:306|103:283|123:229,1,352.000010742188,6|12,1:2|0:2,0:2:0:0:
251,131,80672,1,0,1:2:0:0:
251,131,81005,1,0,1:2:0:0:
318,200,81172,1,8,0:2:0:0:
254,268,81339,1,4,0:3:0:0:
255,276,81422,1,4,0:3:0:0:
257,284,81505,1,4,0:3:0:0:
259,293,81589,1,4,0:3:0:0:
260,301,81672,1,4,0:3:0:0:
346,349,81839,5,6,1:2:0:0:
346,349,82172,2,0,P|389:307|452:322,1,120,10|0,0:2|0:2,0:2:0:0:
443,315,82505,1,2,1:2:0:0:
255,276,82672,2,0,P|243:237|230:199,1,80,2|8,1:2|0:2,0:2:0:0:
356,48,83005,1,2,0:2:0:0:
418,105,83172,6,0,L|402:183,1,80,2|2,1:2|0:2,0:0:0:0:
242,63,83505,1,10,0:2:0:0:
173,119,83672,2,0,P|96:127|50:66,1,160,2|2,0:2|1:2,0:2:0:0:
140,23,84172,1,10,0:2:0:0:
140,23,84339,1,6,1:2:0:0:
253,154,84505,5,10,0:2:0:0:
112,230,84672,1,0,1:2:0:0:
112,230,84755,1,0,1:2:0:0:
112,230,84839,2,0,L|24:213,1,80,10|2,0:2|1:2,0:0:0:0:
178,383,85172,2,0,P|181:356|187:330,1,53.3333333333333,10|8,0:2|0:2,0:0:0:0:
265,263,85394,1,8,0:2:0:0:
264,271,85505,2,0,P|291:276|323:282,1,53.3333333333333,4|4,0:3|0:3,0:0:0:0:
392,355,85728,1,4,0:3:0:0:
394,362,85839,2,0,L|477:343,1,80,4|2,0:3|0:2,0:2:0:0:
409,218,86172,5,6,1:2:0:0:
256,192,86339,12,0,88505,0:2:0:0:
