osu file format v14

[General]
AudioFilename: audio.mp3
AudioLeadIn: 0
PreviewTime: 55012
Countdown: 0
SampleSet: Soft
StackLeniency: 0.4
Mode: 0
LetterboxInBreaks: 0
WidescreenStoryboard: 1

[Editor]
Bookmarks: 4345,37845,48511,81845,86178
DistanceSpacing: 0.8
BeatDivisor: 4
GridSize: 8
TimelineZoom: 1.3

[Metadata]
Title:STONE OCEAN (TV Size)
TitleUnicode:STONE OCEAN (TV Size)
Artist:ichigo from KISIDA KYODAN & THE AKEBOSI ROCKETS
ArtistUnicode:ichigo from 岸田教団&THE明星ロケッツ
Creator:AirinCat
Version:HARD
Source:ジョジョの奇妙な冒険 ストーンオーシャン
Tags:kudosu so0p soop kishida kyoudan and the akeboshi jojos JoJo no Kimyou na Bouken JoJo's Bizarre Adventure Part 6: Stone Ocean free six p6 anime opening op rock japanese jrock j-rock pop jpop jolyne kuujou kujo kujou cujoh jotaro joutarou 空条 徐倫 Araki Hirohiko 荒木 飛呂彦 藤林聖子 Shoko Fujibayashi 河田貴央 Kawada Takao 家原正樹 Iehara Masaki david production
BeatmapID:3345965
BeatmapSetID:1639355

[Difficulty]
HPDrainRate:4
CircleSize:3.8
OverallDifficulty:6
ApproachRate:8
SliderMultiplier:1.4
SliderTickRate:1

[Events]
//Background and Video events
Video,-45,"hey.mp4"
0,0,"jolyneeeeeeeee.jpg",0,0
//Break Periods
2,48705,51755
//Storyboard Layer 0 (Background)
//Storyboard Layer 1 (Fail)
//Storyboard Layer 2 (Pass)
//Storyboard Layer 3 (Foreground)
//Storyboard Layer 4 (Overlay)
//Storyboard Sound Samples

[TimingPoints]
506,333.333333333333,4,2,1,50,1,0
506,-125,4,2,1,50,0,0
4339,-111.111111111111,4,2,1,60,0,0
16505,-111.111111111111,4,2,1,50,0,0
27172,-100,4,2,1,55,0,0
37505,-111.111111111111,4,2,1,60,0,0
37839,-125,4,2,1,60,0,0
38505,-125,4,2,1,60,0,0
39172,-90.9090909090909,4,2,1,60,0,0
40505,-111.111111111111,4,2,1,60,0,0
41172,-111.111111111111,4,2,1,60,0,0
41505,-111.111111111111,4,2,1,60,0,0
41839,-90.9090909090909,4,2,1,60,0,0
42339,-90.9090909090909,4,2,1,60,0,0
42839,-90.9090909090909,4,2,1,60,0,0
43172,-111.111111111111,4,2,1,60,0,0
44505,-90.9090909090909,4,2,1,60,0,0
45505,-90.9090909090909,4,2,1,60,0,0
45839,-100,4,2,1,60,0,0
46839,-100,4,2,1,60,0,0
47172,-90.9090909090909,4,2,1,60,0,0
47672,-90.9090909090909,4,2,1,60,0,0
48172,-90.9090909090909,4,2,1,60,0,0
48839,-125,4,2,1,30,0,0
53505,-125,4,2,1,40,0,0
53672,-125,4,2,1,50,0,0
54172,-83.3333333333333,4,2,1,40,0,0
54839,-166.666666666667,4,2,1,40,0,0
55172,-90.9090909090909,4,2,1,70,0,1
75172,-111.111111111111,4,2,1,60,0,0
77505,-90.9090909090908,4,2,1,60,0,0
79172,-200,4,2,1,60,0,0
81172,-100,4,2,1,60,0,0
81839,-100,4,2,1,60,0,0
86255,-100,4,2,1,20,0,0

[Colours]
Combo1 : 91,199,244
Combo2 : 203,235,137
Combo3 : 221,132,213
Combo4 : 255,169,151

[HitObjects]
20,209,506,6,0,P|12:177|5:148,1,56,8|0,0:2|3:2,0:2:0:0:
90,135,839,2,0,P|98:166|105:196,1,56,8|0,0:2|3:2,0:0:0:0:
185,219,1172,2,0,B|245:213|230:193|297:186,1,112,8|8,0:2|0:2,0:2:0:0:
336,118,1672,1,0,3:2:0:0:
411,151,1839,2,0,L|425:205,1,56,8|0,0:2|3:2,0:0:0:0:
389,288,2172,2,0,B|330:300|347:311|286:331,1,112,8|8,0:2|0:2,0:2:0:0:
214,384,2672,1,0,3:2:0:0:
214,384,2839,2,0,L|150:366,1,56,8|0,0:2|3:2,0:0:0:0:
98,298,3172,6,0,L|34:316,1,56,8|0,0:2|3:2,0:2:0:0:
23,230,3505,2,0,L|87:212,1,56,8|0,0:2|1:2,0:0:0:0:
132,153,3839,2,0,L|111:86,1,56,8|0,0:2|1:2,0:0:0:0:
115,99,4089,1,0,1:2:0:0:
115,99,4172,1,8,0:2:0:0:
182,35,4339,6,0,P|242:31|284:76,1,125.999996154785,2|0,1:3|1:2,0:2:0:0:
367,96,4839,2,0,P|359:131|352:169,1,62.9999980773926,8|8,0:2|0:2,0:0:0:0:
354,157,5089,1,8,0:2:0:0:
354,157,5172,1,8,0:2:0:0:
275,209,5339,2,0,P|285:262|295:347,1,125.999996154785,6|8,1:2|0:2,0:2:0:0:
294,333,5755,1,8,0:2:0:0:
294,333,5839,1,4,1:2:0:0:
507,239,6172,6,0,L|491:159,1,62.9999980773926,10|0,0:2|0:0,0:2:0:0:
512,96,6505,1,2,1:2:0:0:
433,75,6672,2,0,P|406:82|368:93,1,62.9999980773926,2|8,1:2|0:2,0:2:0:0:
305,149,7005,1,0,3:2:0:0:
305,149,7172,2,0,B|238:147|257:112|187:110,1,125.999996154785,2|10,1:2|0:2,0:2:0:0:
113,142,7672,2,0,P|118:174|123:205,1,62.9999980773926,2|0,0:2|1:2,0:2:0:0:
83,280,8005,2,0,P|51:284|21:291,1,62.9999980773926,2|8,1:2|0:2,0:2:0:0:
5,384,8339,6,0,P|69:369|144:360,1,125.999996154785,6|2,1:2|0:2,0:0:0:0:
191,287,8839,2,0,L|255:297,1,62.9999980773926,10|0,0:2|0:0,0:2:0:0:
316,359,9172,1,2,1:2:0:0:
381,307,9339,2,0,L|396:243,1,62.9999980773926,2|8,1:2|0:2,0:2:0:0:
333,191,9672,1,0,3:2:0:0:
333,191,9839,2,0,P|325:127|309:55,1,125.999996154785,2|10,1:2|0:2,0:2:0:0:
377,1,10339,2,0,L|450:13,1,62.9999980773926,2|0,0:2|1:2,0:2:0:0:
512,71,10672,5,10,0:2:0:0:
512,71,11005,2,0,P|493:127|478:201,1,125.999996154785,10|0,0:2|1:2,0:2:0:0:
475,285,11505,2,0,B|407:274|429:243|362:232,1,125.999996154785,14|2,0:2|1:2,0:2:0:0:
285,267,12005,2,0,P|291:287|301:328,1,62.9999980773926,2|8,1:2|0:2,0:2:0:0:
218,353,12339,1,2,3:2:0:0:
218,353,12505,2,0,P|211:332|202:292,1,62.9999980773926,2|0,1:2|0:2,0:2:0:0:
214,210,12839,1,10,0:2:0:0:
128,186,13005,2,0,B|58:199|81:226|17:242,1,125.999996154785,2|0,0:2|1:2,0:2:0:0:
0,161,13505,1,8,0:2:0:0:
0,161,13672,1,0,1:2:0:0:
62,93,13839,6,0,P|53:62|47:31,1,62.9999980773926,0|2,1:2|1:2,0:0:0:0:
141,3,14172,2,0,P|149:33|155:64,1,62.9999980773926,8|2,0:2|0:2,0:0:0:0:
234,125,14505,2,0,P|287:103|370:83,1,125.999996154785,2|8,1:2|0:2,0:2:0:0:
399,13,15005,1,2,1:2:0:0:
470,63,15172,5,2,1:2:0:0:
470,63,15339,1,10,0:2:0:0:
427,138,15505,2,0,B|426:209|464:193|461:257,1,125.999996154785,2|8,0:2|0:2,0:2:0:0:
411,325,16005,1,8,0:3:0:0:
486,365,16172,2,0,L|497:325,4,31.4999990386963,8|4|8|4|4,0:3|0:3|0:3|0:3|1:2,0:0:0:0:
246,331,16839,5,10,0:2:0:0:
246,331,17005,2,0,P|186:311|123:305,1,125.999996154785,2|0,0:2|1:2,0:2:0:0:
34,305,17505,1,10,0:2:0:0:
34,305,17839,2,0,P|6:250|33:196,1,125.999996154785,2|8,1:2|0:2,0:2:0:0:
118,149,18339,2,0,B|186:155|162:182|232:196,1,125.999996154785,2|0,0:2|1:2,0:2:0:0:
321,162,18839,2,0,P|329:127|339:96,1,62.9999980773926,8|2,0:2|1:2,0:0:0:0:
436,100,19172,2,0,P|415:159|404:221,1,125.999996154785,2|10,1:2|0:2,0:2:0:0:
398,380,19839,2,0,P|367:371|336:367,1,62.9999980773926,2|0,0:2|1:2,0:2:0:0:
273,315,20172,2,0,P|226:321|181:337,1,94.499997116089,10|0,0:2|0:2,0:0:0:0:
181,336,20505,5,2,1:2:0:0:
100,301,20672,2,0,P|92:268|83:233,1,62.9999980773926,2|8,0:2|0:2,0:2:0:0:
159,174,21005,1,2,0:1:0:0:
159,174,21339,2,0,L|178:91,1,62.9999980773926,2|8,1:1|0:2,0:2:0:0:
121,42,21672,1,2,1:1:0:0:
45,79,21839,1,0,1:2:0:0:
45,79,22172,6,0,L|31:147,1,62.9999980773926,10|2,0:2|0:2,0:0:0:0:
77,221,22505,2,0,P|68:252|64:283,1,62.9999980773926,2|0,0:2|1:2,0:2:0:0:
109,355,22839,2,0,P|140:359|170:367,1,62.9999980773926,10|0,0:2|0:2,0:2:0:0:
266,325,23172,6,0,B|330:325|315:350|386:357,1,125.999996154785,2|10,1:2|0:2,0:2:0:0:
472,317,23672,2,0,P|478:248|492:184,1,125.999996154785,2|2,0:3|1:3,0:0:0:0:
441,121,24172,2,0,P|409:117|378:110,1,62.9999980773926,8|2,0:2|1:3,0:0:0:0:
293,157,24505,5,2,1:2:0:0:
293,157,24839,2,0,L|279:229,1,62.9999980773926,10|2,0:2|0:2,0:0:0:0:
339,292,25172,1,2,0:2:0:0:
339,292,25339,1,0,1:2:0:0:
275,349,25505,2,0,L|213:334,1,62.9999980773926,10|0,0:2|0:0,0:2:0:0:
146,272,25839,5,2,1:2:0:0:
87,345,26005,2,0,P|46:299|59:239,1,125.999996154785,14|4,0:2|0:3,0:2:0:0:
105,164,26505,2,0,P|71:155|42:144,2,62.9999980773926,8|8|4,0:2|0:3|0:3,0:0:0:0:
187,122,27005,1,8,0:3:0:0:
187,122,27089,1,8,0:3:0:0:
187,122,27172,1,6,1:2:0:0:
302,277,27505,6,0,P|294:310|286:348,1,70,10|0,0:2|0:2,0:2:0:0:
375,370,27839,2,0,P|383:337|391:299,1,70,2|2,0:2|1:2,0:0:0:0:
468,251,28172,2,0,P|454:201|449:147,1,105,10|0,0:2|0:0,0:2:0:0:
449,148,28505,1,2,1:2:0:0:
393,83,28672,2,0,P|362:90|324:95,1,70,2|8,0:2|0:2,0:2:0:0:
264,156,29005,2,0,B|184:143|212:119|136:102,1,140,2|0,0:2|1:2,0:2:0:0:
58,49,29505,2,0,P|50:82|36:125,1,70,8|2,0:2|1:2,0:0:0:0:
77,214,29839,5,2,1:2:0:0:
77,214,30172,2,0,P|112:221|158:241,1,70,10|0,0:2|0:0,0:2:0:0:
214,185,30505,2,0,P|251:181|290:173,1,70,2|0,0:2|1:2,0:2:0:0:
344,245,30839,2,0,P|394:259|440:283,1,105,10|0,0:2|0:2,0:2:0:0:
440,283,31172,1,2,1:2:0:0:
491,219,31339,2,0,P|501:178|513:151,1,70,2|8,0:2|0:2,0:2:0:0:
477,75,31672,2,0,B|396:78|430:111|345:116,1,140,2|2,0:2|1:2,0:2:0:0:
266,153,32172,2,0,B|243:126|243:126|261:97,1,70,10|0,0:2|1:2,0:2:0:0:
344,203,32505,5,2,1:2:0:0:
344,203,32839,2,0,B|367:230|367:230|348:258,1,70,10|0,0:2|0:2,0:2:0:0:
270,311,33172,2,0,P|237:299|202:294,1,70,2|0,0:2|1:2,0:0:0:0:
142,235,33505,2,0,P|111:243|68:250,1,70,10|0,0:2|1:2,0:2:0:0:
51,161,33839,1,2,1:2:0:0:
51,161,34172,2,0,P|81:153|125:146,1,70,10|0,0:2|0:2,0:2:0:0:
185,84,34505,2,0,P|215:92|333:108,1,140,2|8,0:2|0:2,0:0:0:0:
395,65,35005,1,2,1:2:0:0:
445,137,35172,5,2,1:2:0:0:
445,137,35505,2,0,P|432:170|424:209,1,70,10|0,0:2|0:0,0:2:0:0:
351,243,35839,1,2,0:2:0:0:
351,243,36005,1,0,1:2:0:0:
390,318,36172,2,0,P|427:328|461:340,1,70,10|0,0:2|0:2,0:2:0:0:
332,381,36505,5,2,1:2:0:0:
283,312,36672,2,0,B|200:314|227:358|151:351,1,140,14|4,0:2|0:3,0:0:0:0:
59,365,37172,2,0,P|66:330|73:296,1,70,8|8,0:2|0:3,0:0:0:0:
156,254,37505,2,0,P|147:223|140:192,1,62.9999980773926,8|4,0:2|0:3,0:2:0:0:
43,156,37839,6,0,P|62:97|74:41,1,112,12|2,0:2|0:2,0:2:0:0:
144,9,38339,1,2,1:2:0:0:
197,74,38505,2,0,L|255:84,1,56,14|0,0:2|1:2,0:0:0:0:
315,21,38839,2,0,L|373:11,1,56,2|0,0:2|1:2,0:2:0:0:
441,74,39172,6,0,P|422:144|410:238,1,154.000004699707,14|0,0:2|0:2,0:2:0:0:
330,279,39672,2,0,P|316:240|301:203,2,77.0000023498536,2|12|0,1:2|0:2|1:2,0:2:0:0:
421,333,40172,2,0,P|457:321|506:313,1,77.0000023498536,2|0,0:2|1:2,0:2:0:0:
495,313,40422,1,0,1:2:0:0:
495,313,40505,1,14,0:2:0:0:
225,310,40839,6,0,P|210:267|201:236,1,62.9999980773926,2|2,0:2|1:2,0:0:0:0:
228,166,41172,2,0,P|259:157|290:150,1,62.9999980773926,14|0,0:2|1:2,0:2:0:0:
369,94,41505,2,2,P|376:124|386:154,1,62.9999980773926,2|0,0:1|1:2,0:1:0:0:
436,27,41839,6,0,P|368:58|299:28,1,154.000004699707,14|0,0:2|1:2,0:2:0:0:
234,88,42339,2,0,P|171:46|100:69,1,154.000004699707,10|0,0:2|1:2,0:2:0:0:
14,79,42839,2,0,L|32:164,1,77.0000023498536,10|0,0:2|0:0,0:2:0:0:
118,203,43172,5,12,0:2:0:0:
118,203,43505,2,0,L|101:275,1,62.9999980773926,2|2,0:2|1:2,0:0:0:0:
31,304,43839,1,14,0:2:0:0:
31,304,44005,1,0,1:2:0:0:
83,370,44172,2,0,L|146:385,1,62.9999980773926,2|0,0:2|1:2,0:2:0:0:
236,341,44505,6,0,P|245:304|249:264,2,77.0000023498536,14|0|0,0:2|1:2|0:2,0:2:0:0:
346,283,45005,2,0,P|336:319|333:360,2,77.0000023498536,2|14|0,1:2|0:2|1:2,0:0:0:0:
405,203,45505,2,0,B|468:206|447:237|508:247,1,115.50000352478,2|0,0:2|0:2,0:2:0:0:
508,247,45839,1,14,0:2:0:0:
346,116,46172,6,0,P|354:83|363:44,1,70,2|2,0:2|1:2,0:0:0:0:
274,28,46505,2,0,P|266:61|256:98,1,70,14|2,0:2|1:2,0:0:0:0:
175,133,46839,2,0,L|101:112,1,70,2|0,0:1|1:2,0:2:0:0:
19,82,47172,6,0,P|75:128|61:200,1,154.000004699707,14|0,0:2|1:2,0:2:0:0:
23,285,47672,2,0,P|75:233|145:254,1,154.000004699707,10|0,0:2|1:2,0:2:0:0:
205,195,48172,2,0,P|187:269|174:345,1,154.000004699707,14|0,0:2|0:2,0:2:0:0:
256,192,52505,12,0,53839,0:0:0:0:
25,307,55172,6,0,P|17:267|8:231,1,77.0000023498536,6|0,1:2|0:0,0:2:0:0:
58,148,55505,2,0,P|95:141|133:133,1,77.0000023498536,10|0,0:2|0:2,0:2:0:0:
196,55,55839,1,2,1:2:0:0:
196,55,56005,1,0,1:2:0:0:
281,100,56172,2,0,P|290:137|304:173,1,77.0000023498536,12|0,1:2|0:2,0:2:0:0:
242,261,56505,5,6,1:2:0:0:
330,303,56672,2,0,P|363:286|403:278,1,77.0000023498536,2|8,0:2|0:2,0:2:0:0:
492,261,57005,2,0,P|419:245|394:176,1,154.000004699707,2|0,0:2|1:2,0:0:0:0:
379,78,57505,2,0,P|417:89|464:97,1,77.0000023498536,12|2,0:2|1:2,0:2:0:0:
299,149,57839,6,0,B|216:125|250:92|172:65,1,154.000004699707,6|10,1:2|0:2,0:2:0:0:
89,56,58339,1,2,0:2:0:0:
89,56,58505,2,0,P|81:90|67:142,1,77.0000023498536,2|2,1:2|1:2,0:0:0:0:
0,180,58839,2,0,P|8:214|22:266,1,77.0000023498536,10|2,0:2|1:2,0:0:0:0:
72,335,59172,2,0,P|128:287|198:309,1,154.000004699707,6|10,1:2|0:2,0:2:0:0:
255,369,59672,1,2,1:2:0:0:
322,312,59839,2,0,P|329:246|350:152,1,154.000004699707,2|10,0:2|0:2,0:2:0:0:
162,40,60505,5,4,1:2:0:0:
162,40,60839,2,0,P|154:75|141:123,1,77.0000023498536,10|0,0:2|0:2,0:2:0:0:
196,189,61172,1,2,1:2:0:0:
196,189,61339,1,0,1:2:0:0:
272,145,61505,2,0,P|309:155|351:160,1,77.0000023498536,12|0,0:2|0:0,0:2:0:0:
416,257,61839,6,0,P|469:205|459:131,1,154.000004699707,6|10,1:2|0:2,0:2:0:0:
512,34,62339,2,0,P|436:51|361:67,1,154.000004699707,2|0,0:2|1:2,0:2:0:0:
278,116,62839,2,0,P|267:78|261:38,1,77.0000023498536,12|2,0:2|1:2,0:2:0:0:
155,70,63172,6,0,P|165:110|172:148,1,77.0000023498536,6|2,1:2|0:2,0:0:0:0:
245,202,63505,2,0,P|233:244|228:280,1,77.0000023498536,10|2,0:2|0:2,0:0:0:0:
258,366,63839,1,2,1:2:0:0:
258,366,64005,1,0,1:2:0:0:
162,373,64172,1,10,0:2:0:0:
162,373,64505,6,0,P|125:363|77:352,1,77.0000023498536,2|8,1:2|0:2,0:0:0:0:
36,292,64839,1,2,1:2:0:0:
111,246,65005,1,0,1:2:0:0:
111,246,65089,1,0,1:2:0:0:
111,246,65172,2,0,P|118:208|129:171,1,77.0000023498536,10|0,0:2|1:2,0:2:0:0:
50,130,65505,2,0,P|43:92|32:51,1,77.0000023498536,10|0,0:2|1:2,0:0:0:0:
142,63,65839,5,6,1:2:0:0:
142,63,66172,1,10,0:2:0:0:
220,28,66339,1,0,1:2:0:0:
220,28,66422,1,0,1:2:0:0:
220,28,66505,2,0,P|257:37|295:44,1,77.0000023498536,10|2,0:2|1:2,0:0:0:0:
374,100,66839,2,0,L|454:85,1,77.0000023498536,10|0,0:2|0:0,0:2:0:0:
487,0,67172,6,0,P|491:76|516:163,1,154.000004699707,14|8,0:2|0:2,0:2:0:0:
501,244,67672,1,2,1:2:0:0:
424,201,67839,2,0,B|336:209|373:248|288:266,1,154.000004699707,8|8,0:2|0:2,0:0:0:0:
217,215,68339,1,0,1:2:0:0:
163,284,68505,1,14,0:2:0:0:
163,284,68839,2,0,P|169:322|179:360,1,77.0000023498536,10|0,0:2|0:2,0:2:0:0:
91,384,69172,2,0,P|85:346|75:308,1,77.0000023498536,10|0,0:2|1:2,0:0:0:0:
99,217,69505,2,0,P|89:179|83:141,1,77.0000023498536,10|0,0:2|1:2,0:0:0:0:
83,141,69755,1,0,1:2:0:0:
83,140,69839,6,0,P|147:104|213:136,1,154.000004699707,14|8,0:2|0:2,0:2:0:0:
296,95,70339,1,2,0:2:0:0:
347,163,70505,2,0,P|415:191|479:153,1,154.000004699707,8|8,0:2|0:2,0:0:0:0:
512,77,71005,1,0,1:2:0:0:
512,77,71089,1,0,1:2:0:0:
512,77,71172,1,12,0:2:0:0:
412,231,71505,6,0,P|417:262|422:310,1,77.0000023498536,10|0,0:2|0:2,0:2:0:0:
359,384,71839,1,10,0:2:0:0:
359,384,72005,1,0,1:2:0:0:
278,335,72172,2,0,P|239:339|200:348,1,77.0000023498536,10|0,0:2|1:2,0:0:0:0:
115,299,72505,1,12,0:2:0:0:
115,299,72839,2,0,P|109:260|98:223,1,77.0000023498536,10|0,0:2|0:2,0:2:0:0:
178,161,73172,1,10,0:2:0:0:
185,168,73506,2,0,P|191:129|202:92,1,77.0000023498536,10|0,0:2|1:2,0:0:0:0:
201,93,73755,1,0,1:2:0:0:
201,93,73839,6,0,P|136:111|69:44,2,154.000004699707,14|8|8,0:2|0:2|0:2,0:2:0:0:
347,1,74839,1,8,0:2:0:0:
347,1,75005,1,2,1:2:0:0:
410,55,75172,6,0,P|397:106|387:184,1,125.999996154785,8|0,1:2|0:2,0:2:0:0:
196,131,75839,2,0,P|207:85|215:38,2,94.499997116089,2|2|2,0:2|0:2|0:2,0:0:0:0:
115,167,76505,5,8,1:2:0:0:
236,285,76839,1,8,1:2:0:0:
69,358,77172,2,0,P|60:310|44:254,2,94.499997116089,2|2|2,0:2|0:2|0:2,0:0:0:0:
165,384,77839,6,0,P|200:373|257:368,1,77.0000023498536,10|4,0:2|0:3,0:0:0:0:
315,301,78172,2,0,P|350:311|407:317,1,77.0000023498536,4|12,0:3|0:3,0:0:0:0:
479,277,78505,2,0,L|490:219,2,51.3333348999024,8|8|8,0:2|0:2|0:2,0:2:0:0:
450,209,78839,2,0,L|439:151,2,51.3333348999024,8|8|8,0:2|0:2|0:2,0:0:0:0:
392,130,79172,6,0,B|350:235|250:212|190:198|212:97|275:104|298:129|278:152,1,280,6|12,1:2|0:2,0:2:0:0:
316,56,80672,1,0,1:2:0:0:
316,56,81005,5,0,1:2:0:0:
235,13,81172,2,0,L|166:25,1,70,8|4,0:2|0:3,0:0:0:0:
96,81,81505,2,0,P|102:115|107:150,1,70,4|4,0:3|0:3,0:0:0:0:
189,223,81839,5,6,1:2:0:0:
189,223,82172,2,0,P|224:213|268:211,1,70,10|0,0:2|0:0,0:2:0:0:
331,139,82505,1,2,1:2:0:0:
411,174,82672,2,0,P|414:207|422:243,1,70,2|8,1:2|0:2,0:2:0:0:
381,317,83005,1,2,0:2:0:0:
444,372,83172,2,0,P|477:361|511:356,2,70,2|2|10,1:2|0:2|0:2,0:0:0:0:
381,317,83672,2,0,B|309:321|327:352|251:366,1,140,2|2,0:2|1:2,0:2:0:0:
164,328,84172,2,0,P|168:290|174:256,1,70,10|6,0:2|1:2,0:0:0:0:
249,211,84505,5,10,0:2:0:0:
193,148,84672,1,0,1:2:0:0:
193,148,84755,1,0,1:2:0:0:
193,148,84839,2,0,L|113:132,1,70,10|2,0:2|1:2,0:0:0:0:
35,172,85172,2,0,L|26:229,2,46.6666666666667,10|8|8,0:2|0:2|0:2,0:0:0:0:
72,257,85505,2,0,L|63:314,2,46.6666666666667,4|4|4,0:3|0:3|0:3,0:0:0:0:
85,344,85839,2,0,L|153:358,1,70,4|2,0:3|0:2,0:2:0:0:
242,306,86172,5,6,1:2:0:0:
256,192,86339,12,0,88505,0:2:0:0:
