osu file format v14

[General]
AudioFilename: audio.mp3
AudioLeadIn: 0
PreviewTime: 55012
Countdown: 0
SampleSet: Soft
StackLeniency: 0.7
Mode: 0
LetterboxInBreaks: 0
WidescreenStoryboard: 0

[Editor]
Bookmarks: 4345,37845,48511,81845,86178
DistanceSpacing: 0.8
BeatDivisor: 4
GridSize: 4
TimelineZoom: 1.3

[Metadata]
Title:STONE OCEAN (TV Size)
TitleUnicode:STONE OCEAN (TV Size)
Artist:ichigo from KISIDA KYODAN & THE AKEBOSI ROCKETS
ArtistUnicode:ichigo from 岸田教団&THE明星ロケッツ
Creator:AirinCat
Version:EXPERT
Source:ジョジョの奇妙な冒険 ストーンオーシャン
Tags:kudosu so0p soop kishida kyoudan and the akeboshi jojos JoJo no Kimyou na Bouken JoJo's Bizarre Adventure Part 6: Stone Ocean free six p6 anime opening op rock japanese jrock j-rock pop jpop jolyne kuujou kujo kujou cujoh jotaro joutarou 空条 徐倫 Araki Hirohiko 荒木 飛呂彦 藤林聖子 Shoko Fujibayashi 河田貴央 Kawada Takao 家原正樹 Iehara Masaki david production
BeatmapID:3345964
BeatmapSetID:1639355

[Difficulty]
HPDrainRate:6
CircleSize:4
OverallDifficulty:8.6
ApproachRate:9.2
SliderMultiplier:1.6
SliderTickRate:1

[Events]
//Background and Video events
Video,-45,"hey.mp4"
0,0,"jolyneeeeeeeee.jpg",0,0
//Break Periods
//Storyboard Layer 0 (Background)
//Storyboard Layer 1 (Fail)
//Storyboard Layer 2 (Pass)
//Storyboard Layer 3 (Foreground)
//Storyboard Layer 4 (Overlay)
//Storyboard Sound Samples

[TimingPoints]
506,333.333333333333,4,2,1,50,1,0
506,-125,4,2,1,50,0,0
4339,-90.9090909090909,4,2,1,60,0,0
16505,-100,4,2,1,50,0,0
27172,-90.9090909090909,4,2,1,55,0,0
37505,-111.111111111111,4,2,1,60,0,0
37839,-200,4,2,1,60,0,0
38505,-166.666666666667,4,2,1,60,0,0
39172,-76.923076923077,4,2,1,60,0,0
40505,-100,4,2,1,60,0,0
41172,-100,4,2,1,60,0,0
41505,-83.3333333333333,4,2,1,60,0,0
41839,-76.9230769230769,4,2,1,60,0,0
42339,-71.4285714285714,4,2,1,60,0,0
42839,-66.6666666666667,4,2,1,60,0,0
43172,-100,4,2,1,60,0,0
44505,-76.9230769230769,4,2,1,60,0,0
45505,-62.5,4,2,1,60,0,0
45839,-100,4,2,1,60,0,0
46839,-83.3333333333333,4,2,1,60,0,0
47172,-76.9230769230769,4,2,1,60,0,0
47672,-71.4285714285714,4,2,1,60,0,0
48172,-66.6666666666667,4,2,1,60,0,0
48839,-125,4,2,1,30,0,0
53505,-125,4,2,1,40,0,0
53672,-125,4,2,1,50,0,0
54172,-83.3333333333333,4,2,1,40,0,0
54839,-166.666666666667,4,2,1,40,0,0
55172,-76.9230769230769,4,2,1,70,0,1
75172,-111.111111111111,4,2,1,60,0,0
77505,-90.9090909090908,4,2,1,60,0,0
79172,-200,4,2,1,60,0,0
81839,-90.9090909090909,4,2,1,60,0,0
86255,-90.9090909090909,4,2,1,20,0,0

[Colours]
Combo1 : 91,199,244
Combo2 : 203,235,137
Combo3 : 221,132,213
Combo4 : 255,169,151

[HitObjects]
31,314,506,6,0,P|21:275|11:242,1,64,8|0,0:2|3:2,0:2:0:0:
144,118,839,1,8,0:2:0:0:
144,118,1006,1,0,3:2:0:0:
60,154,1173,2,0,P|100:201|162:201,1,128,8|8,0:2|0:2,0:2:0:0:
162,201,1672,1,0,3:2:0:0:
162,328,1839,5,8,0:2:0:0:
162,328,2005,1,0,3:2:0:0:
243,290,2172,2,0,B|277:281|305:296|305:296|319:328|354:331,1,128,8|8,0:2|0:2,0:2:0:0:
481,250,2672,1,0,3:2:0:0:
430,196,2839,1,8,0:2:0:0:
379,254,3005,1,0,3:2:0:0:
508,153,3172,6,0,P|498:122|491:91,1,64,8|0,0:2|3:2,0:2:0:0:
385,27,3505,1,8,0:2:0:0:
385,27,3589,1,0,1:2:0:0:
385,27,3672,1,0,1:2:0:0:
302,117,3839,1,8,0:2:0:0:
387,157,4005,1,0,1:2:0:0:
387,157,4089,1,0,1:2:0:0:
387,157,4172,1,8,0:2:0:0:
206,57,4339,6,0,B|114:76|158:123|63:153,1,176.000005371094,4|0,1:1|1:2,0:2:0:0:
64,152,4755,1,0,1:0:0:0:
64,152,4839,1,8,0:2:0:0:
48,65,5005,1,8,0:2:0:0:
48,65,5089,1,8,0:2:0:0:
48,65,5172,1,8,0:2:0:0:
193,274,5339,2,0,P|206:193|222:143,1,132.00000402832,6|0,1:2|0:2,0:2:0:0:
293,100,5672,1,8,0:2:0:0:
293,100,5755,1,8,0:2:0:0:
293,100,5839,1,4,1:2:0:0:
293,100,6172,6,0,B|357:109|326:157|394:175,1,132.00000402832,10|0,0:2|0:2,0:2:0:0:
394,175,6505,1,2,1:2:0:0:
512,14,6672,2,0,P|470:24|420:31,1,88.000002685547,2|8,1:2|0:2,0:2:0:0:
390,269,7005,1,0,3:2:0:0:
494,231,7172,6,0,P|517:172|483:118,1,132.00000402832,2|0,1:2|0:2,0:2:0:0:
482,117,7505,1,10,0:2:0:0:
266,237,7672,2,0,P|278:275|287:326,1,88.000002685547,2|0,0:2|1:2,0:2:0:0:
64,378,8005,2,0,P|50:336|43:292,1,88.000002685547,2|8,1:2|0:2,0:2:0:0:
242,100,8339,5,6,1:2:0:0:
168,305,8505,1,0,1:2:0:0:
168,305,8672,1,2,0:2:0:0:
2,146,8839,2,0,B|74:146|47:186|124:185,1,132.00000402832,10|0,0:2|0:2,0:2:0:0:
124,185,9172,1,2,1:2:0:0:
236,0,9339,2,0,P|200:14|142:28,1,88.000002685547,2|8,1:2|0:2,0:2:0:0:
300,223,9672,1,0,3:2:0:0:
366,122,9839,6,0,P|425:96|478:130,1,132.00000402832,2|0,1:2|0:2,0:2:0:0:
477,129,10172,1,10,0:2:0:0:
423,356,10339,2,0,P|413:307|402:266,1,88.000002685547,2|0,0:2|1:2,0:2:0:0:
486,0,10672,5,10,0:2:0:0:
486,0,11005,2,0,P|432:64|348:55,1,176.000005371094,10|0,0:2|1:2,0:2:0:0:
126,234,11505,2,0,P|171:190|234:202,1,132.00000402832,14|0,0:2|0:2,0:2:0:0:
233,201,11839,1,2,1:2:0:0:
34,119,12005,2,0,P|45:75|55:23,1,88.000002685547,2|8,1:2|0:2,0:2:0:0:
203,297,12339,1,2,3:2:0:0:
203,297,12422,1,2,3:2:0:0:
203,297,12505,2,0,P|194:335|189:391,1,88.000002685547,2|0,1:2|0:2,0:2:0:0:
28,226,12839,5,10,0:2:0:0:
167,142,13005,2,0,B|239:142|211:181|293:195,1,132.00000402832,2|0,0:2|0:2,0:2:0:0:
284,193,13339,1,0,1:2:0:0:
394,18,13505,1,8,0:2:0:0:
238,37,13672,1,0,1:2:0:0:
396,240,13839,5,0,1:2:0:0:
488,121,14005,1,2,1:2:0:0:
337,100,14172,1,8,0:2:0:0:
503,258,14339,1,2,0:2:0:0:
330,360,14505,2,0,B|230:357|262:311|166:307,1,176.000005371094,2|8,1:2|0:2,0:2:0:0:
123,181,15005,1,2,1:2:0:0:
52,316,15172,5,2,1:2:0:0:
243,155,15339,1,10,0:2:0:0:
0,98,15505,2,0,P|13:136|28:196,1,88.000002685547,2|4,0:2|0:3,0:2:0:0:
184,381,15839,1,8,0:2:0:0:
277,256,16005,1,8,0:3:0:0:
396,365,16172,1,8,0:3:0:0:
396,365,16255,1,4,0:3:0:0:
396,365,16339,1,8,0:3:0:0:
396,365,16422,1,4,0:3:0:0:
396,365,16505,6,0,P|405:297|425:225,1,120,4|0,1:2|0:2,0:2:0:0:
417,247,16839,1,10,0:2:0:0:
512,122,17005,2,0,P|445:158|380:118,1,160,2|0,0:2|1:2,0:2:0:0:
217,46,17505,2,0,P|259:37|304:27,1,80,10|0,0:2|0:2,0:2:0:0:
257,205,17839,6,0,P|190:182|96:160,1,160,2|8,1:2|0:2,0:2:0:0:
0,343,18339,2,0,P|75:338|103:267,1,160,2|0,0:2|1:2,0:2:0:0:
0,227,18839,1,8,0:2:0:0:
0,227,19005,1,2,1:2:0:0:
174,347,19172,6,0,P|213:331|258:319,1,80,2|0,1:2|0:2,0:2:0:0:
342,157,19505,1,10,0:2:0:0:
342,157,19839,2,0,P|381:173|426:185,1,80,2|0,0:2|1:2,0:2:0:0:
359,326,20172,1,10,0:2:0:0:
246,208,20339,1,0,3:2:0:0:
246,208,20422,1,0,3:2:0:0:
246,208,20505,5,2,1:2:0:0:
342,157,20672,2,0,P|349:114|361:73,1,80,2|8,0:2|0:2,0:2:0:0:
134,34,21005,1,2,0:1:0:0:
134,34,21339,2,0,B|122:65|122:65|126:73|126:73|115:118,1,80,2|8,1:1|0:2,0:2:0:0:
70,311,21672,5,2,1:1:0:0:
4,264,21839,2,0,P|42:221|100:226,1,120,0|0,1:2|0:2,0:2:0:0:
100,226,22172,1,10,0:2:0:0:
187,333,22339,1,2,0:2:0:0:
277,194,22505,2,0,P|235:187|195:174,1,80,2|0,0:2|1:2,0:2:0:0:
279,366,22839,2,0,P|320:353|361:346,1,80,10|0,0:2|0:2,0:2:0:0:
477,198,23172,6,0,P|459:138|449:76,1,120,2|0,1:2|0:2,0:2:0:0:
449,81,23505,1,10,0:2:0:0:
303,266,23672,1,2,0:3:0:0:
303,266,24005,2,0,P|341:255|381:249,1,80,2|8,1:3|0:2,0:2:0:0:
113,181,24339,5,2,1:3:0:0:
166,111,24505,2,0,P|156:72|148:32,1,80,2|0,1:2|0:2,0:2:0:0:
16,196,24839,1,10,0:2:0:0:
103,283,25005,1,2,0:2:0:0:
103,283,25089,1,2,0:2:0:0:
103,283,25172,2,0,P|141:271|180:262,1,80,2|0,0:2|1:2,0:2:0:0:
281,128,25505,2,0,B|350:134|323:168|388:176,1,120,10|0,0:2|0:2,0:2:0:0:
387,176,25839,5,2,1:2:0:0:
302,381,26005,2,0,P|293:341|281:303,1,80,14|0,0:2|0:2,0:2:0:0:
481,197,26339,1,4,0:3:0:0:
424,305,26505,1,8,0:2:0:0:
284,211,26672,1,8,0:3:0:0:
410,78,26839,1,4,0:3:0:0:
342,31,27005,5,8,0:3:0:0:
342,31,27089,1,8,0:3:0:0:
342,31,27172,2,0,B|273:49|300:78|228:97,1,132.00000402832,6|0,1:2|0:2,0:2:0:0:
154,138,27505,2,0,P|146:92|133:43,1,88.000002685547,10|0,0:2|0:2,0:2:0:0:
338,206,27839,1,2,0:2:0:0:
231,305,28005,1,2,1:2:0:0:
361,376,28172,2,0,P|398:360|453:346,1,88.000002685547,10|0,0:2|0:2,0:2:0:0:
220,204,28505,5,2,1:2:0:0:
114,375,28672,2,0,P|105:331|91:290,1,88.000002685547,2|8,0:2|0:2,0:2:0:0:
189,106,29005,2,0,P|272:100|318:170,1,176.000005371094,2|0,0:2|1:2,0:2:0:0:
238,300,29505,1,8,0:2:0:0:
124,204,29672,1,2,1:2:0:0:
238,300,29839,6,0,P|278:282|321:272,1,88.000002685547,2|0,1:2|0:2,0:2:0:0:
482,165,30172,2,0,P|454:109|391:106,1,132.00000402832,10|0,0:2|0:2,0:2:0:0:
316,54,30505,2,0,P|302:95|290:138,1,88.000002685547,2|0,0:2|1:2,0:2:0:0:
395,376,30839,2,0,P|414:306|437:238,1,132.00000402832,10|0,0:2|0:2,0:2:0:0:
432,249,31172,5,2,1:2:0:0:
241,327,31339,2,0,P|201:312|148:303,1,88.000002685547,2|8,0:2|0:2,0:2:0:0:
21,184,31672,2,0,P|63:136|126:142,1,132.00000402832,2|0,0:2|0:2,0:2:0:0:
126,142,32005,1,2,1:2:0:0:
73,369,32172,2,0,B|38:340|38:340|55:301,1,88.000002685547,10|0,0:2|1:2,0:2:0:0:
234,60,32505,6,0,P|246:127|264:207,1,132.00000402832,2|0,1:2|0:2,0:2:0:0:
332,236,32839,2,0,B|375:250|375:250|404:219,1,88.000002685547,10|0,0:2|0:2,0:2:0:0:
132,146,33172,1,2,0:2:0:0:
132,146,33339,1,0,1:2:0:0:
214,254,33505,6,0,P|170:266|126:284,1,88.000002685547,10|0,0:2|1:2,0:2:0:0:
291,58,33839,2,0,B|356:74|331:118|399:139,1,132.00000402832,2|0,1:2|0:2,0:2:0:0:
485,190,34172,2,0,P|494:145|508:101,1,88.000002685547,10|0,0:2|0:2,0:2:0:0:
340,232,34505,1,2,0:2:0:0:
340,232,34672,1,0,1:2:0:0:
425,323,34839,1,8,0:2:0:0:
485,190,35005,5,2,1:2:0:0:
317,316,35172,2,0,P|275:302|232:291,1,88.000002685547,2|0,1:2|0:2,0:2:0:0:
140,156,35505,2,0,B|148:85|184:99|197:39,1,132.00000402832,10|0,0:2|0:2,0:2:0:0:
196,39,35839,1,2,0:2:0:0:
237,158,36005,1,0,1:2:0:0:
22,43,36172,2,0,L|106:20,1,88.000002685547,10|0,0:2|0:2,0:2:0:0:
321,123,36505,5,2,1:2:0:0:
145,262,36672,1,14,0:2:0:0:
145,262,37005,1,4,0:3:0:0:
224,193,37172,1,8,0:2:0:0:
338,252,37339,1,8,0:3:0:0:
448,122,37505,2,0,P|438:84|427:41,1,71.9999978027344,8|4,0:2|0:3,0:2:0:0:
231,295,37839,6,0,L|248:377,1,80,12|2,0:2|0:2,0:2:0:0:
247,373,38339,1,2,1:2:0:0:
448,248,38505,1,14,0:2:0:0:
405,353,38672,1,0,1:2:0:0:
287,149,38839,2,0,L|350:128,1,47.9999985351563,2|0,0:2|1:2,0:2:0:0:
262,65,39089,5,0,1:2:0:0:
253,64,39172,2,0,P|229:158|132:162,1,207.999990478516,14|0,0:2|0:2,0:2:0:0:
84,364,39672,2,0,P|45:334|45:284,1,103.999995239258,2|12,1:2|0:2,0:2:0:0:
45,282,40005,1,0,1:2:0:0:
242,183,40172,2,0,P|282:213|282:263,1,103.999995239258,2|0,0:2|1:2,0:2:0:0:
248,356,40422,5,0,1:2:0:0:
245,346,40505,2,0,P|303:296|375:322,1,160,14|2,0:2|0:2,0:2:0:0:
374,321,41005,1,2,1:2:0:0:
336,150,41172,2,0,P|348:111|358:73,1,80,14|0,0:2|1:2,0:2:0:0:
512,244,41505,2,2,B|482:206|482:206|437:223,1,95.9999970703126,2|0,0:1|1:2,0:1:0:0:
165,337,41839,6,0,P|238:347|282:287,1,155.999992858887,14|0,0:2|0:2,0:2:0:0:
281,286,42172,1,0,1:2:0:0:
140,160,42339,6,0,B|96:166|72:211|91:218|74:260|28:273,1,167.999994873047,10|0,0:2|0:2,0:2:0:0:
27,273,42672,1,0,1:2:0:0:
63,29,42839,6,0,P|151:62|244:86,1,180.000006866455,10|0,0:2|0:2,0:2:0:0:
233,84,43172,6,0,L|252:6,1,80,12|0,0:2|1:2,0:2:0:0:
325,151,43505,1,2,0:2:0:0:
235,202,43672,1,2,1:2:0:0:
435,270,43839,2,0,P|474:258|516:254,1,80,14|0,0:2|1:2,0:2:0:0:
494,122,44172,2,0,P|456:129|407:135,1,80,2|0,0:2|1:2,0:2:0:0:
287,366,44505,6,0,P|321:328|313:279,2,103.999995239258,14|0|0,0:2|1:2|0:2,0:2:0:0:
122,225,45005,1,2,1:2:0:0:
122,225,45089,1,0,1:2:0:0:
122,225,45172,2,0,P|83:257|86:307,1,103.999995239258,14|0,0:2|1:2,0:2:0:0:
329,164,45505,2,0,P|238:168|202:85,1,192,2|0,0:2|0:2,0:2:0:0:
277,6,45839,6,0,L|290:88,1,80,14|0,0:2|1:2,0:2:0:0:
118,121,46172,1,2,0:2:0:0:
118,121,46339,1,2,1:2:0:0:
298,275,46505,1,14,0:2:0:0:
187,326,46672,1,2,1:2:0:0:
271,186,46839,2,0,B|313:164|313:164|352:202,1,95.9999970703126,2|0,0:1|1:2,0:2:0:0:
50,374,47172,6,0,P|32:297|9:223,1,155.999992858887,14|0,0:2|0:2,0:2:0:0:
9,223,47505,1,0,1:2:0:0:
213,44,47672,6,0,P|194:125|183:209,1,167.999994873047,10|0,0:2|0:2,0:2:0:0:
182,209,48005,1,0,1:2:0:0:
363,323,48172,6,0,B|416:362|482:351|519:301|508:221|438:222|423:278|471:284,1,240.000009155274,14|0,0:2|0:2,0:2:0:0:
457,279,48839,6,0,P|468:234|468:206,1,64,2|0,0:2|3:2,0:2:0:0:
402,161,49172,2,0,B|330:172|356:199|288:215,1,128,2|0,0:2|0:2,0:2:0:0:
61,88,49839,1,2,0:2:0:0:
122,29,50005,2,0,P|154:44|188:53,1,64,2|0,0:2|3:2,0:2:0:0:
222,125,50339,2,0,P|195:182|180:245,1,128,2|0,0:2|0:2,0:2:0:0:
87,265,50839,2,0,L|103:326,1,64,2|0,0:2|3:2,0:2:0:0:
219,374,51172,6,0,P|302:324|396:307,1,192,2|0,3:2|0:2,0:2:0:0:
411,217,51839,1,0,3:2:0:0:
411,217,52172,2,0,P|441:228|472:234,1,64,2|0,0:2|0:2,0:2:0:0:
384,123,52505,2,0,P|409:62|418:-2,1,128,2|0,0:2|3:2,0:2:0:0:
417,0,53005,1,2,0:2:0:0:
287,139,53172,2,0,P|267:131|243:124,3,32,0|0|0|0,3:2|3:2|3:2|3:2,0:2:0:0:
216,55,53505,1,0,3:2:0:0:
208,53,53589,1,0,3:2:0:0:
200,51,53672,1,0,3:2:0:0:
192,50,53755,1,0,3:2:0:0:
316,337,54172,5,2,3:2:0:0:
314,347,54255,1,0,3:2:0:0:
312,356,54339,1,0,3:2:0:0:
310,364,54422,1,0,3:2:0:0:
309,375,54505,2,0,L|255:362,1,47.9999985351563,2|0,3:2|3:2,0:2:0:0:
133,270,54672,2,0,L|184:246,1,47.9999985351563,2|0,3:2|3:2,0:2:0:0:
287,142,54839,2,0,L|309:218,1,71.9999978027344,2|0,0:2|0:2,0:2:0:0:
262,274,55172,6,0,P|321:229|390:258,1,155.999992858887,6|0,1:2|0:2,0:2:0:0:
463,338,55505,2,0,P|475:288|493:239,1,103.999995239258,10|0,0:2|0:2,0:2:0:0:
292,0,55839,1,2,1:2:0:0:
307,211,56005,1,0,1:2:0:0:
512,97,56172,2,0,L|413:65,1,103.999995239258,12|0,1:2|0:2,0:2:0:0:
241,295,56505,5,6,1:2:0:0:
152,77,56672,2,0,L|123:177,1,103.999995239258,2|8,0:2|0:2,0:2:0:0:
333,356,57005,1,2,0:2:0:0:
471,237,57172,1,0,1:2:0:0:
333,356,57339,1,0,1:2:0:0:
333,129,57505,2,0,B|380:109|380:109|413:157,1,103.999995239258,12|2,0:2|1:2,0:2:0:0:
160,363,57839,6,0,B|78:345|115:299|31:281,1,155.999992858887,6|0,1:2|0:2,0:2:0:0:
33,281,58172,1,10,0:2:0:0:
140,128,58339,1,2,0:2:0:0:
190,264,58505,1,2,1:2:0:0:
9,158,58672,1,2,1:2:0:0:
201,35,58839,1,10,0:2:0:0:
9,158,59005,1,2,1:2:0:0:
233,343,59172,6,0,P|283:328|347:316,1,103.999995239258,6|0,1:2|0:2,0:2:0:0:
512,179,59505,1,10,0:2:0:0:
292,90,59672,1,2,1:2:0:0:
454,304,59839,2,0,B|449:221|403:256|396:164,1,155.999992858887,2|0,0:2|0:2,0:2:0:0:
384,56,60172,2,0,P|433:52|465:91,1,103.999995239258,10|0,0:2|1:2,0:2:0:0:
326,353,60505,6,0,P|251:341|220:273,1,155.999992858887,4|0,1:2|0:2,0:2:0:0:
135,202,60839,2,0,P|125:253|109:305,1,103.999995239258,10|0,0:2|0:2,0:2:0:0:
384,225,61172,1,2,1:2:0:0:
216,76,61339,1,0,1:2:0:0:
384,225,61505,2,0,P|447:185|442:111,1,155.999992858887,12|0,0:2|0:2,0:2:0:0:
461,0,61839,6,0,P|427:93|331:87,1,207.999990478516,6|10,1:2|0:2,0:2:0:0:
87,222,62339,2,0,P|74:165|60:119,1,103.999995239258,2|0,0:2|1:2,0:2:0:0:
251,203,62672,1,0,1:2:0:0:
71,384,62839,2,0,B|103:340|103:340|150:352,1,103.999995239258,12|2,0:2|1:2,0:2:0:0:
363,143,63172,5,6,1:2:0:0:
446,361,63339,1,2,0:2:0:0:
275,287,63505,1,10,0:2:0:0:
512,115,63672,1,2,0:2:0:0:
512,115,63755,1,2,0:2:0:0:
512,115,63839,2,0,P|500:160|493:222,1,103.999995239258,2|0,1:2|1:2,0:2:0:0:
149,103,64172,2,0,P|223:99|253:31,1,155.999992858887,10|0,0:2|0:2,0:2:0:0:
253,31,64505,5,2,1:2:0:0:
217,302,64672,1,8,0:2:0:0:
407,124,64839,1,2,1:2:0:0:
60,86,65005,1,0,1:2:0:0:
60,86,65089,1,0,1:2:0:0:
60,86,65172,2,0,P|72:136|82:187,1,103.999995239258,10|0,0:2|1:2,0:2:0:0:
245,384,65505,1,10,0:2:0:0:
360,237,65672,5,0,1:2:0:0:
360,237,65755,1,0,1:2:0:0:
360,237,65839,2,0,B|404:228|431:256|431:256|446:303|485:305,1,155.999992858887,6|0,1:2|0:2,0:2:0:0:
485,305,66172,1,10,0:2:0:0:
350,126,66339,1,0,1:2:0:0:
350,126,66422,1,0,1:2:0:0:
350,126,66505,1,10,0:2:0:0:
198,319,66672,1,2,1:2:0:0:
48,173,66839,2,0,P|62:112|69:56,1,103.999995239258,10|0,0:2|0:0,0:2:0:0:
292,297,67172,6,0,P|233:217|136:235,1,207.999990478516,14|8,0:2|0:2,0:2:0:0:
298,51,67672,1,2,1:2:0:0:
408,266,67839,1,8,0:2:0:0:
512,130,68005,1,0,1:2:0:0:
512,130,68089,1,0,1:2:0:0:
512,130,68172,1,8,0:2:0:0:
299,158,68339,1,0,1:2:0:0:
487,366,68505,5,14,0:2:0:0:
487,366,68839,2,0,P|503:314|512:266,1,103.999995239258,10|0,0:2|0:2,0:2:0:0:
191,140,69172,1,10,0:2:0:0:
296,365,69339,1,0,1:2:0:0:
396,157,69505,1,10,0:2:0:0:
90,319,69672,5,0,1:2:0:0:
90,319,69755,1,0,1:2:0:0:
90,319,69839,2,0,P|68:217|41:116,1,207.999990478516,14|8,0:2|0:2,0:2:0:0:
347,20,70339,1,2,0:2:0:0:
295,276,70505,1,8,0:2:0:0:
146,132,70672,1,0,1:2:0:0:
420,104,70839,1,8,0:2:0:0:
266,136,71005,5,0,1:2:0:0:
266,136,71089,1,0,1:2:0:0:
266,136,71172,2,0,B|347:145|318:193|398:209,1,155.999992858887,12|0,0:2|0:2,0:2:0:0:
491,270,71505,2,0,P|499:219|515:156,1,103.999995239258,10|0,0:2|0:2,0:2:0:0:
230,233,71839,1,10,0:2:0:0:
429,350,72005,1,0,1:2:0:0:
429,350,72089,1,0,1:2:0:0:
429,350,72172,1,10,0:2:0:0:
430,113,72339,1,0,1:2:0:0:
430,113,72422,1,0,1:2:0:0:
430,113,72505,5,12,0:2:0:0:
299,269,72672,1,2,0:2:0:0:
174,107,72839,2,0,P|224:97|274:81,1,103.999995239258,10|0,0:2|0:2,0:2:0:0:
340,359,73172,2,0,P|288:367|238:383,1,103.999995239258,10|0,0:2|1:2,0:2:0:0:
39,154,73505,1,10,0:2:0:0:
6,323,73672,1,0,1:2:0:0:
6,323,73755,1,0,1:2:0:0:
6,323,73839,6,0,P|103:303|134:209,1,207.999990478516,14|8,0:2|0:2,0:2:0:0:
316,47,74339,1,2,0:2:0:0:
181,0,74505,2,0,P|197:44|216:111,1,103.999995239258,8|0,0:2|1:2,0:2:0:0:
425,293,74839,1,8,0:2:0:0:
505,68,75005,1,2,1:2:0:0:
425,293,75172,6,0,B|345:298|379:337|297:350,1,143.999995605469,8|0,1:2|0:2,0:2:0:0:
297,350,75839,1,2,0:2:0:0:
231,158,76089,1,2,0:2:0:0:
297,350,76339,1,2,0:2:0:0:
155,305,76505,6,0,L|130:228,1,71.9999978027344,8|0,1:2|0:2,0:2:0:0:
344,39,76839,2,0,L|366:108,1,71.9999978027344,8|0,1:2|0:2,0:2:0:0:
341,223,77172,1,2,0:2:0:0:
341,223,77255,1,2,0:0:0:0:
235,162,77422,1,2,0:2:0:0:
235,162,77505,1,2,0:2:0:0:
141,103,77672,1,2,0:2:0:0:
141,103,77755,1,2,0:2:0:0:
141,103,77839,5,10,0:2:0:0:
367,109,78005,1,4,0:3:0:0:
190,255,78172,1,4,0:3:0:0:
235,36,78339,1,12,0:3:0:0:
412,231,78505,6,0,L|401:299,1,58.6666684570313,8|8,0:2|0:2,0:2:0:0:
77,265,78728,1,8,0:2:0:0:
77,265,78839,1,8,0:2:0:0:
77,265,78950,2,0,L|87:197,1,58.6666684570313,8|8,0:2|0:2,0:2:0:0:
255,90,79172,6,0,B|299:119|298:186|249:239|232:194|188:270|199:334|237:351,1,300,6|0,1:2|0:2,0:2:0:0:
237,351,80505,5,12,0:2:0:0:
177,147,80672,1,0,1:2:0:0:
177,147,81005,1,0,1:2:0:0:
319,289,81172,1,8,0:2:0:0:
401,239,81339,1,4,0:3:0:0:
401,230,81422,1,4,0:3:0:0:
402,221,81505,1,4,0:3:0:0:
402,213,81589,1,4,0:3:0:0:
403,205,81672,1,4,0:3:0:0:
304,383,81839,5,6,1:2:0:0:
304,383,82172,2,0,P|350:339|413:346,1,132.00000402832,10|0,0:2|0:2,0:2:0:0:
413,346,82505,1,2,1:2:0:0:
150,289,82672,2,0,P|138:244|114:185,1,88.000002685547,2|8,1:2|0:2,0:2:0:0:
333,67,83005,1,2,0:2:0:0:
272,232,83172,1,2,1:2:0:0:
272,232,83339,1,2,0:2:0:0:
207,35,83505,5,10,0:2:0:0:
427,152,83672,2,0,P|468:136|510:126,1,88.000002685547,2|0,0:2|1:2,0:2:0:0:
415,28,84005,1,2,1:2:0:0:
335,297,84172,1,10,0:2:0:0:
183,149,84339,1,6,1:2:0:0:
356,194,84505,5,10,0:2:0:0:
190,367,84672,1,0,1:2:0:0:
190,367,84755,1,0,1:2:0:0:
190,367,84839,1,10,0:2:0:0:
72,198,85005,1,2,1:2:0:0:
310,53,85172,5,10,0:2:0:0:
301,96,85283,1,8,0:2:0:0:
290,138,85394,1,8,0:2:0:0:
281,175,85505,1,4,0:3:0:0:
265,220,85617,2,4,P|235:207|200:199,1,58.6666684570313,4|4,0:3|0:3,0:3:0:0:
395,51,85839,2,0,P|445:71|484:78,1,88.000002685547,4|2,0:3|0:2,0:2:0:0:
434,307,86172,5,6,1:2:0:0:
256,192,86255,12,0,88505,0:2:0:0:
