osu file format v14

[General]
AudioFilename: Theme of Miki Sayaka.mp3
AudioLeadIn: 2000
PreviewTime: 101100
Countdown: 0
SampleSet: Soft
StackLeniency: 0.2
Mode: 3
LetterboxInBreaks: 0
SpecialStyle: 1
WidescreenStoryboard: 1

[Editor]
DistanceSpacing: 1
BeatDivisor: 16
GridSize: 16
TimelineZoom: 1.7

[Metadata]
Title:Theme of Miki Sayaka
TitleUnicode:Theme of Miki Sayaka
Artist:Ice
ArtistUnicode:Ice
Creator:Kamikaze
Version:Hope
Source:魔法少女まどか☆マギカ
Tags:Puella Magi Madoka Magica soundtrack bgm Kajiura Yuki piano
BeatmapID:1706486
BeatmapSetID:813725

[Difficulty]
HPDrainRate:8
CircleSize:8
OverallDifficulty:8
ApproachRate:7
SliderMultiplier:0.96
SliderTickRate:1

[Events]
//Background and Video events
Video,-1400,"Theme of Miki Sayaka.avi"
0,0,"wersja_5.png",0,0
//Break Periods
//Storyboard Layer 0 (Background)
//Storyboard Layer 1 (Fail)
//Storyboard Layer 2 (Pass)
//Storyboard Layer 3 (Foreground)
//Storyboard Sound Samples

[TimingPoints]
-600,600,3,2,1,40,1,0
0,-76.9230769230769,3,2,1,40,0,0
76500,-76.9230769230769,3,2,1,30,0,0
86850,375,3,2,1,40,1,0
87787,-100,3,2,1,60,0,0
87975,375,3,2,1,40,1,0
119475,-100,3,2,1,60,0,1
137475,-100,3,2,1,60,0,0
155475,-100,3,2,1,60,0,1
175162,-100,3,2,1,55,0,1
175678,-100,3,2,1,55,0,0
175725,-100,3,2,1,55,0,1
177928,-100,3,2,1,65,0,0
177975,-100,3,2,1,65,0,1
180178,-100,3,2,1,75,0,0
180225,-100,3,2,1,75,0,1
182428,-100,3,2,1,75,0,0
182475,-100,3,2,1,75,0,1
182662,-100,3,2,1,5,0,0

[HitObjects]
96,192,600,5,2,0:0:0:0:
32,192,1200,1,8,0:0:0:0:
224,192,1200,1,2,0:0:0:0:
288,192,1200,1,0,0:0:0:0:
160,192,1800,1,0,0:0:0:0:
288,192,2400,1,2,0:0:0:0:
32,192,3000,1,8,0:0:0:0:
224,192,3000,1,2,0:0:0:0:
160,192,3000,1,0,0:0:0:0:
288,192,3600,1,0,0:0:0:0:
352,192,3900,1,2,0:0:0:0:
480,192,4200,1,2,0:0:0:0:
32,192,4800,1,8,0:0:0:0:
224,192,4800,1,2,0:0:0:0:
288,192,4800,1,0,0:0:0:0:
160,192,5400,1,0,0:0:0:0:
288,192,5700,1,2,0:0:0:0:
160,192,6000,1,2,0:0:0:0:
32,192,6600,1,8,0:0:0:0:
224,192,6600,1,0,0:0:0:0:
96,192,6600,128,2,8400:0:0:0:0:
96,192,9600,1,2,0:0:0:0:
32,192,10200,1,8,0:0:0:0:
224,192,10200,1,2,0:0:0:0:
288,192,10200,1,0,0:0:0:0:
160,192,10800,1,0,0:0:0:0:
288,192,11400,1,2,0:0:0:0:
32,192,12000,1,8,0:0:0:0:
224,192,12000,1,2,0:0:0:0:
96,192,12000,1,0,0:0:0:0:
288,192,12600,1,0,0:0:0:0:
352,192,12900,1,2,0:0:0:0:
480,192,13200,1,2,0:0:0:0:
32,192,13800,1,8,0:0:0:0:
224,192,13800,1,2,0:0:0:0:
288,192,13800,1,0,0:0:0:0:
160,192,14400,1,0,0:0:0:0:
288,192,14700,1,2,0:0:0:0:
160,192,15000,1,2,0:0:0:0:
32,192,15600,1,8,0:0:0:0:
224,192,15600,1,0,0:0:0:0:
96,192,15600,128,2,17400:0:0:0:0:
96,192,18600,1,2,0:0:0:0:
32,192,19200,1,8,0:0:0:0:
224,192,19200,1,2,0:0:0:0:
288,192,19200,1,0,0:0:0:0:
160,192,19800,1,0,0:0:0:0:
288,192,20400,1,2,0:0:0:0:
32,192,21000,1,8,0:0:0:0:
224,192,21000,1,2,0:0:0:0:
96,192,21000,1,0,0:0:0:0:
288,192,21600,1,0,0:0:0:0:
352,192,21900,1,2,0:0:0:0:
480,192,22200,1,2,0:0:0:0:
32,192,22800,1,8,0:0:0:0:
224,192,22800,1,2,0:0:0:0:
288,192,22800,1,0,0:0:0:0:
160,192,23400,1,0,0:0:0:0:
288,192,23700,1,2,0:0:0:0:
416,192,24000,1,2,0:0:0:0:
32,192,24600,1,8,0:0:0:0:
480,192,24600,1,2,0:0:0:0:
288,192,24600,1,0,0:0:0:0:
32,192,25200,1,8,0:0:0:0:
352,192,25200,1,2,0:0:0:0:
480,192,25200,1,0,0:0:0:0:
32,192,25800,1,8,0:0:0:0:
224,192,25800,1,2,0:0:0:0:
288,192,25800,1,0,0:0:0:0:
32,192,26400,1,8,0:0:0:0:
96,192,26400,1,2,0:0:0:0:
160,192,26400,1,0,0:0:0:0:
288,192,27000,1,0,0:0:0:0:
96,192,27600,1,2,0:0:0:0:
160,192,27600,1,0,0:0:0:0:
224,192,27600,1,0,0:0:0:0:
32,192,28200,1,8,0:0:0:0:
224,192,28200,1,2,0:0:0:0:
96,192,28200,1,0,0:0:0:0:
288,192,28800,1,0,0:0:0:0:
352,192,29100,1,2,0:0:0:0:
480,192,29400,1,2,0:0:0:0:
416,192,29400,1,0,0:0:0:0:
32,192,30000,1,8,0:0:0:0:
224,192,30000,1,2,0:0:0:0:
288,192,30000,1,0,0:0:0:0:
160,192,30600,1,0,0:0:0:0:
288,192,30900,1,2,0:0:0:0:
160,192,31200,1,2,0:0:0:0:
160,192,31800,128,4,33600:0:0:0:0:
32,192,31800,1,8,0:0:0:0:
224,192,31800,1,0,0:0:0:0:
96,192,31800,128,2,33600:0:0:0:0:
96,192,34800,1,2,0:0:0:0:
32,192,35400,1,8,0:0:0:0:
160,192,35400,1,0,0:0:0:0:
224,192,35400,1,2,0:0:0:0:
288,192,35400,1,0,0:0:0:0:
352,192,36000,1,2,0:0:0:0:
288,192,36600,1,2,0:0:0:0:
32,192,37200,1,8,0:0:0:0:
224,192,37200,1,2,0:0:0:0:
416,192,37200,1,0,0:0:0:0:
96,192,37200,1,0,0:0:0:0:
160,192,37800,1,2,0:0:0:0:
96,192,38400,1,2,0:0:0:0:
32,192,39000,1,8,0:0:0:0:
160,192,39000,1,0,0:0:0:0:
288,192,39000,1,2,0:0:0:0:
224,192,39600,1,0,0:0:0:0:
288,192,39900,1,2,0:0:0:0:
160,192,40200,1,2,0:0:0:0:
288,192,40650,1,0,0:0:0:0:
352,192,40725,1,0,0:0:0:0:
416,192,40762,1,0,0:0:0:0:
32,192,40800,1,8,0:0:0:0:
480,192,40800,1,0,0:0:0:0:
96,192,40800,128,2,44400:0:0:0:0:
96,192,45600,5,2,0:0:0:0:
32,192,46200,5,8,0:0:0:0:
224,192,46200,1,2,0:0:0:0:
352,192,46200,1,0,0:0:0:0:
416,192,46500,1,0,0:0:0:0:
160,192,46800,1,0,0:0:0:0:
288,192,47400,1,2,0:0:0:0:
224,192,48000,1,0,0:0:0:0:
160,192,48000,1,2,0:0:0:0:
288,192,48300,1,0,0:0:0:0:
416,192,48600,1,0,0:0:0:0:
352,192,48900,1,2,0:0:0:0:
480,192,49200,1,2,0:0:0:0:
32,192,49800,1,8,0:0:0:0:
224,192,49800,1,2,0:0:0:0:
352,192,49800,1,0,0:0:0:0:
416,192,50100,1,0,0:0:0:0:
160,192,50400,1,0,0:0:0:0:
288,192,50700,1,2,0:0:0:0:
416,192,51000,1,2,0:0:0:0:
224,192,51600,1,2,0:0:0:0:
288,192,51600,1,0,0:0:0:0:
352,192,51900,1,0,0:0:0:0:
160,192,52200,1,2,0:0:0:0:
416,192,52200,1,0,0:0:0:0:
96,192,52800,1,2,0:0:0:0:
32,192,53400,1,8,0:0:0:0:
224,192,53400,1,2,0:0:0:0:
352,192,53400,1,0,0:0:0:0:
416,192,53700,1,0,0:0:0:0:
160,192,54000,1,0,0:0:0:0:
96,192,54600,1,2,0:0:0:0:
32,192,55200,1,8,0:0:0:0:
224,192,55200,1,2,0:0:0:0:
288,192,55200,1,0,0:0:0:0:
352,192,55500,1,0,0:0:0:0:
416,192,55800,1,0,0:0:0:0:
352,192,56100,1,2,0:0:0:0:
480,192,56400,1,2,0:0:0:0:
32,192,57000,1,8,0:0:0:0:
96,192,57000,1,2,0:0:0:0:
352,192,57000,1,0,0:0:0:0:
416,192,57300,1,0,0:0:0:0:
160,192,57600,1,0,0:0:0:0:
288,192,57900,1,2,0:0:0:0:
416,192,58200,1,2,0:0:0:0:
32,192,58800,1,8,0:0:0:0:
480,192,58800,1,2,0:0:0:0:
224,192,58800,1,0,0:0:0:0:
288,192,59100,1,0,0:0:0:0:
224,192,59250,1,0,0:0:0:0:
160,192,59400,1,0,0:0:0:0:
416,192,59400,1,2,0:0:0:0:
96,192,60000,1,0,0:0:0:0:
288,192,60000,1,2,0:0:0:0:
224,192,60600,1,2,0:0:0:0:
352,192,60600,1,0,0:0:0:0:
416,192,60900,1,0,0:0:0:0:
160,192,61200,1,0,0:0:0:0:
96,192,61800,1,2,0:0:0:0:
224,192,62400,1,2,0:0:0:0:
288,192,62400,1,0,0:0:0:0:
352,192,62700,1,0,0:0:0:0:
416,192,63000,1,0,0:0:0:0:
352,192,63300,1,2,0:0:0:0:
480,192,63600,5,2,0:0:0:0:
32,192,64200,5,8,0:0:0:0:
96,192,64200,1,2,0:0:0:0:
352,192,64200,1,0,0:0:0:0:
416,192,64500,1,0,0:0:0:0:
160,192,64800,1,0,0:0:0:0:
288,192,65100,1,2,0:0:0:0:
160,192,65400,1,2,0:0:0:0:
32,192,66000,1,8,0:0:0:0:
96,192,66000,1,2,0:0:0:0:
288,192,66000,1,0,0:0:0:0:
352,192,66300,1,0,0:0:0:0:
32,192,66600,1,8,0:0:0:0:
416,192,66600,1,0,0:0:0:0:
32,192,67800,1,8,0:0:0:0:
224,192,67800,1,2,0:0:0:0:
288,192,67800,1,0,0:0:0:0:
352,192,68100,1,0,0:0:0:0:
32,192,68400,1,8,0:0:0:0:
224,192,68400,1,2,0:0:0:0:
416,192,68400,1,0,0:0:0:0:
288,192,68700,1,2,0:0:0:0:
224,192,69000,1,2,0:0:0:0:
32,192,69600,1,8,0:0:0:0:
160,192,69600,1,0,0:0:0:0:
288,192,69600,1,2,0:0:0:0:
32,192,70200,1,8,0:0:0:0:
224,192,70200,1,0,0:0:0:0:
160,192,70500,1,2,0:0:0:0:
96,192,70800,1,2,0:0:0:0:
32,192,71400,1,8,0:0:0:0:
224,192,71400,1,0,0:0:0:0:
352,192,71400,1,2,0:0:0:0:
160,192,71700,1,0,0:0:0:0:
32,192,72000,1,8,0:0:0:0:
288,192,72000,1,2,0:0:0:0:
96,192,72000,1,0,0:0:0:0:
32,192,72600,1,8,0:0:0:0:
224,192,72600,1,2,0:0:0:0:
352,192,72600,1,0,0:0:0:0:
32,192,73200,1,8,0:0:0:0:
96,192,73200,128,2,76200:0:0:0:0:
160,192,73200,128,4,76200:0:0:0:0:
288,192,76725,1,0,0:0:0:0:
352,192,76762,1,0,0:0:0:0:
416,192,76800,1,0,0:0:0:0:
480,192,76800,1,0,0:0:0:0:
288,192,77400,1,0,0:0:0:0:
352,192,77400,1,0,0:0:0:0:
288,192,77962,1,0,0:0:0:0:
224,192,78000,1,0,0:0:0:0:
160,192,78600,1,0,0:0:0:0:
224,192,78600,1,0,0:0:0:0:
96,192,79200,1,0,0:0:0:0:
160,192,79200,1,0,0:0:0:0:
480,192,79200,1,2,0:0:0:0:
96,192,79800,1,0,0:0:0:0:
288,192,79800,1,0,0:0:0:0:
416,192,79800,1,2,0:0:0:0:
32,192,80775,5,0,0:0:0:0:
96,192,80812,1,2,0:0:0:0:
160,192,80850,1,0,0:0:0:0:
288,192,80950,128,2,85200:0:0:0:0:
416,192,80950,128,0,84000:0:0:0:0:
352,192,81150,128,0,84000:0:0:0:0:
224,192,81150,128,2,85200:0:0:0:0:
96,192,87600,5,2,0:0:0:0:
32,192,87975,5,8,0:0:0:0:
224,192,87975,1,2,0:0:0:0:
288,192,87975,1,0,0:0:0:0:
352,192,88162,1,0,0:0:0:0:
288,192,88537,1,0,0:0:0:0:
160,192,88725,1,2,0:0:0:0:
224,192,88725,1,0,0:0:0:0:
96,192,88912,1,0,0:0:0:0:
224,192,89100,1,2,0:0:0:0:
352,192,89100,1,0,0:0:0:0:
160,192,89287,1,0,0:0:0:0:
224,192,89475,1,0,0:0:0:0:
352,192,89662,1,2,0:0:0:0:
288,192,89662,1,0,0:0:0:0:
480,192,89850,1,2,0:0:0:0:
416,192,89850,1,0,0:0:0:0:
224,192,90037,1,0,0:0:0:0:
160,192,90225,1,0,0:0:0:0:
96,192,90225,1,2,0:0:0:0:
224,192,90412,1,0,0:0:0:0:
416,192,90600,1,0,0:0:0:0:
288,192,90787,1,2,0:0:0:0:
480,192,90787,1,0,0:0:0:0:
160,192,90975,1,2,0:0:0:0:
352,192,90975,1,0,0:0:0:0:
224,192,91162,1,0,0:0:0:0:
96,192,91350,1,2,0:0:0:0:
160,192,91350,1,0,0:0:0:0:
352,192,91537,1,0,0:0:0:0:
288,192,91912,1,0,0:0:0:0:
96,192,92100,1,2,0:0:0:0:
224,192,92100,1,0,0:0:0:0:
160,192,92287,1,0,0:0:0:0:
224,192,92475,1,2,0:0:0:0:
352,192,92475,1,0,0:0:0:0:
288,192,92662,1,0,0:0:0:0:
352,192,92850,1,0,0:0:0:0:
416,192,93037,1,0,0:0:0:0:
160,192,93225,1,2,0:0:0:0:
352,192,93225,1,0,0:0:0:0:
288,192,93412,1,0,0:0:0:0:
224,192,93600,1,2,0:0:0:0:
96,192,93600,1,0,0:0:0:0:
288,192,93787,1,0,0:0:0:0:
416,192,93975,1,0,0:0:0:0:
352,192,94162,1,2,0:0:0:0:
224,192,94162,1,0,0:0:0:0:
480,192,94350,1,2,0:0:0:0:
96,192,94350,1,0,0:0:0:0:
288,192,94537,1,0,0:0:0:0:
224,192,94725,1,2,0:0:0:0:
160,192,94725,1,0,0:0:0:0:
352,192,94912,1,0,0:0:0:0:
416,192,95100,1,0,0:0:0:0:
288,192,95287,1,2,0:0:0:0:
480,192,95287,1,0,0:0:0:0:
416,192,95475,1,2,0:0:0:0:
224,192,95475,1,0,0:0:0:0:
160,192,95662,1,0,0:0:0:0:
352,192,95850,1,2,0:0:0:30:
480,192,95850,1,2,0:0:0:30:
96,192,95850,1,0,0:0:0:0:
224,192,96037,1,0,0:0:0:0:
288,192,96225,1,2,0:0:0:30:
416,192,96225,1,2,0:0:0:30:
160,192,96412,1,0,0:0:0:0:
224,192,96600,1,2,0:0:0:30:
352,192,96600,1,2,0:0:0:30:
96,192,96600,1,0,0:0:0:0:
96,192,96787,1,0,0:0:0:0:
160,192,96975,1,2,0:0:0:30:
288,192,96975,1,2,0:0:0:30:
96,192,96975,1,0,0:0:0:0:
352,192,97162,1,0,0:0:0:0:
416,192,97350,1,0,0:0:0:0:
480,192,97537,1,0,0:0:0:0:
96,192,97725,1,2,0:0:0:0:
288,192,97725,1,0,0:0:0:0:
352,192,97912,1,0,0:0:0:0:
224,192,98100,1,2,0:0:0:0:
416,192,98100,1,0,0:0:0:0:
288,192,98100,1,0,0:0:0:0:
160,192,98287,1,0,0:0:0:0:
224,192,98475,1,0,0:0:0:0:
352,192,98662,1,2,0:0:0:0:
288,192,98662,1,0,0:0:0:0:
480,192,98850,1,2,0:0:0:0:
416,192,98850,1,0,0:0:0:0:
352,192,99037,1,0,0:0:0:0:
96,192,99225,1,0,0:0:0:0:
224,192,99225,1,2,0:0:0:0:
288,192,99225,1,0,0:0:0:0:
352,192,99412,1,0,0:0:0:0:
416,192,99600,1,0,0:0:0:0:
288,192,99787,1,2,0:0:0:0:
480,192,99787,1,0,0:0:0:0:
160,192,99975,1,2,0:0:0:0:
352,192,99975,1,0,0:0:0:0:
288,192,100162,1,0,0:0:0:0:
96,192,100350,1,2,0:0:0:0:
224,192,100350,1,0,0:0:0:0:
352,192,100725,1,0,0:0:0:0:
224,192,100912,1,0,0:0:0:0:
96,192,101100,128,2,101475:0:0:0:0:
288,192,101100,1,0,0:0:0:0:
352,192,101287,1,0,0:0:0:0:
32,192,101475,5,4,0:0:0:0:
224,192,101475,128,2,102225:0:0:0:0:
416,192,101475,1,0,0:0:0:0:
480,192,101475,1,0,0:0:0:0:
288,192,101662,1,0,0:0:0:0:
352,192,101850,1,0,0:0:0:0:
480,192,102037,1,0,0:0:0:0:
160,192,102225,128,2,102600:0:0:0:0:
416,192,102225,1,0,0:0:0:0:
352,192,102412,1,0,0:0:0:0:
224,192,102600,128,2,103162:0:0:0:0:
288,192,102600,1,0,0:0:0:0:
480,192,102787,1,0,0:0:0:0:
352,192,103162,128,2,103725:0:0:0:0:
288,192,103162,1,0,0:0:0:0:
480,192,103350,128,2,103725:0:0:0:0:
96,192,103350,1,0,0:0:0:0:
96,192,103537,1,0,0:0:0:0:
32,192,103725,1,4,0:0:0:0:
160,192,103725,128,2,104287:0:0:0:0:
96,192,103725,1,0,0:0:0:0:
224,192,103725,1,0,0:0:0:0:
288,192,104287,128,2,104850:0:0:0:0:
480,192,104287,1,0,0:0:0:0:
160,192,104475,128,2,104850:0:0:0:0:
416,192,104475,1,0,0:0:0:0:
352,192,104662,1,0,0:0:0:0:
96,192,104850,128,2,105412:0:0:0:0:
224,192,104850,1,0,0:0:0:0:
288,192,105412,1,0,0:0:0:0:
96,192,105600,128,2,105975:0:0:0:0:
416,192,105600,1,0,0:0:0:0:
352,192,105787,1,0,0:0:0:0:
32,192,105975,1,4,0:0:0:0:
224,192,105975,128,2,106725:0:0:0:0:
288,192,105975,1,0,0:0:0:0:
480,192,105975,1,0,0:0:0:0:
352,192,106350,1,0,0:0:0:0:
480,192,106537,1,0,0:0:0:0:
160,192,106725,128,2,107100:0:0:0:0:
96,192,106725,1,0,0:0:0:0:
352,192,106912,1,0,0:0:0:0:
224,192,107100,128,2,107662:0:0:0:0:
288,192,107100,1,0,0:0:0:0:
480,192,107475,1,0,0:0:0:0:
352,192,107662,128,2,108225:0:0:0:0:
288,192,107662,1,0,0:0:0:0:
480,192,107850,128,2,108225:0:0:0:0:
96,192,107850,1,0,0:0:0:0:
96,192,108037,1,0,0:0:0:0:
32,192,108225,1,4,0:0:0:0:
224,192,108225,128,2,108787:0:0:0:0:
96,192,108225,1,0,0:0:0:0:
288,192,108412,1,0,0:0:0:0:
352,192,108600,1,0,0:0:0:0:
288,192,108787,128,2,109350:0:0:0:0:
480,192,108787,1,0,0:0:0:0:
416,192,108975,128,2,109350:0:0:0:0:
352,192,108975,1,0,0:0:0:0:
160,192,109162,1,0,0:0:0:0:
352,192,109350,128,2,109725:0:0:0:45:soft-hitwhistle.wav
480,192,109350,128,2,109725:0:0:0:45:soft-hitwhistle.wav
96,192,109350,1,0,0:0:0:0:
224,192,109537,1,0,0:0:0:0:
416,192,109725,128,2,110100:0:0:0:45:soft-hitwhistle.wav
288,192,109725,128,2,110100:0:0:0:45:soft-hitwhistle.wav
160,192,109912,1,0,0:0:0:0:
224,192,110100,128,2,110475:0:0:0:45:soft-hitwhistle.wav
352,192,110100,128,2,110475:0:0:0:45:soft-hitwhistle.wav
96,192,110100,1,0,0:0:0:0:
96,192,110287,1,0,0:0:0:0:
32,192,110475,1,4,0:0:0:0:
160,192,110475,128,2,111225:0:0:0:45:
288,192,110475,128,2,110850:0:0:0:45:
96,192,110475,1,0,0:0:0:0:
416,192,110662,1,0,0:0:0:0:
352,192,110850,1,0,0:0:0:0:
480,192,111037,1,0,0:0:0:0:
96,192,111225,128,2,111600:0:0:0:0:
288,192,111225,1,0,0:0:0:0:
352,192,111412,1,0,0:0:0:0:
224,192,111600,128,2,112162:0:0:0:0:
288,192,111600,1,0,0:0:0:0:
160,192,111787,1,0,0:0:0:0:
288,192,111975,1,0,0:0:0:0:
352,192,112162,128,2,112725:0:0:0:0:
416,192,112162,1,0,0:0:0:0:
480,192,112350,128,2,112725:0:0:0:0:
160,192,112350,1,0,0:0:0:0:
224,192,112537,1,0,0:0:0:0:
32,192,112725,1,4,0:0:0:0:
96,192,112725,128,2,113287:0:0:0:0:
160,192,112725,1,0,0:0:0:0:
352,192,113100,1,0,0:0:0:0:
288,192,113287,128,2,113850:0:0:0:0:
416,192,113287,1,0,0:0:0:0:
160,192,113475,128,2,113850:0:0:0:0:
480,192,113475,1,0,0:0:0:0:
416,192,113662,1,0,0:0:0:0:
96,192,113850,128,2,114412:0:0:0:0:
224,192,113850,1,0,0:0:0:0:
352,192,113850,1,0,0:0:0:0:
416,192,114225,1,0,0:0:0:0:
288,192,114412,1,0,0:0:0:0:
96,192,114600,128,2,114975:0:0:0:0:
160,192,114600,1,0,0:0:0:0:
224,192,114787,1,0,0:0:0:0:
32,192,114975,1,4,0:0:0:0:
288,192,114975,128,2,115350:0:0:0:0:
416,192,114975,1,0,0:0:0:0:
480,192,114975,1,0,0:0:0:0:
480,192,115256,1,0,0:0:0:0:
352,192,115350,128,2,115725:0:0:0:0:
160,192,115537,1,0,0:0:0:0:
288,192,115725,128,2,116100:0:0:0:0:
96,192,115725,1,0,0:0:0:0:
160,192,115912,1,0,0:0:0:0:
224,192,116100,128,2,116475:0:0:0:0:
416,192,116100,1,0,0:0:0:0:
160,192,116475,128,2,116850:0:0:0:0:
352,192,116475,1,0,0:0:0:0:
480,192,116662,1,0,0:0:0:0:
96,192,116850,128,2,117225:0:0:0:0:
288,192,116850,1,0,0:0:0:0:
416,192,117037,1,0,0:0:0:0:
32,192,117225,1,4,0:0:0:0:
288,192,117225,128,2,117975:0:0:0:0:
224,192,117225,1,0,0:0:0:0:
480,192,117225,1,0,0:0:0:0:
352,192,117412,1,0,0:0:0:0:
416,192,117600,1,0,0:0:0:0:
480,192,117787,1,0,0:0:0:0:
96,192,117975,128,2,118162:0:0:0:0:
352,192,117975,1,0,0:0:0:0:
160,192,118162,128,2,118350:0:0:0:0:
288,192,118162,1,0,0:0:0:0:
96,192,118350,128,2,118912:0:0:0:0:
224,192,118350,1,0,0:0:0:0:
224,192,118912,128,2,119475:0:0:0:0:
352,192,118912,1,0,0:0:0:0:
288,192,119100,128,2,119475:0:0:0:0:
416,192,119100,1,0,0:0:0:0:
352,192,119287,128,2,119475:0:0:0:0:
480,192,119287,1,0,0:0:0:0:
32,192,119475,1,4,0:0:0:0:
416,192,119475,128,2,120037:0:0:0:0:
96,192,119475,1,0,0:0:0:0:
160,192,119662,1,0,0:0:0:0:
288,192,120037,128,2,120600:0:0:0:0:
160,192,120037,1,0,0:0:0:0:
416,192,120225,128,2,120600:0:0:0:0:
224,192,120225,1,0,0:0:0:0:
96,192,120412,1,0,0:0:0:0:
224,192,120600,128,2,120975:0:0:0:0:
160,192,120600,1,0,0:0:0:0:
96,192,120787,1,0,0:0:0:0:
480,192,120975,128,2,121350:0:0:0:0:
160,192,121162,1,0,0:0:0:0:
224,192,121350,128,2,121725:0:0:0:0:
96,192,121350,1,0,0:0:0:0:
288,192,121537,1,0,0:0:0:0:
32,192,121725,1,4,0:0:0:0:
160,192,121725,128,2,122287:0:0:0:0:
96,192,121725,1,0,0:0:0:0:
416,192,121725,1,0,0:0:0:0:
352,192,122100,1,0,0:0:0:0:
288,192,122287,128,2,122850:0:0:0:0:
224,192,122287,1,0,0:0:0:0:
160,192,122475,128,2,122850:0:0:0:0:
352,192,122475,1,0,0:0:0:0:
416,192,122662,1,0,0:0:0:0:
96,192,122850,128,2,123600:0:0:0:0:
352,192,122850,1,0,0:0:0:0:
224,192,123037,1,0,0:0:0:0:
416,192,123225,1,0,0:0:0:0:
480,192,123412,1,0,0:0:0:0:
224,192,123600,128,2,123975:0:0:0:0:
352,192,123600,1,0,0:0:0:0:
416,192,123787,1,0,0:0:0:0:
32,192,123975,1,4,0:0:0:0:
96,192,123975,128,2,125100:0:0:0:0:
480,192,123975,1,0,0:0:0:0:
288,192,123975,1,0,0:0:0:0:
352,192,124162,1,0,0:0:0:0:
160,192,124350,128,2,125100:0:0:0:0:
416,192,124350,1,0,0:0:0:0:
480,192,124537,1,0,0:0:0:0:
224,192,124725,128,2,125100:0:0:0:0:
416,192,124912,1,0,0:0:0:0:
288,192,125100,128,2,126225:0:0:0:0:
352,192,125100,1,0,0:0:0:0:
352,192,125475,128,2,126225:0:0:0:0:
160,192,125662,1,0,0:0:0:0:
416,192,125850,128,2,126225:0:0:0:0:
224,192,125850,1,0,0:0:0:0:
160,192,126037,1,0,0:0:0:0:
32,192,126225,1,4,0:0:0:0:
480,192,126225,128,2,126787:0:0:0:0:
96,192,126225,1,0,0:0:0:0:
224,192,126412,1,0,0:0:0:0:
160,192,126600,1,0,0:0:0:0:
352,192,126787,128,2,127350:0:0:0:0:
288,192,126787,1,0,0:0:0:0:
480,192,126975,128,2,127350:0:0:0:0:
96,192,126975,1,0,0:0:0:0:
160,192,127162,1,0,0:0:0:0:
224,192,127350,128,2,128475:0:0:0:0:
96,192,127350,1,0,0:0:0:0:
160,192,127725,128,2,128475:0:0:0:0:
416,192,127725,1,0,0:0:0:0:
480,192,127912,1,0,0:0:0:0:
96,192,128100,128,2,128475:0:0:0:0:
288,192,128100,1,0,0:0:0:0:
352,192,128287,1,0,0:0:0:0:
32,192,128475,1,4,0:0:0:0:
288,192,128475,128,2,129037:0:0:0:0:
480,192,128475,1,0,0:0:0:0:
416,192,128475,1,0,0:0:0:0:
352,192,128662,1,0,0:0:0:0:
160,192,128850,1,0,0:0:0:0:
416,192,129037,128,2,129600:0:0:0:0:
224,192,129037,1,0,0:0:0:0:
288,192,129225,128,2,129600:0:0:0:0:
96,192,129225,1,0,0:0:0:0:
160,192,129412,1,0,0:0:0:0:
224,192,129600,128,2,130725:0:0:0:0:
96,192,129787,1,0,0:0:0:0:
480,192,129975,128,2,130725:0:0:0:0:
160,192,130162,1,0,0:0:0:0:
96,192,130350,1,0,0:0:0:0:
352,192,130537,1,0,0:0:0:0:
32,192,130725,1,4,0:0:0:0:
160,192,130725,128,2,131287:0:0:0:0:
288,192,130725,1,0,0:0:0:0:
96,192,130725,1,0,0:0:0:0:
416,192,131100,1,0,0:0:0:0:
288,192,131287,128,2,131850:0:0:0:0:
352,192,131287,1,0,0:0:0:0:
160,192,131475,128,2,131850:0:0:0:0:
224,192,131475,1,0,0:0:0:0:
352,192,131662,1,0,0:0:0:0:
96,192,131850,128,2,132975:0:0:0:0:
416,192,131850,1,0,0:0:0:0:
224,192,132225,128,2,132975:0:0:0:0:
352,192,132225,1,0,0:0:0:0:
288,192,132412,1,0,0:0:0:0:
352,192,132600,128,2,132975:0:0:0:0:
480,192,132600,1,0,0:0:0:0:
416,192,132787,1,0,0:0:0:0:
32,192,132975,1,4,0:0:0:0:
480,192,132975,128,2,134100:0:0:0:0:
288,192,132975,1,0,0:0:0:0:
352,192,133350,128,2,134100:0:0:0:0:
288,192,133350,1,0,0:0:0:0:
224,192,133537,1,0,0:0:0:0:
160,192,133725,128,2,134100:0:0:0:0:
96,192,133912,1,0,0:0:0:0:
224,192,134100,128,2,134475:0:0:0:0:
288,192,134100,1,0,0:0:0:0:
288,192,134475,128,2,134850:0:0:0:0:
416,192,134475,1,0,0:0:0:0:
480,192,134662,1,0,0:0:0:0:
224,192,134850,128,2,135225:0:0:0:0:
352,192,134850,1,0,0:0:0:0:
160,192,135037,1,0,0:0:0:0:
32,192,135225,1,4,0:0:0:0:
352,192,135225,128,2,135975:0:0:0:0:
96,192,135225,1,0,0:0:0:0:
480,192,135225,1,0,0:0:0:0:
160,192,135412,1,0,0:0:0:0:
224,192,135600,1,0,0:0:0:0:
288,192,135787,1,0,0:0:0:0:
480,192,135975,128,2,137475:0:0:0:0:
224,192,135975,1,0,0:0:0:0:
416,192,136162,128,2,137475:0:0:0:0:
160,192,136162,1,0,0:0:0:0:
352,192,136350,128,2,137475:0:0:0:0:
96,192,136350,1,0,0:0:0:0:
224,192,136537,1,0,0:0:0:0:
160,192,136725,1,0,0:0:0:0:
288,192,136912,1,0,0:0:0:0:
224,192,137100,1,0,0:0:0:0:
160,192,137287,1,0,0:0:0:0:
32,192,137475,1,4,0:0:0:0:
288,192,137475,1,2,0:0:0:0:
96,192,137475,1,0,0:0:0:0:
224,192,137662,1,0,0:0:0:0:
160,192,137850,1,0,0:0:0:0:
288,192,138037,1,0,0:0:0:0:
416,192,138037,1,0,0:0:0:0:
224,192,138225,1,0,0:0:0:0:
352,192,138412,1,0,0:0:0:0:
224,192,138600,1,2,0:0:0:45:
480,192,138600,128,2,141225:0:0:0:45:
288,192,138600,1,0,0:0:0:0:
160,192,138787,1,0,0:0:0:0:
96,192,138975,1,0,0:0:0:0:
352,192,139162,1,0,0:0:0:0:
416,192,139162,1,0,0:0:0:0:
288,192,139350,1,0,0:0:0:0:
224,192,139537,1,0,0:0:0:0:
32,192,139725,1,4,0:0:0:0:
160,192,139725,1,0,0:0:0:0:
96,192,139725,1,2,0:0:0:0:
288,192,139912,1,0,0:0:0:0:
352,192,140100,1,0,0:0:0:0:
224,192,140287,1,0,0:0:0:0:
416,192,140287,1,0,0:0:0:0:
224,192,140475,1,0,0:0:0:0:
352,192,140475,1,0,0:0:0:0:
160,192,140662,1,0,0:0:0:0:
96,192,140850,1,2,0:0:0:0:
288,192,141037,1,0,0:0:0:0:
160,192,141225,1,0,0:0:0:0:
224,192,141412,1,0,0:0:0:0:
352,192,141600,1,2,0:0:0:0:
288,192,141600,1,0,0:0:0:0:
416,192,141787,1,0,0:0:0:0:
32,192,141975,1,4,0:0:0:0:
288,192,141975,1,2,0:0:0:45:
224,192,141975,1,2,0:0:0:45:
160,192,142162,1,0,0:0:0:0:
352,192,142350,1,2,0:0:0:0:
224,192,142537,128,2,143100:0:0:0:0:
480,192,142537,1,0,0:0:0:0:
416,192,142537,1,0,0:0:0:0:
96,192,142912,1,0,0:0:0:0:
352,192,143100,1,2,0:0:0:45:
160,192,143100,128,2,143850:0:0:0:45:
480,192,143100,1,0,0:0:0:0:
288,192,143287,1,0,0:0:0:0:
416,192,143475,1,0,0:0:0:0:
352,192,143662,1,0,0:0:0:0:
288,192,143662,1,0,0:0:0:0:
224,192,143850,1,2,0:0:0:0:
480,192,143850,1,0,0:0:0:0:
160,192,144037,1,2,0:0:0:0:
416,192,144037,1,0,0:0:0:0:
32,192,144225,1,4,0:0:0:0:
224,192,144225,1,2,0:0:0:45:
96,192,144225,128,2,145350:0:0:0:45:
352,192,144225,1,0,0:0:0:0:
288,192,144600,1,0,0:0:0:0:
480,192,144787,1,0,0:0:0:0:
416,192,144787,1,0,0:0:0:0:
352,192,144975,1,0,0:0:0:0:
416,192,145162,1,0,0:0:0:0:
224,192,145350,1,2,0:0:0:0:
288,192,145350,1,0,0:0:0:0:
352,192,145537,1,0,0:0:0:0:
288,192,145725,1,2,0:0:0:0:
480,192,145912,1,0,0:0:0:0:
416,192,145912,1,0,0:0:0:0:
96,192,146100,1,2,0:0:0:45:soft-hitwhistle.wav
352,192,146100,1,2,0:0:0:45:soft-hitwhistle.wav
224,192,146100,1,0,0:0:0:0:
416,192,146287,1,2,0:0:0:0:
288,192,146287,1,0,0:0:0:0:
32,192,146475,1,4,0:0:0:0:
160,192,146475,1,2,0:0:0:0:
352,192,146475,1,0,0:0:0:0:
224,192,146662,1,0,0:0:0:0:
160,192,146850,1,0,0:0:0:0:
480,192,147037,1,0,0:0:0:0:
352,192,147037,1,0,0:0:0:0:
416,192,147225,1,2,0:0:0:0:
224,192,147225,1,0,0:0:0:0:
96,192,147412,1,0,0:0:0:0:
160,192,147600,1,2,0:0:0:45:
416,192,147600,128,2,147975:0:0:0:45:
288,192,147787,1,0,0:0:0:0:
96,192,147975,1,0,0:0:0:0:
224,192,148162,1,0,0:0:0:0:
352,192,148162,1,0,0:0:0:0:
416,192,148350,1,2,0:0:0:0:
160,192,148350,1,0,0:0:0:0:
352,192,148537,1,2,0:0:0:0:
32,192,148725,1,4,0:0:0:0:
96,192,148725,1,2,0:0:0:45:
416,192,148725,128,2,149475:0:0:0:45:
288,192,148725,1,0,0:0:0:0:
224,192,148912,1,0,0:0:0:0:
96,192,149100,1,0,0:0:0:0:
160,192,149287,1,0,0:0:0:0:
288,192,149475,128,2,149850:0:0:0:0:
352,192,149475,1,0,0:0:0:0:
96,192,149662,1,0,0:0:0:0:
224,192,149850,1,2,0:0:0:45:
160,192,149850,128,2,151350:0:0:0:45:
480,192,150225,1,0,0:0:0:0:
416,192,150412,1,0,0:0:0:0:
352,192,150600,1,2,0:0:0:0:
96,192,150600,1,0,0:0:0:0:
224,192,150787,1,0,0:0:0:0:
32,192,150975,1,4,0:0:0:0:
288,192,150975,1,2,0:0:0:0:
96,192,151350,1,2,0:0:0:0:
352,192,151350,1,0,0:0:0:0:
160,192,151537,1,2,0:0:0:0:
480,192,151537,1,0,0:0:0:0:
288,192,151725,1,0,0:0:0:0:
224,192,151725,128,2,152475:0:0:0:0:
416,192,151725,1,0,0:0:0:0:
160,192,151912,1,0,0:0:0:0:
352,192,152100,1,2,0:0:0:0:
96,192,152100,1,0,0:0:0:0:
288,192,152287,1,0,0:0:0:0:
160,192,152475,1,0,0:0:0:0:
480,192,152662,1,0,0:0:0:0:
224,192,152850,1,0,0:0:0:0:
352,192,152850,1,2,0:0:0:0:
288,192,153037,1,0,0:0:0:0:
416,192,153037,1,2,0:0:0:0:
32,192,153225,1,4,0:0:0:0:
224,192,153225,1,0,0:0:0:0:
352,192,153225,128,2,155475:0:0:0:0:
480,192,153225,1,0,0:0:0:0:
96,192,153412,1,0,0:0:0:0:
288,192,153600,1,0,0:0:0:0:
224,192,153787,1,0,0:0:0:0:
416,192,153787,1,0,0:0:0:0:
160,192,153975,1,2,0:0:0:0:
288,192,154162,1,0,0:0:0:0:
96,192,154350,1,2,0:0:0:0:
224,192,154537,1,0,0:0:0:0:
160,192,154725,1,0,0:0:0:0:
288,192,154912,1,0,0:0:0:0:
224,192,155100,128,2,155475:0:0:0:0:
160,192,155100,1,0,0:0:0:0:
96,192,155287,1,0,0:0:0:0:
32,192,155475,1,4,0:0:0:0:
288,192,155475,128,2,156225:0:0:0:0:
480,192,155475,1,0,0:0:0:0:
416,192,155475,1,0,0:0:0:0:
160,192,155662,1,0,0:0:0:0:
96,192,155850,1,0,0:0:0:0:
160,192,156037,1,0,0:0:0:0:
416,192,156037,1,0,0:0:0:0:
224,192,156225,128,2,156600:0:0:0:0:
352,192,156225,1,0,0:0:0:0:
480,192,156412,1,0,0:0:0:0:
288,192,156600,128,2,157162:0:0:0:0:
416,192,156600,1,0,0:0:0:0:
96,192,156600,1,0,0:0:0:0:
160,192,156787,1,0,0:0:0:0:
480,192,156975,1,0,0:0:0:0:
352,192,157162,128,2,157725:0:0:0:0:
96,192,157162,1,0,0:0:0:0:
224,192,157162,1,0,0:0:0:0:
480,192,157350,128,2,157725:0:0:0:0:
416,192,157350,1,0,0:0:0:0:
224,192,157537,1,0,0:0:0:0:
32,192,157725,1,4,0:0:0:0:
160,192,157725,128,2,158287:0:0:0:0:
96,192,157725,1,0,0:0:0:0:
288,192,157725,1,0,0:0:0:0:
416,192,158100,1,0,0:0:0:0:
288,192,158287,128,2,158850:0:0:0:0:
352,192,158287,1,0,0:0:0:0:
160,192,158475,128,2,158850:0:0:0:0:
480,192,158475,1,0,0:0:0:0:
416,192,158662,1,0,0:0:0:0:
352,192,158756,1,0,0:0:0:0:
96,192,158850,128,2,159412:0:0:0:0:
224,192,158850,1,0,0:0:0:0:
480,192,158850,1,0,0:0:0:0:
288,192,159037,1,0,0:0:0:0:
416,192,159225,1,0,0:0:0:0:
352,192,159225,1,0,0:0:0:0:
224,192,159412,1,0,0:0:0:0:
96,192,159600,128,2,159975:0:0:0:0:
416,192,159600,1,0,0:0:0:0:
480,192,159787,1,0,0:0:0:0:
32,192,159975,1,4,0:0:0:0:
224,192,159975,128,2,160725:0:0:0:45:soft-hitwhistle.wav
288,192,159975,128,2,161100:0:0:0:45:soft-hitwhistle.wav
352,192,159975,1,0,0:0:0:0:
160,192,159975,1,0,0:0:0:0:
416,192,160350,1,0,0:0:0:0:
352,192,160537,1,0,0:0:0:0:
160,192,160725,128,2,161100:0:0:0:0:
480,192,160725,1,0,0:0:0:0:
416,192,160912,1,0,0:0:0:0:
224,192,161100,128,2,161662:0:0:0:0:
480,192,161100,1,0,0:0:0:0:
96,192,161100,1,0,0:0:0:0:
160,192,161287,1,0,0:0:0:0:
96,192,161475,128,2,162225:0:0:0:0:
416,192,161475,1,0,0:0:0:0:
352,192,161662,128,2,162225:0:0:0:45:soft-hitwhistle.wav
288,192,161662,128,2,162225:0:0:0:45:soft-hitwhistle.wav
480,192,161850,128,2,162225:0:0:0:45:soft-hitwhistle.wav
416,192,161850,128,2,162225:0:0:0:45:soft-hitwhistle.wav
32,192,162225,1,4,0:0:0:0:
224,192,162225,128,2,162787:0:0:0:45:soft-hitwhistle.wav
160,192,162225,128,2,163350:0:0:0:45:soft-hitwhistle.wav
480,192,162600,1,0,0:0:0:0:
288,192,162787,128,2,163350:0:0:0:0:
352,192,162787,1,0,0:0:0:0:
416,192,162975,128,2,163350:0:0:0:0:
480,192,162975,1,0,0:0:0:0:
352,192,163350,128,2,163725:0:0:0:45:soft-hitwhistle.wav
480,192,163350,128,2,163725:0:0:0:45:soft-hitwhistle.wav
224,192,163537,1,0,0:0:0:0:
416,192,163725,128,2,164100:0:0:0:45:soft-hitwhistle.wav
288,192,163725,128,2,164100:0:0:0:45:soft-hitwhistle.wav
160,192,163912,1,0,0:0:0:0:
224,192,164100,128,2,164475:0:0:0:45:soft-hitwhistle.wav
352,192,164100,128,2,164475:0:0:0:45:soft-hitwhistle.wav
96,192,164100,1,0,0:0:0:0:
96,192,164310,1,0,0:0:0:0:
32,192,164475,1,4,0:0:0:0:
160,192,164475,128,2,165225:0:0:0:35:soft-hitwhistle.wav
288,192,164475,128,2,164850:0:0:0:35:soft-hitwhistle.wav
96,192,164475,1,0,0:0:0:0:
480,192,164475,128,2,164850:0:0:0:35:soft-hitwhistle.wav
416,192,164850,128,2,166350:0:0:0:0:
352,192,164850,1,0,0:0:0:0:
224,192,165037,1,0,0:0:0:0:
96,192,165225,128,2,165600:0:0:0:0:
288,192,165225,1,0,0:0:0:0:
352,192,165412,1,0,0:0:0:0:
224,192,165600,128,2,166162:0:0:0:0:
160,192,165600,1,0,0:0:0:0:
288,192,165787,1,0,0:0:0:0:
160,192,165975,1,0,0:0:0:0:
352,192,166162,128,2,166725:0:0:0:0:
288,192,166162,1,0,0:0:0:0:
480,192,166350,128,2,166725:0:0:0:0:
96,192,166350,1,0,0:0:0:0:
288,192,166537,1,0,0:0:0:0:
32,192,166725,1,4,0:0:0:0:
96,192,166725,128,2,167287:0:0:0:45:soft-hitwhistle.wav
224,192,166725,128,2,167850:0:0:0:45:soft-hitwhistle.wav
160,192,166725,1,0,0:0:0:0:
352,192,167100,1,0,0:0:0:0:
288,192,167287,128,2,167850:0:0:0:0:
416,192,167287,1,0,0:0:0:0:
480,192,167287,1,0,0:0:0:0:
160,192,167475,128,2,167850:0:0:0:0:
96,192,167475,1,0,0:0:0:0:
480,192,167662,1,0,0:0:0:0:
96,192,167850,128,2,168412:0:0:0:45:soft-hitwhistle.wav
352,192,167850,128,2,168975:0:0:0:45:soft-hitwhistle.wav
416,192,167850,1,0,0:0:0:0:
288,192,168225,1,0,0:0:0:0:
224,192,168412,1,0,0:0:0:0:
480,192,168412,1,0,0:0:0:0:
96,192,168600,128,2,168975:0:0:0:0:
416,192,168600,1,0,0:0:0:0:
224,192,168787,1,0,0:0:0:0:
32,192,168975,1,4,0:0:0:0:
288,192,168975,128,2,169537:0:0:0:45:soft-hitwhistle.wav
160,192,168975,128,2,170100:0:0:0:45:soft-hitwhistle.wav
480,192,168975,1,0,0:0:0:0:
416,192,169162,1,0,0:0:0:0:
352,192,169350,1,0,0:0:0:0:
224,192,169537,128,2,169725:0:0:0:0:
480,192,169537,1,0,0:0:0:0:
288,192,169725,128,2,170100:0:0:0:0:
416,192,169725,1,0,0:0:0:0:
96,192,169912,1,0,0:0:0:0:
224,192,170100,128,2,170475:0:0:0:45:soft-hitwhistle.wav
416,192,170100,128,2,171225:0:0:0:45:soft-hitwhistle.wav
480,192,170100,1,0,0:0:0:0:
352,192,170100,1,0,0:0:0:0:
96,192,170287,1,0,0:0:0:0:
160,192,170475,128,2,170850:0:0:0:0:
352,192,170475,1,0,0:0:0:0:
288,192,170662,1,0,0:0:0:0:
96,192,170850,128,2,171225:0:0:0:0:
352,192,170850,1,0,0:0:0:0:
224,192,171037,1,0,0:0:0:0:
32,192,171225,1,4,0:0:0:0:
288,192,171225,128,2,171975:0:0:0:45:soft-hitwhistle.wav
352,192,171225,128,2,174600:0:0:0:45:soft-hitwhistle.wav
160,192,171225,1,0,0:0:0:0:
480,192,171412,1,0,0:0:0:0:
224,192,171600,1,0,0:0:0:0:
96,192,171787,1,0,0:0:0:0:
160,192,171975,128,2,172162:0:0:0:0:
416,192,171975,1,0,0:0:0:0:
224,192,172162,128,2,172350:0:0:0:0:
480,192,172162,1,0,0:0:0:0:
160,192,172350,128,2,174600:0:0:0:0:
416,192,172350,1,0,0:0:0:0:
288,192,172350,1,0,0:0:0:0:
96,192,172537,1,0,0:0:0:0:
224,192,172725,1,0,0:0:0:0:
416,192,172912,1,0,0:0:0:0:
288,192,173100,1,0,0:0:0:0:
480,192,173287,1,0,0:0:0:0:
32,192,173475,1,4,0:0:0:0:
224,192,173475,1,0,0:0:0:0:
288,192,173475,1,0,0:0:0:0:
96,192,173850,1,0,0:0:0:0:
224,192,174037,1,0,0:0:0:0:
288,192,174225,1,0,0:0:0:0:
416,192,174412,1,0,0:0:0:0:
96,192,174600,128,2,175350:0:0:0:45:soft-hitwhistle.wav
224,192,174600,128,2,175725:0:0:0:45:soft-hitwhistle.wav
480,192,174600,1,0,0:0:0:0:
416,192,174787,1,0,0:0:0:0:
288,192,174975,1,0,0:0:0:0:
416,192,175162,1,0,0:0:0:0:
352,192,175350,1,0,0:0:0:0:
480,192,175537,1,0,0:0:0:0:
416,192,175631,1,0,0:0:0:0:
32,192,175725,1,4,0:0:0:0:
160,192,175725,128,2,180225:0:0:0:0:
352,192,175725,1,0,0:0:0:0:
96,192,175725,1,0,0:0:0:0:
288,192,175912,1,0,0:0:0:0:
352,192,176006,1,0,0:0:0:0:
32,192,177975,1,4,0:0:0:0:
224,192,178350,128,2,179850:0:0:0:0:
288,192,179850,128,2,180037:0:0:0:0:
352,192,180037,128,2,180225:0:0:0:0:
32,192,180225,1,4,0:0:0:0:
480,192,180225,128,2,184725:0:0:0:0:
32,192,182475,1,4,0:0:0:0:
