osu file format v14

[General]
AudioFilename: audio.mp3
AudioLeadIn: 0
PreviewTime: 30515
Countdown: 0
SampleSet: Soft
StackLeniency: 0.3
Mode: 0
LetterboxInBreaks: 0
WidescreenStoryboard: 0

[Editor]
Bookmarks: 10326,20593,30861,51395,61663,71930,82198,92465,102732,123267
DistanceSpacing: 0.9
BeatDivisor: 8
GridSize: 32
TimelineZoom: 1.8

[Metadata]
Title:what is real
TitleUnicode:what is real
Artist:iann dior
ArtistUnicode:iann dior
Creator:jamesjan3
Version:psychosis
Source:
Tags:english hip hop hip-hop emo rap trap pop industry plant mimari
BeatmapID:2625324
BeatmapSetID:1263034

[Difficulty]
HPDrainRate:5
CircleSize:4
OverallDifficulty:8
ApproachRate:9.1
SliderMultiplier:2
SliderTickRate:1

[Events]
//Background and Video events
0,0,"alexandr-bormotin-cmGG7isXhs4-unsplash.jpg",0,0
//Break Periods
2,72105,80626
//Storyboard Layer 0 (Background)
//Storyboard Layer 1 (Fail)
//Storyboard Layer 2 (Pass)
//Storyboard Layer 3 (Foreground)
//Storyboard Layer 4 (Overlay)
//Storyboard Sound Samples

[TimingPoints]
34,641.711229946524,4,2,1,40,1,0
34,-100,4,2,1,40,0,0
10301,-80,4,2,1,40,0,0
11905,-100,4,2,1,40,0,0
15435,-80,4,2,1,40,0,0
17039,-100,4,2,1,40,0,0
20568,-57.1428571428571,4,2,1,50,0,0
22092,-57.1428571428571,4,2,1,5,0,0
22173,-80,4,2,1,50,0,0
25702,-57.1428571428571,4,2,1,50,0,0
27226,-57.1428571428571,4,2,1,5,0,0
27306,-80,4,2,1,50,0,0
30836,-30.7692307692308,4,2,1,70,0,1
31718,-30.7692307692308,4,2,1,5,0,1
31798,-57.1428571428571,4,2,1,70,0,1
32440,-40,4,2,1,70,0,1
32761,-30.7692307692308,4,2,1,70,0,1
33001,-30.7692307692308,4,2,1,5,0,1
33082,-57.1428571428571,4,2,1,70,0,1
33402,-40,4,2,1,70,0,1
34285,-40,4,2,1,5,0,1
34365,-40,4,2,1,70,0,1
35087,-40,4,2,1,5,0,1
35167,-40,4,2,1,70,0,1
35969,-30.7692307692308,4,2,1,70,0,1
36852,-30.7692307692308,4,2,1,5,0,1
36932,-57.1428571428571,4,2,1,70,0,1
37574,-40,4,2,1,70,0,1
37894,-33.3333333333333,4,2,1,70,0,1
38135,-33.3333333333333,4,2,1,5,0,1
38215,-57.1428571428571,4,2,1,70,0,1
38857,-40,4,2,1,70,0,1
39419,-40,4,2,1,5,0,1
39499,-40,4,2,1,70,0,1
40221,-40,4,2,1,5,0,1
40301,-40,4,2,1,70,0,1
41103,-30.7692307692308,4,2,1,50,0,0
41108,-30.7692307692308,4,2,1,50,0,0
41745,-57.1428571428571,4,2,1,50,0,0
44873,-57.1428571428571,4,2,1,5,0,0
44953,-57.1428571428571,4,2,1,50,0,0
50007,-57.1428571428571,4,2,1,5,0,0
50087,-133.333333333333,4,2,1,50,0,0
51370,-100,4,2,1,40,0,0
60996,-57.1428571428571,4,2,1,60,0,0
61638,-40,4,2,1,60,0,0
62279,-50,4,2,1,60,0,0
62520,-50,4,2,1,5,0,0
62600,-40,4,2,1,60,0,0
62921,-57.1428571428571,4,2,1,60,0,0
63162,-57.1428571428571,4,2,1,5,0,0
63242,-40,4,2,1,60,0,0
63322,-40,4,2,1,5,0,0
63402,-66.6666666666667,4,2,1,60,0,0
63884,-40,4,2,1,60,0,0
64445,-40,4,2,1,5,0,0
64525,-66.6666666666667,4,2,1,60,0,0
65167,-57.1428571428571,4,2,1,60,0,0
65247,-57.1428571428571,4,2,1,5,0,0
65328,-57.1428571428571,4,2,1,60,0,0
65729,-57.1428571428571,4,2,1,5,0,0
65809,-40,4,2,1,60,0,0
65889,-40,4,2,1,5,0,0
65969,-66.6666666666667,4,2,1,60,0,0
66451,-40,4,2,1,60,0,0
67012,-40,4,2,1,5,0,0
67092,-66.6666666666667,4,2,1,60,0,0
67734,-57.1428571428571,4,2,1,60,0,0
67814,-57.1428571428571,4,2,1,5,0,0
67894,-57.1428571428571,4,2,1,60,0,0
68296,-57.1428571428571,4,2,1,5,0,0
68376,-40,4,2,1,60,0,0
68456,-40,4,2,1,5,0,0
68536,-66.6666666666667,4,2,1,60,0,0
69017,-40,4,2,1,60,0,0
69579,-40,4,2,1,5,0,0
69659,-40,4,2,1,60,0,0
69980,-57.1428571428571,4,2,1,60,0,0
70221,-57.1428571428571,4,2,1,5,0,0
70301,-40,4,2,1,60,0,0
70381,-40,4,2,1,5,0,0
70461,-40,4,2,1,60,0,0
71023,-40,4,2,1,5,0,0
71103,-66.6666666666667,4,2,1,60,0,0
71584,-50,4,2,1,60,0,0
81210,-100,4,2,1,40,0,0
82173,-80,4,2,1,40,0,0
83777,-100,4,2,1,40,0,0
87306,-80,4,2,1,40,0,0
88911,-100,4,2,1,40,0,0
92440,-57.1428571428571,4,2,1,50,0,0
93964,-57.1428571428571,4,2,1,5,0,0
94044,-80,4,2,1,50,0,0
97574,-57.1428571428571,4,2,1,50,0,0
99098,-57.1428571428571,4,2,1,5,0,0
99178,-80,4,2,1,50,0,0
100140,-80,4,2,1,50,0,0
102707,-30.7692307692308,4,2,1,70,0,1
103590,-30.7692307692308,4,2,1,5,0,1
103670,-57.1428571428571,4,2,1,70,0,1
104312,-40,4,2,1,70,0,1
104632,-30.7692307692308,4,2,1,70,0,1
104873,-30.7692307692308,4,2,1,5,0,1
104953,-57.1428571428571,4,2,1,70,0,1
105595,-40,4,2,1,70,0,1
106156,-40,4,2,1,5,0,1
106237,-40,4,2,1,70,0,1
106959,-40,4,2,1,5,0,1
107039,-40,4,2,1,70,0,1
107841,-30.7692307692308,4,2,1,70,0,1
108723,-30.7692307692308,4,2,1,5,0,1
108804,-57.1428571428571,4,2,1,70,0,1
109445,-30.7692307692308,4,2,1,70,0,1
110007,-30.7692307692308,4,2,1,5,0,1
110087,-57.1428571428571,4,2,1,70,0,1
110568,-40,4,2,1,70,0,1
111290,-40,4,2,1,5,0,1
111370,-40,4,2,1,70,0,1
112092,-40,4,2,1,5,0,1
112173,-40,4,2,1,70,0,1
112975,-30.7692307692308,4,2,1,50,0,0
112980,-30.7692307692308,4,2,1,50,0,0
113616,-57.1428571428571,4,2,1,50,0,0
116745,-57.1428571428571,4,2,1,5,0,0
116825,-57.1428571428571,4,2,1,50,0,0
121878,-57.1428571428571,4,2,1,5,0,0
121959,-57.1428571428571,4,2,1,50,0,0
122600,-181.818181818182,4,2,1,50,0,0

[Colours]
Combo1 : 120,165,248
Combo2 : 252,177,192
Combo3 : 255,115,115

[HitObjects]
149,244,9338,6,0,P|174:229|206:227,1,50,2|0,0:2|0:0,0:0:0:0:
160,338,9659,2,0,P|113:311|65:314,1,100,2|2,0:2|0:2,0:0:0:0:
58,327,10140,1,2,0:2:0:0:
132,82,10301,6,0,P|170:125|171:153,1,62.5,2|0,0:2|0:0,0:0:0:0:
93,156,10622,2,2,B|126:19|366:185|93:156|332:330|367:185,1,375,2|2,0:2|0:2,0:0:0:0:
357,181,11745,1,0,0:0:0:0:
473,260,11905,2,0,L|464:370,2,100,2|8|0,0:2|0:2|0:0,0:0:0:0:
376,21,12868,5,2,0:2:0:0:
511,115,13189,1,2,0:2:0:0:
365,186,13509,2,0,L|245:170,1,100,8|0,0:2|0:0,0:0:0:0:
96,148,14151,1,2,0:2:0:0:
270,7,14472,6,0,P|238:16|208:46,1,50,2|2,0:2|0:2,0:0:0:0:
112,47,14793,2,0,P|144:56|174:86,1,50,8|0,0:2|0:0,0:0:0:0:
221,138,15114,1,2,0:2:0:0:
214,150,15274,1,2,0:2:0:0:
371,222,15435,6,0,P|325:239|304:271,1,62.5,2|0,0:2|0:0,0:0:0:0:
376,301,15755,2,2,B|364:160|113:241|376:301|118:392|113:241,1,375,2|2,0:2|0:2,0:0:0:0:
119,230,16878,1,0,0:0:0:0:
201,120,17039,2,0,L|311:129,2,100,2|8|0,0:2|0:2|0:0,0:0:0:0:
0,58,18001,5,2,0:2:0:0:
178,9,18322,1,2,0:2:0:0:
137,176,18643,2,0,L|160:288,1,100,8|0,0:2|0:0,0:0:0:0:
320,382,19285,1,2,0:2:0:0:
483,256,19606,6,0,P|485:280|479:305,1,50,2|2,0:2|0:2,0:0:0:0:
416,352,19927,1,8,0:2:0:0:
229,124,20247,5,2,0:2:0:0:
229,124,20408,1,2,0:2:0:0:
117,213,20568,6,0,P|75:179|63:129,1,87.500000834465,4|0,3:2|0:0,0:0:0:0:
112,33,20889,2,2,B|203:89|99:343|112:33|-6:266|99:343,1,350.00000333786,2|0,0:2|3:2,0:0:0:0:
95,334,21691,1,0,0:0:0:0:
269,291,21852,2,0,P|232:267|142:267,1,131.250001251698
151,269,22173,6,0,P|181:300|197:338,1,62.5,4|2,3:2|0:2,0:0:0:0:
289,370,22493,1,8,0:2:0:0:
237,237,22654,2,0,P|261:272|271:312,1,62.5,0|2,3:2|0:2,0:0:0:0:
293,374,22975,1,2,0:2:0:0:
437,234,23135,6,0,P|407:225|376:232,1,62.5,4|0,3:2|0:0,0:0:0:0:
454,366,23456,2,0,P|482:329|485:307,1,62.5,2|0,0:2|3:2,0:0:0:0:
331,314,23777,2,0,P|339:343|359:366,1,62.5,8|0,0:2|0:0,0:0:0:0:
407,304,24098,1,0,3:2:0:0:
433,37,24419,1,0,0:0:0:0:
244,19,24739,6,0,P|211:48|193:79,1,62.5,4|2,3:2|0:2,0:0:0:0:
171,137,25060,1,8,0:2:0:0:
64,58,25221,2,0,P|107:68|137:86,1,62.5,0|2,3:2|0:2,0:0:0:0:
174,140,25542,1,2,0:2:0:0:
115,295,25702,6,0,P|151:271|171:233,1,87.500000834465,4|0,3:2|0:0,0:0:0:0:
17,235,26023,2,2,B|69:137|285:314|15:237|236:413|282:318,1,350.00000333786,2|0,0:2|3:2,0:0:0:0:
281,308,26825,1,0,0:0:0:0:
456,211,26985,2,0,P|412:204|330:242,1,131.250001251698
339,244,27306,6,0,P|369:213|385:175,1,62.5,4|2,3:2|0:2,0:0:0:0:
374,110,27627,1,8,0:2:0:0:
263,201,27788,2,0,P|295:173|315:137,1,62.5,0|2,3:2|0:2,0:0:0:0:
378,114,28108,1,2,0:2:0:0:
226,18,28269,6,0,P|191:0|161:2,1,62.5,4|0,3:2|0:0,0:0:0:0:
208,149,28590,2,0,P|239:127|253:100,1,62.5,2|0,0:2|3:2,0:0:0:0:
102,67,28911,2,0,P|104:104|120:129,1,62.5,8|0,0:2|0:0,0:0:0:0:
116,125,29231,1,0,3:2:0:0:
256,192,29392,12,0,30354,0:0:0:0:
215,231,30515,6,0,P|184:241|152:260,1,62.5,2|0,0:2|0:0,0:0:0:0:
50,229,30836,6,2,B|72:108|188:130|326:241|50:229|170:358|311:411|326:241,1,487.500013947487,6|0,3:2|0:0,0:2:0:0:
458,115,31477,6,2,B|496:228|359:241|413:348,1,243.750006973744,10|0,0:2|0:0,0:0:0:0:
508,330,31798,6,2,B|509:185|375:265|358:129,1,262.500002503395,2|0,3:2|0:0,0:0:0:0:
482,207,32440,2,0,L|361:240,1,125,4|0,3:2|0:0,0:0:0:0:
172,90,32761,6,2,B|209:3|344:47|268:160|374:134,1,243.750006973744,10|0,0:2|0:0,0:0:0:0:
334,6,33082,6,2,P|274:76|226:171,1,175.00000166893,2|4,0:2|3:2,0:0:0:0:
207,348,33563,1,0,0:0:0:0:
289,306,33723,6,0,P|324:255|276:198,1,125,2|0,0:2|3:2,0:0:0:0:
56,139,34044,2,0,B|14:186|14:186|160:149,1,187.5,10|0,0:2|0:0,0:0:0:0:
136,150,34365,2,0,L|36:45,1,125,0|0,3:2|0:0,0:0:0:0:
18,263,34686,5,2,0:2:0:0:
100,285,34846,1,0,0:0:0:0:
261,63,35007,6,0,L|253:125,1,62.5,6|0,3:2|0:0,0:0:0:0:
261,144,35167,1,0,0:0:0:0:
49,59,35328,6,0,B|298:348|55:55|308:343,1,375,10|0,0:2|0:0,0:2:0:0:
304,338,35969,6,2,B|292:404|398:416|456:374|420:109|292:404|170:205|275:16|458:101|403:219,1,487.500013947487,6|0,3:2|0:0,0:0:0:0:
216,176,36611,6,2,B|126:179|217:41|143:-3|59:29|67:69,1,243.750006973744,10|0,0:2|0:0,0:0:0:0:
81,159,36932,6,2,B|166:182|109:27|191:0|265:50|247:88,1,262.500002503395,2|0,3:2|0:0,0:0:0:0:
193,138,37574,2,2,L|89:63,1,125,6|0,3:2|0:0,0:0:0:0:
443,168,37894,6,2,B|482:214|427:302|360:209|314:287|342:325,1,225.000008583069,10|2,0:2|0:0,0:0:0:0:
436,332,38215,6,2,P|400:253|334:165,1,175.00000166893,2|4,0:2|3:2,0:0:0:0:
149,58,38697,1,0,0:0:0:0:
213,115,38857,6,0,P|284:98|286:35,1,125,2|0,0:2|3:2,0:0:0:0:
73,203,39178,2,0,B|62:258|62:258|201:229,1,187.5,10|0,0:2|0:0,0:0:0:0:
193,227,39499,2,0,B|117:123,1,125,0|0,3:2|0:0,0:0:0:0:
0,142,39820,5,2,0:2:0:0:
73,203,39980,1,0,0:0:0:0:
213,33,40140,6,0,L|221:94,1,62.5,6|0,3:2|0:0,0:0:0:0:
219,113,40301,1,0,0:0:0:0:
61,47,40461,6,0,B|211:251|59:36|215:247,1,250,10|2,0:2|0:0,0:0:0:0:
337,227,40943,1,0,0:0:0:0:
167,37,41103,6,2,B|156:59|136:65|136:65|115:71|10:68|-41:172|59:322|168:289|204:185|219:168|219:168|236:153|254:151,1,487.500013947487,6|0,0:2|0:0,0:0:0:0:
264,61,41745,6,2,P|302:57|364:93,1,87.500000834465,10|0,0:2|0:0,0:0:0:0:
351,80,42066,2,2,B|349:12|241:-22|153:163|384:124|323:262,1,350.00000333786,2|0,0:2|0:0,0:0:0:0:
169,208,43028,6,2,P|132:217|87:273,1,87.500000834465,10|0,0:2|0:0,0:0:0:0:
4,219,43349,2,2,B|43:184|81:213|81:213|122:249|172:220|172:220|217:197|255:230|255:230,1,262.500002503395,2|0,0:2|0:0,0:0:0:0:
294,157,43991,6,0,B|340:147|340:147|355:110,1,87.500000834465,2|0,0:2|0:0,0:0:0:0:
453,210,44312,2,0,B|415:231|415:231|408:290,1,87.500000834465,10|0,0:2|0:0,0:0:0:0:
459,343,44632,2,0,B|395:365|395:365|322:311,1,131.250001251698,2|0,0:2|0:0,0:0:0:0:
343,327,44953,5,2,0:2:0:0:
352,227,45114,1,0,0:0:0:0:
453,210,45274,2,0,P|409:207|370:229,1,87.500000834465,2|0,0:2|0:0,0:0:0:0:
215,331,45595,2,0,B|483:297|216:338|486:302,1,262.500002503395,10|0,0:2|0:0,0:0:0:0:
486,115,46237,6,2,P|409:79|250:139,1,262.500002503395,6|0,0:2|0:0,0:0:0:0:
224,224,46878,2,2,P|183:197|164:154,1,87.500000834465,10|0,0:2|0:0,0:0:0:0:
297,13,47199,2,2,B|331:-16|423:-10|405:152|296:96|352:199,1,262.500002503395,2|0,0:2|0:0,0:0:0:0:
385,279,47841,6,2,P|418:251|433:210,1,87.500000834465,2|0,0:2|0:0,0:0:0:0:
289,270,48162,2,2,P|296:312|324:346,1,87.500000834465,10|0,0:2|0:0,0:0:0:0:
348,192,48483,2,2,B|228:108|221:228|90:145,1,262.500002503395,2|0,0:2|0:0,0:0:0:0:
51,80,49124,6,0,B|90:62|90:62|148:77,1,87.500000834465,2|0,0:2|0:0,0:0:0:0:
113,236,49445,2,0,B|68:235|68:235|35:208,1,87.500000834465,10|0,0:2|0:0,0:0:0:0:
99,150,49766,2,0,B|184:162|184:162|230:218,1,131.250001251698,2|0,0:2|0:0,0:0:0:0:
216,209,50087,5,2,0:2:0:0:
216,209,50408,1,2,0:2:0:0:
216,209,50729,2,0,B|200:325|221:212|203:334,1,112.500004291535,2|0,0:2|0:0,0:0:0:0:
203,342,51370,5,2,0:2:0:0:
336,179,51691,2,0,L|321:79,2,100,2|10|2,0:2|0:2|0:2,0:0:0:0:
379,265,52654,2,0,L|434:279,1,50,2|0,0:2|0:0,0:0:0:0:
472,184,52975,2,0,L|417:198,1,50,2|0,0:2|0:0,0:0:0:0:
230,278,53296,2,0,L|16:233,1,200,10|2,0:2|0:2,0:0:0:0:
47,10,54258,6,0,L|32:110,2,100,2|10|2,0:2|0:2|0:2,0:0:0:0:
214,23,55221,2,0,L|247:75,1,50,2|0,0:2|0:0,0:0:0:0:
207,57,55542,2,0,L|249:30,1,50,2|0,0:2|0:0,0:0:0:0:
328,60,55862,2,0,L|133:20,1,200,10|2,0:2|0:2,0:0:0:0:
448,237,56825,6,0,L|463:137,2,100,2|10|2,0:2|0:2|0:2,0:0:0:0:
314,316,57788,2,0,L|325:369,1,50,2|0,0:2|0:0,0:0:0:0:
437,285,58108,2,0,L|448:232,1,50,2|0,0:2|0:0,0:0:0:0:
273,120,58429,2,0,L|316:327,1,200,10|2,0:2|0:2,0:0:0:0:
13,287,59392,6,0,L|110:312,2,100,2|10|2,0:2|0:2|0:2,0:0:0:0:
115,222,60354,2,0,L|183:209,1,50,2|0,0:2|0:0,0:0:0:0:
231,140,60675,2,0,L|163:127,1,50,2|0,0:2|0:0,0:0:0:0:
21,61,60996,6,2,B|149:45|149:45|159:52|159:52|287:36,1,262.500002503395,10|0,0:2|0:0,0:0:0:0:
364,65,61638,6,0,B|382:116|370:188|370:188|384:117|441:73,1,250,4|2,3:2|0:2,0:0:0:0:
417,1,62119,1,2,0:2:0:0:
482,170,62279,6,0,B|499:250|442:234|470:329,1,150,10|0,0:2|0:0,0:0:0:0:
512,384,62600,1,2,3:2:0:0:
512,384,62681,1,2,0:0:0:0:
256,286,62921,6,0,B|241:315|241:315|369:336,1,131.250001251698,2|0,0:2|0:0,0:0:0:0:
343,335,63242,2,0,L|313:260,1,62.5,6|0,3:2|0:0,0:0:0:0:
232,55,63402,6,0,P|224:109|241:57,1,150.000005722046,2|0,0:1|3:1,0:0:0:0:
231,83,63884,2,0,B|218:140|218:140|222:150|222:150|212:206,1,125,2|0,0:1|0:0,0:0:0:0:
92,355,64205,6,0,B|85:275|85:275|73:262|73:262|61:166,1,187.5,4|0,3:2|0:0,0:0:0:0:
18,107,64525,2,0,B|49:89|49:89|96:100,1,75.0000028610231,2|0,0:2|3:2,0:0:0:0:
282,152,64846,5,10,0:2:0:0:
161,202,65007,1,2,0:2:0:0:
203,127,65167,6,0,L|250:156,1,43.7500004172325,2|0,3:2|0:0,0:0:0:0:
347,204,65328,1,2,0:2:0:0:
510,128,65488,6,0,B|511:102|511:102|407:146,1,131.250001251698,2|0,0:2|0:0,0:0:0:0:
419,148,65809,2,0,L|434:216,1,62.5,6|0,3:2|0:0,0:0:0:0:
490,342,65969,6,0,P|460:296|470:349,1,150.000005722046,2|0,0:1|3:2,0:0:0:0:
467,325,66451,2,0,B|410:312|410:312|400:316|400:316|344:306,1,125,2|0,0:1|0:0,0:0:0:0:
110,184,66771,6,0,B|210:149|172:250|292:216,1,187.5,4|0,3:2|0:0,0:0:0:0:
286,222,67092,2,0,B|310:190|310:190|297:156,1,75.0000028610231,2|2,0:2|0:2,0:0:0:0:
215,26,67413,5,10,0:2:0:0:
42,96,67574,1,2,0:2:0:0:
110,43,67734,6,0,L|153:75,1,43.7500004172325,2|0,3:2|0:0,0:0:0:0:
243,125,67894,1,2,0:2:0:0:
77,230,68055,6,0,B|63:207|63:207|166:196,1,131.250001251698,2|0,0:2|0:0,0:0:0:0:
171,200,68376,2,0,L|161:271,1,62.5,6|0,3:2|0:0,0:0:0:0:
75,375,68536,6,0,B|56:339|95:310|95:310|119:352|90:380,1,150.000005722046,2|0,0:1|3:2,0:0:0:0:
85,348,69017,2,0,B|142:342|142:342|153:351|153:351|215:344,1,125,2|0,0:1|0:0,0:0:0:0:
461,243,69338,6,0,B|434:192|325:231|395:308|304:288,1,187.5,6|0,3:2|0:0,0:0:0:0:
399,306,69659,2,0,P|391:244|366:187,1,125,2|0,0:2|3:2,0:0:0:0:
200,59,69980,6,0,B|226:117|226:117|284:74,1,131.250001251698,10|0,0:2|0:0,0:0:0:0:
285,81,70301,2,0,L|208:63,1,62.5,2|0,3:2|0:0,0:0:0:0:
78,44,70461,1,2,0:2:0:0:
141,148,70622,1,2,0:2:0:0:
79,203,70782,1,2,0:2:0:0:
200,59,70943,6,0,L|283:81,1,62.5,6|0,3:2|0:0,0:0:0:0:
412,134,71103,6,0,P|420:188|403:136,1,150.000005722046,2|0,0:1|3:2,0:0:0:0:
413,162,71584,2,0,B|407:210|407:210|400:215|400:215|395:278,1,100,2|0,0:1|0:0,0:0:0:0:
256,384,71905,5,0,3:2:0:0:
423,326,81210,6,0,P|448:341|480:343,1,50,2|0,0:2|0:0,0:0:0:0:
425,231,81531,2,0,P|378:258|330:255,1,100,2|2,0:2|0:2,0:0:0:0:
320,248,82012,1,2,0:2:0:0:
269,11,82173,6,0,P|231:54|230:82,1,62.5,2|0,0:2|0:0,0:0:0:0:
317,81,82493,2,2,B|234:13|104:295|317:81|200:364|104:295,1,375,2|2,0:2|0:2,0:0:0:0:
89,282,83616,1,0,0:0:0:0:
42,141,83777,2,0,L|51:31,2,100,2|8|0,0:2|0:2|0:0,0:0:0:0:
198,150,84739,5,2,0:2:0:0:
292,15,85060,1,2,0:2:0:0:
363,161,85381,2,0,L|347:281,1,100,8|0,0:2|0:0,0:0:0:0:
438,384,86023,1,2,0:2:0:0:
512,203,86344,6,0,P|508:169|483:135,1,50,2|2,0:2|0:2,0:0:0:0:
485,74,86665,2,0,P|463:60|439:55,1,50,8|0,0:2|0:0,0:0:0:0:
363,21,86985,1,2,0:2:0:0:
356,33,87146,1,2,0:2:0:0:
267,152,87306,6,0,P|313:135|334:103,1,62.5,2|0,0:2|0:0,0:0:0:0:
240,38,87627,2,2,B|157:62|217:217|240:38|327:250|251:316|113:272|149:173,1,375,2|2,0:2|0:2,0:0:0:0:
157,176,88750,1,0,0:0:0:0:
83,27,88911,2,0,L|71:129,2,100,2|8|0,0:2|0:2|0:0,0:0:0:0:
27,296,89873,5,2,0:2:0:0:
205,345,90194,1,2,0:2:0:0:
152,172,90515,2,0,L|129:284,1,100,8|0,0:2|0:0,0:0:0:0:
320,382,91156,1,2,0:2:0:0:
477,198,91477,6,0,P|479:222|473:247,1,50,2|2,0:2|0:2,0:0:0:0:
390,268,91798,2,0,P|372:210|375:166,1,100,8|2,0:2|0:2,0:0:0:0:
426,109,92279,1,2,0:2:0:0:
225,166,92440,6,0,P|173:151|139:128,1,87.500000834465,4|0,3:2|0:0,0:0:0:0:
148,0,92761,2,2,B|242:2|215:302|148:0|103:305|215:302,1,350.00000333786,2|0,0:2|3:2,0:0:0:0:
211,301,93563,1,0,0:0:0:0:
353,262,93723,2,0,P|377:225|377:135,1,131.250001251698
382,144,94044,6,0,P|338:144|300:160,1,62.5,4|2,3:2|0:2,0:0:0:0:
252,98,94365,1,8,0:2:0:0:
385,64,94525,2,0,P|342:63|304:48,1,62.5,0|2,3:2|0:2,0:0:0:0:
256,102,94846,1,2,0:2:0:0:
80,28,95007,6,0,P|50:45|21:46,1,62.5,4|0,3:2|0:0,0:0:0:0:
164,149,95328,2,0,P|162:117|172:82,1,62.5,2|0,0:2|3:2,0:0:0:0:
0,156,95648,2,0,P|29:173|44:197,1,62.5,8|0,0:2|0:0,0:0:0:0:
81,115,95969,1,0,3:2:0:0:
116,341,96290,1,0,0:0:0:0:
476,326,96611,6,0,P|433:313|404:293,1,62.5,4|2,3:2|0:2,0:0:0:0:
357,246,96932,1,8,0:2:0:0:
296,366,97092,2,0,P|330:338|350:309,1,62.5,0|2,3:2|0:2,0:0:0:0:
361,250,97413,1,2,0:2:0:0:
343,77,97574,6,0,P|331:113|331:172,1,87.500000834465,4|0,3:2|0:0,0:0:0:0:
473,67,97894,2,2,B|448:-41|193:73|473:67|215:182|193:73,1,350.00000333786,2|0,0:2|3:2,0:0:0:0:
196,68,98697,1,0,0:0:0:0:
36,90,98857,2,0,P|80:94|149:152,1,131.250001251698
150,150,99178,6,0,P|129:188|124:229,1,62.5,4|2,3:2|0:2,0:0:0:0:
136,286,99499,1,8,0:2:0:0:
0,252,99659,2,0,P|42:249|82:260,1,62.5,0|2,3:2|0:2,0:0:0:0:
140,290,99980,1,2,0:2:0:0:
358,225,100140,6,0,P|323:207|293:209,1,62.5,4|0,3:2|0:0,0:0:0:0:
413,293,100461,2,0,P|444:271|458:244,1,62.5,2|0,0:2|3:2,0:0:0:0:
328,303,100782,2,0,P|330:340|346:365,1,62.5,8|0,0:2|0:0,0:0:0:0:
342,361,101103,1,0,3:2:0:0:
256,192,101263,12,0,102226,0:0:0:0:
193,206,102386,6,0,P|154:196|108:204,1,62.5,2|0,0:2|0:0,0:0:0:0:
122,96,102707,6,2,B|125:35|270:48|240:158|183:237|41:227|69:378|236:419|291:322|222:229,1,487.500013947487,6|0,3:2|0:0,0:0:0:0:
373,172,103349,6,2,B|389:147|418:181|417:249|368:282|254:155|235:305,1,243.750006973744,10|0,0:2|0:0,0:0:0:0:
324,316,103670,6,2,B|323:345|366:333|403:276|382:221|215:263|277:124,1,262.500002503395,2|0,3:2|0:0,0:0:0:0:
379,221,104312,2,0,L|259:258,1,125,4|0,3:2|0:0,0:0:0:0:
5,132,104632,6,2,B|40:46|166:85|110:192|213:170|218:110|174:109|171:123,1,243.750006973744,10|0,0:2|0:0,0:0:0:0:
109,15,104953,6,2,P|89:90|87:207,1,175.00000166893,2|4,0:2|3:2,0:0:0:0:
182,360,105435,1,0,0:0:0:0:
260,304,105595,6,0,P|286:252|254:187,1,125,2|0,0:2|3:2,0:0:0:0:
77,275,105916,2,0,B|47:316|47:316|201:362,1,187.5,10|0,0:2|0:0,0:0:0:0:
182,360,106237,2,0,L|307:329,1,125,0|0,3:2|0:0,0:0:0:0:
454,161,106558,5,2,0:2:0:0:
375,192,106718,1,0,0:0:0:0:
261,36,106878,6,0,L|242:109,1,62.5,6|0,3:2|0:3,0:3:0:0:
241,121,107039,1,0,0:3:0:0:
60,12,107199,6,0,B|166:373|52:13|157:374,1,375,10|0,0:2|0:0,0:0:0:0:
51,342,107841,6,2,B|26:202|269:148|213:381|392:375|432:204|355:199|321:203,1,487.500013947487,6|0,3:2|0:0,0:0:0:0:
247,179,108483,6,2,B|220:158|175:192|151:250|266:335|313:341,1,243.750006973744,10|0,0:2|0:0,0:0:0:0:
327,259,108804,6,2,B|295:247|168:261|140:300|151:372|203:376,1,262.500002503395,2|0,3:2|0:0,0:0:0:0:
295,335,109445,2,2,L|315:169,1,162.500004649162,6|0,3:2|0:0,0:0:0:0:
416,0,109766,6,2,B|437:-11|496:48|425:132|343:112|302:49,1,243.750006973744,10|0,0:2|0:0,0:0:0:0:
243,122,110087,6,2,P|309:124|406:176,1,175.00000166893,2|4,0:2|3:2,0:0:0:0:
474,338,110568,1,0,0:0:0:0:
388,360,110729,6,0,P|326:322|325:234,1,125,2|0,0:2|3:2,0:0:0:0:
345,61,111050,2,0,B|389:73|389:73|248:132,1,187.5,10|0,0:2|0:0,0:0:0:0:
262,131,111370,2,0,L|107:97,1,125,0|0,3:2|0:0,0:0:0:0:
16,24,111691,5,2,0:2:0:0:
101,10,111852,1,0,0:0:0:0:
86,216,112012,6,0,L|13:202,1,62.5,6|0,3:2|0:0,0:0:0:0:
10,192,112173,1,0,0:0:0:0:
140,104,112333,6,0,B|400:82|139:108|400:87,1,250,10|2,0:2|0:0,0:0:0:0:
259,16,112814,1,0,0:0:0:0:
343,189,112975,6,2,B|334:173|338:153|338:153|343:132|395:41|330:-70|145:-49|125:87|202:157|210:178|210:178|215:200|211:209,1,487.500013947487,6|0,0:2|0:0,0:0:0:0:
294,262,113616,6,2,L|302:351,1,87.500000834465,10|0,0:2|0:0,0:0:0:0:
305,353,113937,2,2,B|247:300|313:222|411:245|378:57|221:101|249:187,1,350.00000333786,2|0,0:2|0:0,0:0:0:0:
126,297,114900,6,2,P|66:325|40:359,1,87.500000834465,10|0,0:2|0:0,0:0:0:0:
40,236,115221,2,2,B|38:204|77:184|211:176|99:299|158:340|280:332|267:226|205:226|165:252|214:295,1,262.500002503395,2|0,0:2|0:0,0:0:0:0:
190,171,115862,6,0,L|148:73,1,87.500000834465,2|0,0:2|0:0,0:0:0:0:
234,62,116183,2,0,L|268:142,1,87.500000834465,10|0,0:2|0:0,0:0:0:0:
389,253,116504,2,0,B|448:240|448:240|459:165,1,131.250001251698,2|0,0:2|0:0,0:0:0:0:
445,161,116825,5,2,0:2:0:0:
382,85,116985,1,0,0:0:0:0:
351,165,117146,2,0,B|392:172|392:172|433:153,1,87.500000834465,2|0,0:2|0:0,0:0:0:0:
283,0,117467,2,0,B|262:260|277:-9|253:259,1,262.500002503395,10|0,0:2|0:0,0:0:0:0:
351,233,118108,6,2,P|312:152|170:52,1,262.500002503395,6|0,0:2|0:0,0:0:0:0:
109,10,118750,2,2,P|96:76|118:124,1,87.500000834465,10|0,0:2|0:0,0:0:0:0:
209,191,119071,2,2,B|230:175|205:93|53:133|143:313,1,262.500002503395,2|0,0:2|0:0,0:0:0:0:
208,346,119713,6,2,P|255:327|273:287,1,87.500000834465,2|0,0:2|0:0,0:0:0:0:
358,316,120033,2,2,P|365:265|339:230,1,87.500000834465,10|0,0:2|0:0,0:0:0:0:
150,205,120354,2,2,B|290:273|263:97|422:182,1,262.500002503395,2|0,0:2|0:0,0:0:0:0:
346,236,120996,6,0,B|331:278|331:278|285:293,1,87.500000834465,2|0,0:2|0:0,0:0:0:0:
198,384,121317,2,0,L|208:279,1,87.500000834465,10|0,0:2|0:0,0:0:0:0:
254,86,121638,2,0,B|274:118|274:118|262:217,1,131.250001251698,2|0,0:2|0:0,0:0:0:0:
263,211,121959,5,2,0:2:0:0:
267,215,122279,1,2,0:2:0:0:
267,215,122600,2,0,B|162:200|264:219|153:203,1,110.000003356934,2|0,0:2|3:0,0:0:0:0:
