osu file format v14

[General]
AudioFilename: audio.mp3
AudioLeadIn: 0
PreviewTime: 80219
Countdown: 0
SampleSet: Soft
StackLeniency: 0.7
Mode: 0
LetterboxInBreaks: 0
WidescreenStoryboard: 1

[Editor]
Bookmarks: 10153
DistanceSpacing: 1.3
BeatDivisor: 8
GridSize: 32
TimelineZoom: 1.3

[Metadata]
Title:gone girl feat. Trippie Redd
TitleUnicode:gone girl feat. Trippie Redd
Artist:iann dior
ArtistUnicode:iann dior
Creator:Mimari
Version:tricolor's lust
Source:
Tags:english hip hop hip-hop pop emo rap ft industry plant trap male vocals shiinoha kotone door weapon xiced tomadoi tricolor
BeatmapID:2477273
BeatmapSetID:1188670

[Difficulty]
HPDrainRate:6
CircleSize:4
OverallDifficulty:8
ApproachRate:9
SliderMultiplier:3.4
SliderTickRate:1

[Events]
//Background and Video events
0,0,"103912.jpg",0,0
//Break Periods
2,50574,58153
2,101100,108679
//Storyboard Layer 0 (Background)
//Storyboard Layer 1 (Fail)
//Storyboard Layer 2 (Pass)
//Storyboard Layer 3 (Foreground)
//Storyboard Layer 4 (Overlay)
//Storyboard Sound Samples

[TimingPoints]
48,631.578947368421,4,2,1,54,1,0
10153,-100,4,2,1,54,0,1
14811,-100,4,2,1,5,0,1
14890,-100,4,2,1,54,0,1
20495,-100,4,2,1,5,0,1
20574,-100,4,2,1,54,0,1
23969,-100,4,2,1,5,0,1
24048,-100,4,2,1,54,0,1
27758,-100,4,2,1,5,0,1
27837,-100,4,2,1,54,0,1
30363,-333.333333333333,4,2,1,54,0,0
39521,-250,4,2,1,54,0,0
39837,-142.857142857143,4,2,1,54,0,0
40153,-333.333333333333,4,2,1,54,0,0
40469,-125,4,2,1,54,0,0
42284,-125,4,2,1,5,0,0
42363,-125,4,2,1,54,0,0
43626,-90.9090909090909,4,2,1,54,0,0
43863,-90.9090909090909,4,2,1,5,0,0
43942,-125,4,2,1,54,0,0
44811,-125,4,2,1,5,0,0
44890,-125,4,2,1,54,0,0
45205,-250,4,2,1,54,0,0
45521,-125,4,2,1,54,0,0
46153,-111.111111111111,4,2,1,54,0,0
46469,-125,4,2,1,54,0,0
46705,-125,4,2,1,5,0,0
46784,-125,4,2,1,54,0,0
48205,-111.111111111111,4,2,1,54,0,0
48679,-142.857142857143,4,2,1,54,0,0
48995,-125,4,2,1,54,0,0
59100,-142.857142857143,4,2,1,54,0,0
59574,-142.857142857143,4,2,1,5,0,0
59732,-250,4,2,1,54,0,0
60521,-250,4,2,1,5,0,0
60679,-90.9090909090909,4,2,1,54,0,1
64074,-90.9090909090909,4,2,1,5,0,1
64153,-90.9090909090909,4,2,1,54,0,1
69758,-90.9090909090909,4,2,1,5,0,1
69837,-90.9090909090909,4,2,1,54,0,1
73548,-90.9090909090909,4,2,1,5,0,1
73626,-90.9090909090909,4,2,1,54,0,1
74179,-90.9090909090909,4,2,1,5,0,1
74258,-90.9090909090909,4,2,1,54,0,1
74811,-90.9090909090909,4,2,1,5,0,1
74890,-90.9090909090909,4,2,1,54,0,1
80416,-100,4,2,1,54,0,1
80890,-250,4,2,1,54,0,0
89100,-125,4,2,1,54,0,0
90995,-125,4,2,1,54,0,0
109626,-125,4,2,1,54,0,0
110100,-125,4,2,1,5,0,0
110258,-250,4,2,1,54,0,0
111048,-250,4,2,1,5,0,0
111205,-90.9090909090909,4,2,1,54,0,1
116495,-90.9090909090909,4,2,1,5,0,1
116574,-90.9090909090909,4,2,1,54,0,1
129837,-250,4,2,1,54,0,1
130153,-250,4,2,1,54,0,0

[Colours]
Combo1 : 234,167,248
Combo2 : 145,214,240
Combo3 : 157,173,247

[HitObjects]
30,54,10153,6,0,P|69:104|67:219,1,170,6|0,3:2|0:0,0:0:0:0:
57,213,10626,1,0,0:0:0:0:
226,299,10784,2,0,P|197:271|147:259,1,85,8|0,0:0|0:0,0:0:0:0:
77,384,11100,2,0,P|106:356|156:344,1,85,0|0,3:2|0:0,0:0:0:0:
350,384,11416,6,0,P|338:305|326:211,2,170,0|2|8,0:0|0:3|0:0,0:0:0:0:
350,384,12363,1,0,0:0:0:0:
178,148,12679,6,0,L|262:186,1,85,2|0,3:2|0:0,0:0:0:0:
416,32,12995,2,0,L|332:70,1,85,0|0,0:0|0:0,0:0:0:0:
472,217,13311,1,8,0:0:0:0:
472,217,13626,1,0,3:2:0:0:
410,124,13784,1,0,0:0:0:0:
393,298,13942,6,0,P|433:306|477:330,1,85,0|0,0:0|0:0,0:0:0:0:
255,183,14258,2,0,P|217:202|175:211,1,85,0|0,3:2|0:0,0:0:0:0:
37,382,14574,2,0,L|78:255,1,127.5,8|0,0:0|0:0,0:0:0:0:
76,260,14890,2,0,P|117:268|155:288,1,85,2|2,0:3|0:3,0:0:0:0:
247,36,15205,6,0,P|195:52|130:145,1,170,6|0,3:2|0:0,0:0:0:0:
175,211,15679,1,0,0:0:0:0:
2,40,15837,2,0,L|91:4,1,85,8|0,0:0|0:0,0:0:0:0:
130,142,16153,2,0,L|41:106,1,85,0|0,3:2|0:0,0:0:0:0:
248,317,16469,6,0,L|422:261,1,170,0|2,0:0|0:3,0:0:0:0:
355,201,16942,1,0,0:0:0:0:
410,355,17100,1,8,0:0:0:0:
478,59,17416,1,0,0:0:0:0:
169,247,17732,5,2,3:2:0:0:
169,247,17890,2,0,P|209:229|254:221,1,85,0|0,3:2|0:0,0:0:0:0:
323,319,18205,1,0,0:0:0:0:
490,290,18363,2,0,P|448:281|409:264,1,85,8|0,0:0|0:0,0:0:0:0:
324,10,18679,6,0,P|354:50|355:170,1,170,0|0,3:2|0:0,0:0:0:0:
330,237,19153,1,0,0:0:0:0:
512,50,19311,2,0,P|473:35|423:26,1,85,0|0,3:2|0:0,0:0:0:0:
181,175,19626,5,8,0:0:0:0:
235,43,19784,2,0,L|258:136,2,85,0|2|2,3:2|0:3|0:3,0:0:0:0:
15,51,20258,6,0,B|93:52|60:84|157:87,1,127.5,6|0,3:2|0:0,0:0:0:0:
135,85,20574,2,0,L|153:2,1,85,0|0,0:0|0:0,0:0:0:0:
111,264,20890,2,0,L|30:289,1,85,8|0,0:0|0:0,0:0:0:0:
51,204,21205,1,0,3:2:0:0:
97,372,21363,5,0,0:0:0:0:
166,323,21521,2,0,L|342:373,2,170,0|2|8,0:0|0:3|0:0,0:0:0:0:
381,99,22469,2,0,B|367:138|367:138|385:185,1,85,0|0,0:0|0:0,0:0:0:0:
460,198,22784,5,2,3:2:0:0:
126,49,23100,1,0,0:0:0:0:
305,2,23258,1,0,0:0:0:0:
208,86,23416,2,0,L|220:-10,1,85,8|0,0:0|0:0,0:0:0:0:
229,178,23732,2,0,P|181:187|114:240,1,127.5,0|0,3:2|0:0,0:0:0:0:
118,233,24048,6,0,L|32:216,1,85,0|0,0:0|0:0,0:0:0:0:
258,309,24363,2,0,L|171:291,1,85,0|0,3:2|0:0,0:0:0:0:
174,292,24679,2,0,L|257:275,1,85,8|0,0:0|0:0,0:0:0:0:
404,148,24995,2,0,L|487:131,1,85,2|2,0:3|0:3,0:0:0:0:
433,384,25311,6,0,P|453:289|464:208,1,170,6|0,3:2|0:0,0:0:0:0:
463,216,25784,1,0,0:0:0:0:
484,0,25942,2,0,P|475:42|470:84,1,85,8|0,0:0|0:0,0:0:0:0:
404,148,26258,6,0,B|307:134|336:190|235:175,1,170,0|0,3:2|0:0,0:0:0:0:
404,148,26732,1,0,0:0:0:0:
155,205,26890,2,0,L|168:112,1,85,2|0,0:3|0:0,0:0:0:0:
349,281,27205,2,0,L|360:365,1,85,8|0,0:0|0:0,0:0:0:0:
140,363,27521,2,0,L|276:340,1,127.5,2|0,0:3|0:0,0:0:0:0:
265,341,27837,5,2,3:2:0:0:
58,384,27995,2,0,P|21:344|40:233,1,170,0|0,3:2|0:0,0:0:0:0:
270,164,28469,2,0,P|257:202|249:251,1,85,8|0,0:0|0:0,0:0:0:0:
60,77,28784,6,0,B|156:71|115:15|228:16,1,170,0|0,3:2|0:0,0:0:0:0:
267,68,29258,1,0,0:0:0:0:
472,24,29416,2,0,P|428:16|386:5,1,85,0|0,3:2|0:0,0:0:0:0:
426,289,29732,5,2,0:0:0:0:
476,190,29890,1,0,0:0:0:0:
377,139,30048,1,2,0:0:0:0:
327,238,30206,1,0,0:0:0:0:
403,211,30363,6,0,L|460:200,2,50.9999984436036,6|0|8,3:2|0:0|0:0,0:0:0:0:
346,270,31311,1,0,0:0:0:0:
46,96,31626,6,0,L|104:111,1,50.9999984436036,0|0,0:0|0:0,0:0:0:0:
70,208,32258,6,0,L|63:178,1,25.4999992218018,8|0,0:0|0:0,0:0:0:0:
97,312,32574,2,0,L|90:282,1,25.4999992218018
266,16,32890,6,0,L|259:67,1,50.9999984436036,2|0,3:2|0:0,0:0:0:0:
155,228,33521,2,0,L|191:219,1,25.4999992218018,8|0,0:0|0:0,0:0:0:0:
191,305,33837,1,0,0:0:0:0:
191,305,33995,1,0,0:0:0:0:
134,69,34153,2,0,L|79:61,1,50.9999984436036,0|0,0:0|0:0,0:0:0:0:
297,195,34784,6,0,L|327:189,1,25.4999992218018,8|0,0:0|0:0,0:0:0:0:
470,153,35100,2,0,L|500:147,1,25.4999992218018,0|0,0:0|0:0,0:0:0:0:
392,142,35416,6,0,L|403:191,1,50.9999984436036,2|0,3:2|0:0,0:0:0:0:
495,285,36048,6,0,L|462:273,1,25.4999992218018,8|0,0:0|0:0,0:0:0:0:
453,355,36363,1,0,0:0:0:0:
453,355,36521,1,0,0:0:0:0:
153,350,36679,2,0,L|204:333,1,50.9999984436036
269,138,37311,6,0,L|279:168,1,25.4999992218018,8|0,0:0|0:0,0:0:0:0:
231,226,37626,2,0,L|241:256,1,25.4999992218018
331,52,37942,6,0,L|340:-4,1,50.9999984436036,2|0,3:2|0:0,0:0:0:0:
120,95,38574,2,0,L|87:103,1,25.4999992218018,8|0,0:0|0:0,0:0:0:0:
197,73,38890,1,0,0:0:0:0:
480,131,39205,1,0,0:0:0:0:
409,58,39521,6,0,P|392:65|378:81,1,34,2|0,0:0|0:0,0:0:0:0:
204,174,39837,6,0,P|198:203|206:240,1,59.4999981842042,2|0,0:0|0:0,0:0:0:0:
281,211,40153,6,0,L|310:203,1,25.4999992218018,2|0,0:0|0:0,0:0:0:0:
512,373,40469,6,0,B|475:351|475:351|388:369|341:284,1,204,6|0,3:2|0:0,0:0:0:0:
249,303,41100,2,0,B|252:318|270:327|270:327|260:313|259:293,1,68,8|0,0:0|0:0,0:0:0:0:
76,233,41416,2,0,B|114:209|154:220|154:220|184:283|139:344,1,204,0|0,3:2|0:0,0:0:0:0:
61,215,42048,2,0,B|73:167|73:167|68:167|68:167|83:113,1,102,0|0,0:0|0:0,0:0:0:0:
73,105,42363,6,0,L|5:124,1,68,8|0,0:0|0:0,0:0:0:0:
223,18,42679,2,0,L|291:37,1,68,0|0,0:0|0:0,0:0:0:0:
489,190,42995,6,0,B|463:157|410:180|410:180|482:164|468:76,1,204,2|0,3:2|0:0,0:0:0:0:
335,0,43626,2,0,B|378:-9|402:22|405:61,1,93.5000028533936,8|0,0:0|0:0,0:0:0:0:
358,122,43942,2,0,B|245:102|279:186|165:171,1,204,0|0,3:2|0:0,0:0:0:0:
0,246,44574,2,0,P|29:204|54:156,1,102,0|0,3:2|0:0,0:0:0:0:
52,158,44890,5,8,0:0:0:0:
172,242,45048,1,0,0:0:0:0:
97,324,45205,6,0,P|94:305|88:283,1,34,0|0,0:0|0:0,0:0:0:0:
5,333,45521,6,0,B|53:313|100:349|100:349|97:353|97:353|144:387|198:353,1,204,2|0,3:2|0:0,0:0:0:0:
448,362,46153,2,0,B|401:351|419:371|368:361,1,76.4999976654053,8|0,0:0|0:0,0:0:0:0:
275,218,46469,6,0,B|288:239|288:239|279:304|279:304|294:331,1,102,0|0,3:2|0:0,0:0:0:0:
284,314,46784,2,0,B|268:278|268:278|285:153|285:153|264:113,1,204,0|0,0:0|0:0,0:0:0:0:
195,169,47416,5,8,0:0:0:0:
391,93,47574,1,0,0:0:0:0:
195,169,47732,2,0,L|123:153,1,68,0|0,0:0|0:0,0:0:0:0:
283,123,48048,5,2,3:2:0:0:
47,209,48205,2,0,L|202:167,1,152.999995330811,0|0,3:2|0:0,0:0:0:0:
275,218,48679,2,0,L|266:280,1,59.4999981842042,8|0,0:0|0:0,0:0:0:0:
217,5,48995,2,0,L|206:77,1,68,0|0,3:2|0:0,0:0:0:0:
283,123,49311,6,0,P|340:93|423:98,1,136,0|2,0:0|3:2,0:0:0:0:
410,93,49942,1,2,3:2:0:0:
51,347,59100,6,0,P|108:290|217:292,1,178.499994552612,2|0,0:0|0:0,0:0:0:0:
201,285,59732,6,0,B|177:308|177:308|151:161,1,170,2|0,0:0|0:0,0:0:0:0:
34,132,60679,6,0,B|139:123|83:66|198:57,1,187.000005706787,6|0,3:2|0:0,0:0:0:0:
264,0,61153,1,0,0:0:0:0:
429,150,61311,2,0,P|397:114|380:69,1,93.5000028533936,8|0,0:0|0:0,0:0:0:0:
212,254,61626,2,0,P|244:218|261:173,1,93.5000028533936,0|0,3:2|0:0,0:0:0:0:
474,282,61942,6,0,P|422:276|307:350,2,187.000005706787,0|2|8,0:0|0:3|0:0,0:0:0:0:
123,127,62890,1,0,0:0:0:0:
212,255,63048,1,0,0:0:0:0:
310,100,63205,6,0,P|281:138|240:166,1,93.5000028533936,2|0,3:2|0:0,0:0:0:0:
500,94,63521,2,0,P|481:49|477:0,1,93.5000028533936,0|0,0:0|0:0,0:0:0:0:
425,229,63837,2,0,B|441:272|441:272|426:320|426:320|451:377,1,140.25000428009,8|0,0:0|0:0,0:0:0:0:
454,344,64153,2,0,B|440:301|440:301|432:296|432:296|418:259,1,93.5000028533936,0|0,3:2|0:0,0:0:0:0:
243,164,64469,5,0,0:0:0:0:
243,164,64784,1,0,3:2:0:0:
334,357,64942,1,0,0:0:0:0:
384,290,65100,2,0,L|291:278,1,93.5000028533936,8|0,0:0|0:0,0:0:0:0:
234,348,65416,2,0,L|141:336,1,93.5000028533936,2|0,0:3|0:0,0:0:0:0:
0,90,65732,6,0,P|63:109|141:202,1,187.000005706787,6|0,3:2|0:0,0:0:0:0:
49,255,66205,1,0,0:0:0:0:
227,99,66363,2,0,P|208:59|202:8,1,93.5000028533936,8|0,0:0|0:0,0:0:0:0:
410,177,66679,2,0,P|404:223|384:265,1,93.5000028533936,0|0,3:2|0:0,0:0:0:0:
117,42,66995,6,0,P|206:24|307:7,2,187.000005706787,0|2|8,0:0|0:3|0:0,0:0:0:0:
423,193,67942,1,0,0:0:0:0:
121,358,68258,5,2,3:2:0:0:
227,201,68416,2,0,B|184:307|261:279|210:393,1,187.000005706787,0|0,3:2|0:0,0:0:0:0:
421,306,68890,2,0,P|377:311|326:332,1,93.5000028533936,8|0,0:0|0:0,0:0:0:0:
150,158,69205,2,0,P|193:175|239:180,1,93.5000028533936,0|0,3:2|0:0,0:0:0:0:
433,11,69521,6,0,P|379:40|338:127,1,140.25000428009,0|0,0:0|0:0,0:0:0:0:
340,106,69837,2,0,L|354:206,1,93.5000028533936,0|0,3:2|0:0,0:0:0:0:
421,306,70153,5,8,0:0:0:0:
241,92,70311,2,0,L|228:0,1,93.5000028533936,0|2,3:2|0:3,0:0:0:0:
42,171,70626,1,2,0:3:0:0:
270,335,70784,6,0,B|163:343|221:279|90:297,1,187.000005706787,6|0,3:2|0:0,0:0:0:0:
42,366,71258,1,0,0:0:0:0:
293,176,71416,2,0,P|266:212|254:268,1,93.5000028533936,8|0,0:0|0:0,0:0:0:0:
77,43,71732,2,0,P|104:79|116:135,1,93.5000028533936,0|0,3:2|0:0,0:0:0:0:
404,23,72048,6,0,B|306:-13|326:45|216:25,2,187.000005706787,0|2|8,0:0|0:3|0:0,0:0:0:0:
345,347,72995,1,0,0:0:0:0:
229,192,73153,1,0,0:0:0:0:
402,218,73311,6,0,P|361:226|275:298,1,140.25000428009,2|0,3:2|0:0,0:0:0:0:
283,284,73626,2,0,L|179:273,1,93.5000028533936,0|0,0:0|0:0,0:0:0:0:
17,354,73942,2,0,B|52:325|52:325|27:227,1,140.25000428009,8|0,0:0|0:0,0:0:0:0:
28,233,74258,2,0,L|120:223,1,93.5000028533936,0|0,3:2|0:0,0:0:0:0:
160,154,74574,6,0,B|173:75|128:99|148:12,1,140.25000428009,0|0,0:0|0:0,0:0:0:0:
146,17,74890,1,0,3:2:0:0:
11,46,75048,1,0,0:0:0:0:
261,5,75205,2,0,L|357:21,1,93.5000028533936,8|0,0:0|0:0,0:0:0:0:
512,120,75521,2,0,P|491:75|483:27,1,93.5000028533936,2|0,0:3|0:0,0:0:0:0:
356,199,75837,6,0,P|418:207|508:307,1,187.000005706787,6|0,3:2|0:0,0:0:0:0:
340,186,76311,1,0,0:0:0:0:
221,356,76469,2,0,P|247:325|264:274,1,93.5000028533936,8|0,0:0|0:0,0:0:0:0:
209,57,76784,6,0,P|172:90|29:98,1,187.000005706787,0|0,3:2|0:0,0:0:0:0:
232,62,77258,1,0,0:0:0:0:
92,284,77416,2,0,P|70:245|68:188,1,93.5000028533936,2|0,0:3|0:0,0:0:0:0:
340,186,77732,2,0,P|362:226|365:272,1,93.5000028533936,8|0,0:0|0:0,0:0:0:0:
182,277,78048,2,0,L|279:248,1,93.5000028533936,0|0,0:0|0:0,0:0:0:0:
340,186,78363,5,2,3:2:0:0:
102,52,78521,2,0,L|300:97,1,187.000005706787,0|0,3:2|0:0,0:0:0:0:
480,8,78995,2,0,L|380:38,1,93.5000028533936,8|0,0:0|0:0,0:0:0:0:
346,287,79311,6,0,B|364:228|364:228|345:164|345:164|363:103,1,187.000005706787,0|0,3:2|0:0,0:0:0:0:
433,142,79784,1,0,0:0:0:0:
268,240,79942,2,0,L|171:263,1,93.5000028533936,0|0,3:2|0:0,0:0:0:0:
330,155,80258,5,8,0:0:0:0:
131,142,80416,2,0,L|216:159,1,85,0|2,3:2|0:3,0:0:0:0:
113,120,80732,1,2,0:3:0:0:
169,293,80890,6,0,L|102:312,2,68,6|0|8,3:2|0:0|0:0,0:0:0:0:
249,364,81837,1,0,0:0:0:0:
458,18,82153,6,0,L|475:86,1,68,0|0,0:0|0:0,0:0:0:0:
427,158,82784,6,0,L|386:147,1,34,8|0,0:0|0:0,0:0:0:0:
255,161,83100,1,0,0:0:0:0:
255,161,83258,1,0,0:0:0:0:
60,195,83416,6,0,L|138:180,1,68,2|0,3:2|0:0,0:0:0:0:
81,37,84047,2,0,L|76:84,1,34,8|0,0:0|0:0,0:0:0:0:
163,10,84363,2,0,L|158:57,1,34,0|0,0:0|0:0,0:0:0:0:
120,287,84679,2,0,L|135:355,1,68,0|0,0:0|0:0,0:0:0:0:
230,300,85311,6,0,L|272:312,1,34,8|0,0:0|0:0,0:0:0:0:
383,283,85626,2,0,L|350:273,1,34,0|0,0:0|0:0,0:0:0:0:
222,139,85942,6,0,L|213:68,1,68,2|0,3:2|0:0,0:0:0:0:
379,51,86574,6,0,L|343:59,1,34,8|0,0:0|0:0,0:0:0:0:
469,36,86890,1,0,0:0:0:0:
469,36,87047,1,0,0:0:0:0:
380,133,87205,2,0,L|449:151,1,68,0|0,0:0|0:0,0:0:0:0:
144,248,87837,6,0,L|76:270,1,68,8|0,0:0|0:0,0:0:0:0:
79,268,88311,1,0,0:0:0:0:
79,268,88469,1,2,3:2:0:0:
198,351,88784,1,0,0:0:0:0:
64,127,89100,6,0,L|204:168,1,136,8|0,0:0|3:2,0:0:0:0:
194,165,89574,1,0,0:0:0:0:
194,165,89732,1,0,0:0:0:0:
134,0,90048,1,0,3:2:0:0:
46,353,90363,5,2,0:0:0:0:
46,353,90995,6,0,B|128:341|90:303|186:297,1,136,6|0,3:2|0:0,0:0:0:0:
235,334,91469,1,0,0:0:0:0:
415,345,91626,2,0,P|376:296|297:298,1,136,8|0,0:0|3:2,0:0:0:0:
306,293,92258,6,0,P|316:262|319:218,1,68,0|0,0:0|0:0,0:0:0:0:
268,26,92574,2,0,P|258:57|255:101,1,68,0|0,0:0|0:0,0:0:0:0:
311,150,92890,2,0,B|388:133|373:169|455:152,1,136,8|0,0:0|0:0,0:0:0:0:
445,153,93363,1,0,0:0:0:0:
228,216,93521,6,0,P|182:188|101:194,1,136,2|0,3:2|0:0,0:0:0:0:
387,349,94153,2,0,P|453:357|512:326,1,136,8|0,0:0|3:2,0:0:0:0:
512,325,94626,1,0,0:0:0:0:
298,318,94784,6,0,P|306:352|310:391,1,68,0|0,0:0|0:0,0:0:0:0:
400,206,95100,2,0,P|392:172|388:139,1,68,0|0,3:2|0:0,0:0:0:0:
439,69,95416,2,0,P|396:41|304:49,1,136,8|0,0:0|0:0,0:0:0:0:
313,44,95890,1,0,0:0:0:0:
104,178,96048,6,0,P|124:111|139:21,1,136,2|0,3:2|0:0,0:0:0:0:
407,300,96679,2,0,P|387:233|372:143,1,136,8|0,0:0|3:2,0:0:0:0:
374,168,97153,1,0,0:0:0:0:
237,288,97311,6,0,P|270:297|302:311,1,68,0|0,0:0|0:0,0:0:0:0:
81,210,97626,2,0,P|49:223|17:232,1,68,0|0,0:0|0:0,0:0:0:0:
133,366,97942,6,0,L|155:231,1,136,8|0,0:0|0:0,0:0:0:0:
233,203,98416,1,0,0:0:0:0:
58,29,98574,5,2,3:2:0:0:
17,142,98732,2,0,B|135:152|92:90|212:103,1,204,0|8,3:2|0:0,0:0:0:0:
17,142,99521,1,2,3:2:0:0:
464,134,109626,6,0,P|406:79|271:72,1,204,2|0,0:0|0:0,0:0:0:0:
85,210,110258,6,0,P|147:194|219:108,1,170,2|0,0:0|0:0,0:0:0:0:
52,135,111205,6,0,P|70:225|73:325,1,187.000005706787,6|0,3:2|0:0,0:0:0:0:
21,380,111679,1,0,0:0:0:0:
249,312,111837,2,0,L|153:279,1,93.5000028533936,8|0,0:0|0:0,0:0:0:0:
29,114,112153,2,0,L|125:81,1,93.5000028533936,0|0,3:2|0:0,0:0:0:0:
360,182,112469,6,0,P|329:148|196:140,2,187.000005706787,0|2|8,0:0|0:3|0:0,0:0:0:0:
89,46,113416,1,0,0:0:0:0:
176,227,113574,1,0,0:0:0:0:
278,5,113732,6,0,P|238:39|193:59,1,93.5000028533936,2|0,3:2|0:0,0:0:0:0:
6,123,114048,2,0,P|47:143|82:174,1,93.5000028533936,0|0,0:0|0:0,0:0:0:0:
194,335,114363,6,0,B|95:303|116:372|9:347,1,187.000005706787,8|0,0:0|3:2,0:0:0:0:
176,227,114837,1,0,0:0:0:0:
305,384,114995,6,0,P|320:346|325:283,1,93.5000028533936,0|0,0:0|0:0,0:0:0:0:
277,62,115311,2,0,P|262:100|257:163,1,93.5000028533936,0|0,3:2|0:0,0:0:0:0:
309,217,115626,2,0,L|460:189,1,140.25000428009,8|0,0:0|0:0,0:0:0:0:
446,191,115942,2,0,P|432:234|426:283,1,93.5000028533936,2|0,0:3|0:0,0:0:0:0:
512,152,116258,6,0,B|492:94|500:2,1,140.25000428009,6|0,3:2|0:0,0:0:0:0:
471,37,116574,2,0,P|428:24|384:-2,1,93.5000028533936,0|0,0:0|0:0,0:0:0:0:
251,165,116890,2,0,P|291:141|335:127,1,93.5000028533936,8|0,0:0|0:0,0:0:0:0:
177,0,117205,2,0,L|158:94,1,93.5000028533936,0|0,3:2|0:0,0:0:0:0:
0,272,117521,6,0,P|44:223|169:213,2,187.000005706787,0|2|8,0:0|0:3|0:0,0:0:0:0:
333,377,118469,1,0,0:0:0:0:
239,130,118784,5,2,3:2:0:0:
249,214,118942,2,0,L|67:170,1,187.000005706787,0|0,3:2|0:0,0:0:0:0:
340,279,119416,2,0,L|431:250,1,93.5000028533936,8|0,0:0|0:0,0:0:0:0:
389,80,119732,2,0,P|371:121|369:176,1,93.5000028533936,0|0,3:2|0:0,0:0:0:0:
492,350,120048,6,0,P|510:309|512:254,1,93.5000028533936,0|0,0:0|0:0,0:0:0:0:
249,214,120363,2,0,L|159:242,1,93.5000028533936,0|0,3:2|0:0,0:0:0:0:
93,198,120679,5,8,0:0:0:0:
254,384,120837,2,0,L|269:291,2,93.5000028533936,0|2|2,3:2|0:3|0:3,0:0:0:0:
455,169,121311,6,0,B|349:160|393:112|277:103,1,187.000005706787,6|0,3:2|0:0,0:0:0:0:
370,39,121784,1,0,0:0:0:0:
116,193,121942,2,0,P|137:151|144:89,1,93.5000028533936,8|0,0:0|0:0,0:0:0:0:
350,242,122258,2,0,P|357:287|378:329,1,93.5000028533936,0|0,3:2|0:0,0:0:0:0:
76,341,122574,6,0,P|169:326|267:305,2,187.000005706787,0|2|8,0:0|0:3|0:0,0:0:0:0:
226,19,123521,2,0,P|240:61|247:121,1,93.5000028533936,0|0,0:0|0:0,0:0:0:0:
314,159,123837,6,0,B|426:149|377:91|508:97,1,187.000005706787,2|0,3:2|0:0,0:0:0:0:
314,159,124311,1,0,0:0:0:0:
472,301,124469,2,0,L|445:210,1,93.5000028533936,8|0,0:0|0:0,0:0:0:0:
184,384,124784,2,0,L|223:189,1,187.000005706787,0|0,3:2|0:0,0:0:0:0:
302,247,125258,5,0,0:0:0:0:
15,309,125416,2,0,L|110:335,1,93.5000028533936,0|0,3:2|0:0,0:0:0:0:
174,88,125732,1,8,0:0:0:0:
62,136,125890,1,0,0:0:0:0:
108,248,126048,1,2,0:3:0:0:
220,200,126206,1,0,0:0:0:0:
352,37,126363,6,0,P|407:49|483:150,1,187.000005706787,6|0,3:2|0:0,0:0:0:0:
430,196,126837,1,0,0:0:0:0:
512,371,126995,2,0,P|499:333|496:279,1,93.5000028533936,8|0,0:0|0:0,0:0:0:0:
294,343,127311,6,0,B|184:305|214:378|101:350,1,187.000005706787,0|0,3:2|0:0,0:0:0:0:
294,343,127784,1,0,0:0:0:0:
231,85,127942,2,0,L|209:188,1,93.5000028533936,2|0,0:3|0:0,0:0:0:0:
99,255,128258,2,0,L|65:96,1,140.25000428009,8|0,0:0|0:0,0:0:0:0:
69,117,128574,2,0,P|120:103|153:58,1,93.5000028533936,0|0,0:0|0:0,0:0:0:0:
342,0,128890,5,2,3:2:0:0:
211,176,129048,2,0,P|269:177|379:257,1,187.000005706787,0|0,3:2|0:0,0:0:0:0:
182,5,129521,2,0,P|175:48|150:95,1,93.5000028533936,8|0,0:0|0:0,0:0:0:0:
152,92,129837,6,0,P|100:51|25:47,1,136,2|2,0:0|0:0,0:0:0:0:
