osu file format v14

[General]
AudioFilename: audio.mp3
AudioLeadIn: 0
PreviewTime: 80219
Countdown: 0
SampleSet: Soft
StackLeniency: 0.7
Mode: 0
LetterboxInBreaks: 0
WidescreenStoryboard: 0

[Editor]
Bookmarks: 10153,30363,50574,59100,60679,80890,90995,99521,101100,109626,111205,130153
DistanceSpacing: 1.3
BeatDivisor: 6
GridSize: 32
TimelineZoom: 1

[Metadata]
Title:gone girl feat. Trippie Redd
TitleUnicode:gone girl feat. Trippie Redd
Artist:iann dior
ArtistUnicode:iann dior
Creator:Mimari
Version:hard
Source:
Tags:english hip hop hip-hop pop emo rap ft industry plant trap male vocals shiinoha kotone door weapon xiced tomadoi tricolor
BeatmapID:2476957
BeatmapSetID:1188670

[Difficulty]
HPDrainRate:5
CircleSize:4
OverallDifficulty:6.5
ApproachRate:8
SliderMultiplier:2.64
SliderTickRate:1

[Events]
//Background and Video events
0,0,"103912.jpg",0,0
//Break Periods
2,50574,58350
2,101100,108876
//Storyboard Layer 0 (Background)
//Storyboard Layer 1 (Fail)
//Storyboard Layer 2 (Pass)
//Storyboard Layer 3 (Foreground)
//Storyboard Layer 4 (Overlay)
//Storyboard Sound Samples

[TimingPoints]
48,631.578947368421,4,2,1,54,1,0
10153,-100,4,2,1,54,0,1
14811,-100,4,2,1,5,0,1
14890,-100,4,2,1,54,0,1
20495,-100,4,2,1,5,0,1
20574,-100,4,2,1,54,0,1
23969,-100,4,2,1,5,0,1
24048,-100,4,2,1,54,0,1
27758,-100,4,2,1,5,0,1
27837,-100,4,2,1,54,0,1
29732,-111.111111111111,4,2,1,54,0,1
30363,-142.857142857143,4,2,1,54,0,0
40469,-125,4,2,1,54,0,0
42284,-125,4,2,1,5,0,0
42363,-125,4,2,1,54,0,0
43863,-125,4,2,1,5,0,0
43942,-125,4,2,1,54,0,0
44811,-125,4,2,1,5,0,0
44890,-125,4,2,1,54,0,0
46705,-125,4,2,1,5,0,0
46784,-125,4,2,1,54,0,0
59100,-166.666666666667,4,2,1,54,0,0
59574,-166.666666666667,4,2,1,5,0,0
59732,-250,4,2,1,54,0,0
60521,-250,4,2,1,5,0,0
60679,-100,4,2,1,54,0,1
64074,-100,4,2,1,5,0,1
64153,-100,4,2,1,54,0,1
69758,-100,4,2,1,5,0,1
69837,-100,4,2,1,54,0,1
73548,-100,4,2,1,5,0,1
73626,-100,4,2,1,54,0,1
74179,-100,4,2,1,5,0,1
74258,-100,4,2,1,54,0,1
74811,-100,4,2,1,5,0,1
74890,-100,4,2,1,54,0,1
80258,-111.111111111111,4,2,1,54,0,1
80890,-142.857142857143,4,2,1,54,0,0
90995,-111.111111111111,4,2,1,54,0,0
109626,-166.666666666666,4,2,1,54,0,0
110100,-166.666666666666,4,2,1,5,0,0
110258,-199.999999999999,4,2,1,54,0,0
111048,-199.999999999999,4,2,1,5,0,0
111205,-100,4,2,1,54,0,1
116495,-100,4,2,1,5,0,1
116574,-100,4,2,1,54,0,1
129837,-125,4,2,1,54,0,1
130153,-100,4,2,1,54,0,0

[Colours]
Combo1 : 234,167,248
Combo2 : 145,214,240
Combo3 : 157,173,247

[HitObjects]
435,227,10153,5,6,3:2:0:0:
445,217,10469,6,0,L|354:203,1,66,0|0,0:0|0:0,0:0:0:0:
310,260,10784,2,0,L|244:270,1,66,8|0,0:0|0:0,0:0:0:0:
139,245,11100,2,0,P|127:214|134:173,1,66,0|0,3:2|0:0,0:0:0:0:
172,116,11416,1,0,0:0:0:0:
178,107,11732,6,0,L|87:93,1,66,2|0,0:3|0:0,0:0:0:0:
218,42,12048,2,0,L|231:191,1,132,8|0,0:0|0:0,0:0:0:0:
229,173,12521,1,0,0:0:0:0:
303,211,12679,6,0,L|383:198,1,66,2|0,3:2|0:0,0:0:0:0:
427,142,12995,2,0,L|492:152,1,66,0|0,0:0|0:0,0:0:0:0:
393,71,13311,2,0,P|376:137|367:220,1,132,8|0,0:0|3:2,0:0:0:0:
378,206,13942,6,0,P|388:247|393:289,1,66,0|0,0:0|0:0,0:0:0:0:
414,356,14258,2,0,L|325:341,1,66,0|0,3:2|0:0,0:0:0:0:
276,302,14574,2,0,L|134:324,1,132,8|2,0:0|0:3,0:0:0:0:
132,332,15205,5,6,3:2:0:0:
119,341,15521,2,0,L|124:275,1,66,0|0,0:0|0:0,0:0:0:0:
48,241,15837,2,0,L|42:175,1,66,8|0,0:0|0:0,0:0:0:0:
86,66,16153,2,0,P|123:71|146:94,1,66,0|0,3:2|0:0,0:0:0:0:
186,162,16469,1,0,0:0:0:0:
190,171,16784,6,0,L|109:185,1,66,2|0,0:3|0:0,0:0:0:0:
257,225,17100,2,0,P|315:232|401:242,1,132,8|0,0:0|0:0,0:0:0:0:
399,250,17732,5,2,3:2:0:0:
512,168,17890,1,0,3:2:0:0:
452,122,18048,2,0,P|439:154|444:194,1,66
512,70,18363,2,0,P|446:77|380:85,1,132,8|0,0:0|3:2,0:0:0:0:
367,96,18995,6,0,L|272:86,1,66,0|0,0:0|0:0,0:0:0:0:
236,138,19311,2,0,L|141:148,1,66,0|0,3:2|0:0,0:0:0:0:
235,21,19626,1,8,0:0:0:0:
235,21,19784,1,0,3:2:0:0:
301,89,19942,6,0,P|286:155|275:234,1,132,2|6,0:3|3:2,0:0:0:0:
284,234,20574,2,0,P|246:239|211:245,1,66,0|0,0:0|0:0,0:0:0:0:
144,324,20890,2,0,P|111:318|78:314,1,66,8|0,0:0|0:0,0:0:0:0:
151,204,21205,2,0,P|136:139|121:60,1,132,0|0,3:2|0:0,0:0:0:0:
109,64,21837,6,0,L|26:79,1,66,2|0,0:3|0:0,0:0:0:0:
175,131,22153,2,0,L|321:150,1,132,8|0,0:0|0:0,0:0:0:0:
316,141,22784,6,0,L|328:217,1,66,2|0,3:2|0:0,0:0:0:0:
376,270,23100,2,0,L|364:346,1,66,0|0,0:0|0:0,0:0:0:0:
508,368,23416,2,0,P|506:315|496:230,1,132,8|0,0:0|3:2,0:0:0:0:
481,218,24048,5,0,0:0:0:0:
469,204,24363,2,0,L|395:220,1,66,0|0,3:2|0:0,0:0:0:0:
337,173,24679,2,0,L|263:157,1,66,8|0,0:0|0:0,0:0:0:0:
142,112,24995,2,0,P|142:148|158:188,1,66,2|2,0:3|0:3,0:0:0:0:
230,251,25311,5,6,3:2:0:0:
239,264,25626,2,0,L|223:355,1,66,0|0,0:0|0:0,0:0:0:0:
132,366,25942,1,8,0:0:0:0:
126,376,26258,6,0,P|75:358|-1:341,1,132,0|0,3:2|0:0,0:0:0:0:
1,320,26890,2,0,L|9:238,1,66,2|0,0:3|0:0,0:0:0:0:
26,141,27205,1,8,0:0:0:0:
15,126,27521,6,0,P|79:112|141:91,1,132,2|2,0:3|3:2,0:0:0:0:
141,91,27995,1,0,3:2:0:0:
222,69,28153,2,0,L|211:147,1,66,0|0,0:0|0:0,0:0:0:0:
260,228,28469,1,8,0:0:0:0:
256,236,28784,6,0,B|402:201|338:343|509:278,1,264,0|0,3:2|3:2,0:0:0:0:
506,274,29732,5,2,0:0:0:0:
486,361,29890,1,0,0:0:0:0:
426,304,30048,5,2,0:0:0:0:
426,304,30205,1,0,0:0:0:0:
351,221,30363,6,0,L|341:117,2,92.3999971801759,6|0|8,3:2|0:0|0:0,0:0:0:0:
351,221,31311,1,0,0:0:0:0:
253,261,31626,2,0,L|243:157,1,92.3999971801759,0|0,0:0|0:0,0:0:0:0:
244,169,32258,6,0,L|179:157,1,46.1999985900879,8|0,0:0|0:0,0:0:0:0:
130,190,32574,2,0,L|65:178,1,46.1999985900879,0|0,0:0|0:0,0:0:0:0:
1,141,32890,6,0,L|9:232,2,92.3999971801759,2|0|8,3:2|0:0|0:0,0:0:0:0:
1,141,33837,1,0,0:0:0:0:
121,98,34153,2,0,L|129:189,1,92.3999971801759,0|0,0:0|0:0,0:0:0:0:
129,189,34784,6,0,L|194:177,1,46.1999985900879,8|0,0:0|0:0,0:0:0:0:
243,210,35100,2,0,L|308:198,1,46.1999985900879,0|0,0:0|0:0,0:0:0:0:
384,244,35416,6,0,L|375:355,2,92.3999971801759,2|0|8,3:2|0:0|0:0,0:0:0:0:
384,244,36363,1,0,0:0:0:0:
508,203,36679,2,0,L|500:295,1,92.3999971801759,0|0,0:0|0:0,0:0:0:0:
500,295,37311,6,0,L|452:302,1,46.1999985900879,8|0,0:0|0:0,0:0:0:0:
376,336,37626,2,0,L|328:343,1,46.1999985900879,0|0,0:0|0:0,0:0:0:0:
238,374,37942,6,0,L|245:281,2,92.3999971801759,2|0|8,3:2|0:0|0:0,0:0:0:0:
238,374,38890,1,0,0:0:0:0:
112,368,39205,6,0,L|119:275,2,92.3999971801759,0|2|2,0:0|0:0|0:0,0:0:0:0:
37,137,40469,6,0,B|116:114|93:186|196:157,1,158.4,6|0,3:2|0:0,0:0:0:0:
238,63,41100,2,0,P|209:71|213:90,1,52.8,8|0,0:0|0:0,0:0:0:0:
333,122,41416,6,0,P|352:83|324:8,1,105.6,0|0,3:2|0:0,0:0:0:0:
339,24,42048,1,0,0:0:0:0:
422,116,42363,2,0,B|453:70|497:85|519:141|480:181,1,158.4,8|0,0:0|0:0,0:0:0:0:
480,256,42995,6,0,B|433:253|413:212|413:212|365:197|338:240,1,158.4,2|0,3:2|0:0,0:0:0:0:
303,305,43626,2,0,P|274:305|255:276,1,52.8,8|0,0:0|0:0,0:0:0:0:
195,239,43942,6,0,P|214:278|186:353,1,105.6,0|0,3:2|0:0,0:0:0:0:
201,337,44574,1,0,3:2:0:0:
56,367,44890,2,0,B|21:326|70:300|92:249|60:211,1,158.4,8|0,0:0|0:0,0:0:0:0:
21,155,45521,6,0,B|74:127|118:166|118:166|151:167|172:144,1,158.4,2|0,3:2|0:0,0:0:0:0:
191,60,46153,2,0,P|170:54|148:91,1,52.8,8|0,0:0|0:0,0:0:0:0:
240,147,46469,6,0,P|268:184|270:247,1,105.6,0|0,3:2|0:0,0:0:0:0:
271,241,47100,1,0,0:0:0:0:
195,371,47416,2,0,B|274:394|251:322|354:351,1,158.4,8|0,0:0|0:0,0:0:0:0:
447,373,48048,1,2,3:2:0:0:
447,373,48205,6,0,P|462:337|446:273,1,105.6,0|0,3:2|0:0,0:0:0:0:
355,226,48679,2,0,P|382:201|402:215,1,52.8,8|0,0:0|0:0,0:0:0:0:
484,205,48995,6,0,P|467:155|484:106,1,105.6,0|0,3:2|0:0,0:0:0:0:
484,106,49626,5,2,3:2:0:0:
339,38,49942,1,2,3:2:0:0:
68,68,59100,6,0,P|116:50|150:103,1,118.799996374512,2|0,0:0|0:0,0:0:0:0:
150,98,59732,6,0,P|111:78|66:145,1,132,2|0,0:0|0:0,0:0:0:0:
121,220,60679,5,6,3:2:0:0:
117,228,60995,6,0,L|202:220,1,66,0|0,0:0|0:0,0:0:0:0:
246,279,61311,2,0,L|331:287,1,66,8|0,0:0|0:0,0:0:0:0:
424,331,61627,2,0,P|436:300|429:259,1,66,0|0,3:2|0:0,0:0:0:0:
400,174,61943,1,0,0:0:0:0:
406,159,62259,6,0,L|471:169,1,66,2|0,0:3|0:0,0:0:0:0:
367,70,62574,2,0,P|295:81|221:94,1,132,8|0,0:0|0:0,0:0:0:0:
236,91,63048,1,0,0:0:0:0:
154,119,63205,6,0,L|159:44,1,66,2|0,3:2|0:0,0:0:0:0:
66,51,63521,2,0,L|71:126,1,66,0|0,0:0|0:0,0:0:0:0:
143,201,63837,2,0,P|77:189|12:179,1,132,8|0,0:0|3:2,0:0:0:0:
3,186,64469,6,0,P|13:227|18:269,1,66,0|0,0:0|0:0,0:0:0:0:
75,303,64784,2,0,P|65:344|60:386,1,66,0|0,3:2|0:0,0:0:0:0:
176,326,65100,2,0,P|238:308|309:307,1,132,8|2,0:0|0:3,0:0:0:0:
318,314,65732,5,6,3:2:0:0:
327,322,66048,2,0,L|332:256,1,66,0|0,0:0|0:0,0:0:0:0:
396,207,66364,2,0,L|390:141,1,66,8|0,0:0|0:0,0:0:0:0:
384,26,66680,2,0,P|347:31|324:54,1,66,0|0,3:2|0:0,0:0:0:0:
284,122,66996,1,0,0:0:0:0:
278,130,67311,6,0,L|196:113,1,66,2|0,0:3|0:0,0:0:0:0:
155,48,67626,2,0,L|12:69,1,132,8|0,0:0|0:0,0:0:0:0:
6,72,68259,5,2,3:2:0:0:
118,184,68417,1,0,3:2:0:0:
43,139,68575,2,0,L|35:211,1,66,0|0,0:0|0:0,0:0:0:0:
97,296,68890,2,0,P|158:285|246:271,1,132,8|0,0:0|3:2,0:0:0:0:
233,284,69522,6,0,L|320:291,1,66,0|0,0:0|0:0,0:0:0:0:
359,349,69837,2,0,L|446:342,1,66,0|0,3:2|0:0,0:0:0:0:
505,288,70153,1,8,0:0:0:0:
505,288,70311,1,0,3:2:0:0:
455,202,70469,6,0,P|464:136|479:72,1,132,2|6,0:3|3:2,0:0:0:0:
467,61,71101,2,0,L|394:72,1,66,0|0,0:0|0:0,0:0:0:0:
332,35,71417,2,0,L|266:25,1,66,8|0,0:0|0:0,0:0:0:0:
198,75,71732,2,0,L|225:204,1,132,0|0,3:2|0:0,0:0:0:0:
236,213,72364,6,0,L|152:207,1,66,2|0,0:3|0:0,0:0:0:0:
307,270,72680,2,0,P|380:257|453:246,1,132,8|0,0:0|0:0,0:0:0:0:
449,259,73311,6,0,L|439:334,1,66,2|0,3:2|0:0,0:0:0:0:
368,374,73626,2,0,L|359:308,1,66,0|0,0:0|0:0,0:0:0:0:
241,223,73942,2,0,P|183:231|140:290,1,132,8|0,0:0|3:2,0:0:0:0:
146,299,74575,5,0,0:0:0:0:
155,310,74890,2,0,L|77:299,1,66,0|0,3:2|0:0,0:0:0:0:
73,216,75206,2,0,L|-4:205,1,66,8|0,0:0|0:0,0:0:0:0:
130,83,75522,2,0,P|144:112|146:159,1,66,2|0,0:3|0:0,0:0:0:0:
156,231,75838,5,6,3:2:0:0:
165,239,76153,2,0,L|241:226,1,66,0|0,0:0|0:0,0:0:0:0:
341,208,76469,1,8,0:0:0:0:
351,200,76784,6,0,L|340:351,1,132,0|0,3:2|0:0,0:0:0:0:
344,341,77417,2,0,P|374:337|426:334,1,66,2|0,0:3|0:0,0:0:0:0:
504,356,77732,1,8,0:0:0:0:
512,361,78048,6,0,L|502:229,1,132,0|2,0:0|3:2,0:0:0:0:
502,229,78522,1,0,3:2:0:0:
454,144,78680,2,0,L|378:156,1,66,0|0,0:0|0:0,0:0:0:0:
304,114,78996,1,8,0:0:0:0:
299,124,79311,6,0,P|286:63|124:95,1,264,0|0,3:2|3:2,0:0:0:0:
123,94,80258,5,8,0:0:0:0:
43,121,80416,1,0,0:0:0:0:
107,188,80574,5,2,0:3:0:0:
107,188,80732,1,2,0:3:0:0:
193,243,80890,6,0,L|303:256,2,92.3999971801759,6|0|8,3:2|0:0|0:0,0:0:0:0:
193,243,81837,1,0,0:0:0:0:
141,350,82153,2,0,L|251:363,1,92.3999971801759,0|0,0:0|0:0,0:0:0:0:
232,360,82784,6,0,L|297:348,1,46.1999985900879,8|0,0:0|0:0,0:0:0:0:
347,372,83100,2,0,L|393:364,1,46.1999985900879,0|0,0:0|0:0,0:0:0:0:
460,278,83416,6,0,L|476:171,2,92.3999971801759,2|0|8,3:2|0:0|0:0,0:0:0:0:
460,278,84363,1,0,0:0:0:0:
343,238,84679,2,0,L|359:131,1,92.3999971801759,0|0,0:0|0:0,0:0:0:0:
356,146,85311,6,0,L|310:137,1,46.1999985900879,8|0,0:0|0:0,0:0:0:0:
237,156,85627,2,0,L|191:147,1,46.1999985900879,0|0,0:0|0:0,0:0:0:0:
103,92,85942,6,0,L|1:109,2,92.3999971801759,2|0|8,3:2|0:0|0:0,0:0:0:0:
103,92,86890,1,0,0:0:0:0:
145,205,87205,2,0,L|43:222,1,92.3999971801759,0|0,0:0|0:0,0:0:0:0:
53,220,87837,6,0,L|47:265,1,46.1999985900879,8|0,0:0|0:0,0:0:0:0:
96,331,88153,2,0,L|90:376,1,46.1999985900879,0|0,0:0|0:0,0:0:0:0:
189,294,88469,1,2,3:2:0:0:
194,286,88784,6,0,L|256:297,1,46.1999985900879,0|0,0:0|0:0,0:0:0:0:
304,353,89100,2,0,L|366:364,1,46.1999985900879,8|0,0:0|0:0,0:0:0:0:
451,289,89416,2,0,L|404:298,1,46.1999985900879,0|0,3:2|0:0,0:0:0:0:
448,184,89732,1,0,0:0:0:0:
454,193,90048,6,0,L|462:136,2,46.1999985900879,0|0|2,3:2|0:0|0:0,0:0:0:0:
291,51,90995,6,0,B|180:37|228:114|128:101,1,178.199994561768,6|0,3:2|0:0,0:0:0:0:
24,30,91626,2,0,P|39:88|49:151,1,118.799996374512,8|0,0:0|3:2,0:0:0:0:
64,158,92258,6,0,P|54:193|52:236,1,59.3999981872559,0|0,0:0|0:0,0:0:0:0:
29,344,92574,2,0,P|19:309|17:266,1,59.3999981872559,0|0,0:0|0:0,0:0:0:0:
134,224,92890,2,0,B|202:233|157:277|254:283,1,118.799996374512,8|0,0:0|0:0,0:0:0:0:
244,271,93521,6,0,L|384:254,1,118.799996374512,2|0,3:2|0:0,0:0:0:0:
361,256,93995,1,0,0:0:0:0:
435,336,94153,2,0,P|439:306|446:275,1,59.3999981872559,8|0,0:0|0:0,0:0:0:0:
490,171,94469,2,0,P|496:199|500:229,1,59.3999981872559,0|0,3:2|0:0,0:0:0:0:
413,124,94784,6,0,P|409:153|402:182,1,59.3999981872559,0|0,0:0|0:0,0:0:0:0:
509,68,95100,2,0,P|505:38|498:7,1,59.3999981872559,0|0,3:2|0:0,0:0:0:0:
351,62,95416,2,0,P|302:70|218:91,1,118.799996374512,8|0,0:0|0:0,0:0:0:0:
235,100,96048,6,0,L|156:90,1,59.3999981872559,2|0,3:2|0:0,0:0:0:0:
97,26,96363,2,0,L|155:18,1,59.3999981872559,0|0,0:0|0:0,0:0:0:0:
57,106,96679,2,0,P|37:157|37:232,1,118.799996374512,8|0,0:0|3:2,0:0:0:0:
34,220,97153,1,0,0:0:0:0:
106,273,97311,6,0,P|133:279|178:286,1,59.3999981872559,0|0,0:0|0:0,0:0:0:0:
217,361,97626,2,0,P|187:365|158:372,1,59.3999981872559,0|0,0:0|0:0,0:0:0:0:
289,309,97942,2,0,P|343:319|384:389,1,118.799996374512,8|0,0:0|0:0,0:0:0:0:
385,380,98574,5,2,3:2:0:0:
385,380,98732,2,0,L|401:241,1,118.799996374512,0|0,3:2|0:0,0:0:0:0:
411,184,99205,1,8,0:0:0:0:
489,330,99521,1,2,3:2:0:0:
436,57,109626,6,0,B|374:42|386:92|316:80,1,118.799996374512,2|0,0:0|0:0,0:0:0:0:
323,81,110258,6,0,B|310:60|378:35|404:104|363:185,1,165,2|0,0:0|0:0,0:0:0:0:
339,263,111205,5,6,3:2:0:0:
330,275,111521,6,0,L|245:267,1,66,0|0,0:0|0:0,0:0:0:0:
192,230,111837,2,0,L|107:238,1,66,8|0,0:0|0:0,0:0:0:0:
26,204,112153,2,0,P|14:234|19:272,1,66,0|0,3:2|0:0,0:0:0:0:
80,358,112469,1,0,0:0:0:0:
77,368,112785,6,0,L|142:358,1,66,2|0,0:3|0:0,0:0:0:0:
243,306,113100,2,0,L|389:330,1,132,8|0,0:0|0:0,0:0:0:0:
373,327,113574,1,0,0:0:0:0:
469,272,113732,6,0,L|462:180,1,66,2|0,3:2|0:0,0:0:0:0:
405,154,114047,2,0,L|409:88,1,66,0|0,0:0|0:0,0:0:0:0:
326,28,114363,2,0,P|259:31|195:49,1,132,8|0,0:0|3:2,0:0:0:0:
185,43,114995,6,0,L|170:126,1,66,0|0,0:0|0:0,0:0:0:0:
234,153,115311,2,0,L|242:238,1,66,0|0,3:2|0:0,0:0:0:0:
288,308,115626,2,0,P|224:289|159:286,1,132,8|2,0:0|0:3,0:0:0:0:
147,296,116258,5,6,3:2:0:0:
129,313,116574,2,0,L|48:302,1,66,0|0,0:0|0:0,0:0:0:0:
0,230,116890,2,0,L|78:218,1,66,8|0,0:0|0:0,0:0:0:0:
139,151,117205,2,0,P|157:119|144:69,1,66,0|0,3:2|0:0,0:0:0:0:
116,15,117522,1,0,0:0:0:0:
110,21,117837,6,0,L|196:7,1,66,2|0,0:3|0:0,0:0:0:0:
286,76,118153,2,0,L|429:97,1,132,8|0,0:0|0:0,0:0:0:0:
431,86,118785,5,2,3:2:0:0:
371,198,118942,1,0,3:2:0:0:
486,166,119101,2,0,L|473:243,1,66,0|0,0:0|0:0,0:0:0:0:
403,336,119416,2,0,L|381:192,1,132,8|0,0:0|3:2,0:0:0:0:
371,198,120048,6,0,L|284:205,1,66
258,272,120363,2,0,L|171:265,1,66,0|0,3:2|0:0,0:0:0:0:
115,303,120679,1,8,0:0:0:0:
115,303,120837,1,0,3:2:0:0:
150,186,120995,6,0,P|162:124|173:51,1,132,2|6,0:3|3:2,0:0:0:0:
180,42,121627,2,0,L|114:53,1,66,0|0,0:0|0:0,0:0:0:0:
65,121,121942,2,0,L|0:109,1,66,8|0,0:0|0:0,0:0:0:0:
150,186,122258,2,0,P|159:251|172:316,1,132,0|0,3:2|0:0,0:0:0:0:
166,328,122890,6,0,L|248:343,1,66,2|0,0:3|0:0,0:0:0:0:
319,276,123205,2,0,L|459:255,1,132,8|0,0:0|0:0,0:0:0:0:
457,269,123837,6,0,P|463:236|467:200,1,66,2|0,3:2|0:0,0:0:0:0:
413,140,124153,2,0,P|406:107|402:71,1,66,0|0,0:0|0:0,0:0:0:0:
321,160,124469,2,0,P|282:131|194:128,1,132,8|0,0:0|3:2,0:0:0:0:
191,136,125101,5,0,0:0:0:0:
185,147,125416,2,0,L|195:220,1,66,0|0,3:2|0:0,0:0:0:0:
257,262,125732,2,0,L|248:327,1,66,8|0,0:0|0:0,0:0:0:0:
153,373,126048,2,0,P|117:369|73:337,1,66,2|0,0:3|0:0,0:0:0:0:
56,231,126364,5,6,3:2:0:0:
46,239,126679,2,0,L|51:166,1,66,0|0,0:0|0:0,0:0:0:0:
59,69,126995,1,8,0:0:0:0:
54,58,127310,6,0,P|121:40|211:33,1,132,0|0,3:2|0:0,0:0:0:0:
194,25,127943,2,0,L|177:104,1,66,2|0,0:3|0:0,0:0:0:0:
230,195,128258,1,8,0:0:0:0:
234,205,128574,6,0,L|382:189,1,132,0|2,0:0|3:2,0:0:0:0:
365,190,129048,1,0,3:2:0:0:
455,246,129206,2,0,P|449:283|438:324,1,66,0|0,0:0|0:0,0:0:0:0:
338,369,129522,1,8,0:0:0:0:
323,367,129837,6,0,P|257:332|103:332,1,211.2,2|2,0:0|0:0,0:0:0:0:
