osu file format v14

[General]
AudioFilename: audio.mp3
AudioLeadIn: 0
PreviewTime: 106688
Countdown: 0
SampleSet: Soft
StackLeniency: 0.7
Mode: 0
LetterboxInBreaks: 0
WidescreenStoryboard: 1

[Editor]
Bookmarks: 23955,35881,47806,59732,71657,83536,95508,107387,119313
DistanceSpacing: 1.1
BeatDivisor: 4
GridSize: 32
TimelineZoom: 0.6

[Metadata]
Title:emotions
TitleUnicode:emotions
Artist:iann dior
ArtistUnicode:iann dior
Creator:jamesjan3
Version:normal
Source:
Tags:rap emo hip hop english male vocals trap nothings ever good enough
BeatmapID:2377856
BeatmapSetID:1138215

[Difficulty]
HPDrainRate:4
CircleSize:3
OverallDifficulty:4
ApproachRate:5.5
SliderMultiplier:2.99999990463257
SliderTickRate:1

[Events]
//Background and Video events
0,0,"jj-ying-DYHx6h3lMdY-unsplash.jpg",0,0
//Break Periods
2,83782,92818
//Storyboard Layer 0 (Background)
//Storyboard Layer 1 (Fail)
//Storyboard Layer 2 (Pass)
//Storyboard Layer 3 (Foreground)
//Storyboard Layer 4 (Overlay)
//Storyboard Sound Samples

[TimingPoints]
105,745.341614906832,4,2,1,15,1,0
105,-166.666666666667,4,2,1,15,0,0
11285,-166.666666666667,4,2,1,30,0,0
23955,-166.666666666667,4,2,1,50,0,1
24514,-166.666666666667,4,2,1,50,0,0
29918,-166.666666666667,4,2,1,50,0,1
30664,-166.666666666667,4,2,1,50,0,0
35881,-166.666666666667,4,2,1,50,0,1
47806,-166.666666666667,4,2,1,40,0,0
95508,-166.666666666667,4,2,1,50,0,1
96254,-166.666666666667,4,2,1,50,0,0
101471,-166.666666666667,4,2,1,50,0,1
102216,-166.666666666667,4,2,1,50,0,0
107434,-166.666666666667,4,2,1,50,0,1
119359,-166.666666666667,4,2,1,30,0,0
129421,-166.666666666667,4,2,1,5,0,0

[Colours]
Combo1 : 255,255,0
Combo2 : 250,5,189
Combo3 : 0,0,255

[HitObjects]
35,340,105,6,0,P|78:341|157:318,1,89.9999943923952,2|0,0:0|0:0,0:0:0:0:
210,283,850,1,0,0:0:0:0:
287,218,1223,1,2,0:0:0:0:
375,261,1595,2,0,L|384:358,1,89.9999943923952,2|0,0:0|0:0,0:0:0:0:
481,366,2341,1,2,0:0:0:0:
506,169,3086,6,0,P|480:131|446:103,1,89.9999943923952,2|0,0:0|0:0,0:0:0:0:
349,82,3831,1,0,0:0:0:0:
291,162,4204,1,2,0:0:0:0:
193,179,4577,1,2,0:0:0:0:
103,2,5322,1,0,0:0:0:0:
14,166,6067,6,0,L|1:260,1,89.9999943923952,2|0,0:0|0:0,0:0:0:0:
14,360,6813,1,0,0:0:0:0:
112,371,7185,1,2,0:0:0:0:
210,382,7558,2,0,P|253:371|286:341,1,89.9999943923952,2|0,0:0|0:0,0:0:0:0:
320,249,8303,1,0,0:0:0:0:
413,74,9049,6,0,L|503:83,2,89.9999943923952,2|0|0,0:0|0:0|0:0,0:0:0:0:
355,154,10167,1,2,0:0:0:0:
399,242,10539,1,2,0:0:0:0:
371,47,11285,2,0,L|250:35,1,89.9999943923952,2|2,0:0|0:0,0:0:0:0:
182,29,12030,6,0,B|192:94|192:94|218:134|218:134|230:210,1,179.99998878479,2|2,0:0|0:0,0:0:0:0:
205,296,13148,1,2,0:0:0:0:
293,334,13521,2,0,L|382:325,1,89.9999943923952,2|2,0:0|0:0,0:0:0:0:
477,351,14266,2,0,B|478:303|478:303|455:236,1,89.9999943923952,2|2,0:0|0:0,0:0:0:0:
439,220,14825,6,0,B|413:152|488:160|457:66,1,134.999991588593,2|2,0:0|0:0,0:0:0:0:
435,7,15757,1,2,0:0:0:0:
336,18,16129,1,2,0:0:0:0:
237,27,16502,2,0,P|206:107|222:216,1,179.99998878479,2|0,0:0|0:0,0:0:0:0:
273,279,17620,1,2,0:0:0:0:
217,361,17993,6,0,L|127:369,1,89.9999943923952,0|2,0:0|0:0,0:0:0:0:
31,345,18738,2,0,P|8:302|13:227,1,89.9999943923952,2|2,0:0|0:0,0:0:0:0:
82,200,19483,2,0,L|131:205,2,44.9999971961976,2|2|2,0:0|0:0|0:0,0:0:0:0:
43,168,20042,2,0,P|65:113|55:33,1,134.999991588593,2|2,0:0|0:0,0:0:0:0:
13,15,20788,6,0,P|66:55|225:64,1,224.999985980988,2|0,0:0|0:0,0:0:0:0:
313,35,22092,1,2,0:0:0:0:
409,10,22465,2,0,B|421:56|401:87|401:87|419:110|419:110|403:147|406:188,1,179.99998878479,2|2,0:0|0:0,0:0:0:0:
345,258,23583,1,2,0:0:0:0:
416,325,23955,6,0,B|455:312|455:312|481:262|476:201,1,134.999991588593,6|4,0:3|0:3,0:0:0:0:
460,174,24701,2,0,L|368:167,1,89.9999943923952,10|2,0:0|0:0,0:0:0:0:
324,165,25260,1,0,0:0:0:0:
324,165,25446,2,0,L|319:209,1,44.9999971961976,2|0,0:0|0:0,0:0:0:0:
315,259,25819,2,0,P|382:279|406:304,2,89.9999943923952,6|10|2,0:3|0:0|0:0,0:0:0:0:
236,319,26937,6,0,B|227:349|193:372|193:372|156:371,1,89.9999943923952,6|0,0:3|0:0,0:0:0:0:
122,371,27496,1,4,0:3:0:0:
72,367,27682,2,0,P|50:314|69:188,1,179.99998878479,10|2,0:0|0:0,0:0:0:0:
123,125,28800,1,6,0:3:0:0:
221,130,29173,2,0,L|225:85,1,44.9999971961976,10|0,0:0|0:0,0:0:0:0:
228,35,29545,1,6,0:3:0:0:
318,76,29918,6,0,B|334:103|359:110|359:110|414:93|422:45,1,134.999991588593,6|4,0:3|0:3,0:0:0:0:
418,10,30664,1,10,0:0:0:0:
512,37,31036,1,2,0:0:0:0:
494,134,31409,2,0,P|470:178|465:235,1,89.9999943923952,2|6,0:0|0:3,0:0:0:0:
497,310,32154,1,10,0:0:0:0:
421,374,32527,1,2,0:0:0:0:
321,372,32900,6,0,B|283:359|283:359|260:308|267:262,1,134.999991588593,6|6,0:3|0:3,0:0:0:0:
287,221,33645,2,0,P|275:139|193:69,1,179.99998878479,10|2,0:0|0:0,0:0:0:0:
115,38,34763,1,4,0:3:0:0:
22,72,35136,2,0,L|17:137,1,44.9999971961976,10|0,0:0|0:0,0:0:0:0:
14,166,35508,1,6,0:3:0:0:
50,258,35881,6,0,B|124:254|101:314|176:309,1,134.999991588593,6|6,0:3|0:3,0:0:0:0:
218,305,36626,1,10,0:0:0:0:
263,284,36813,1,2,0:0:0:0:
298,248,36999,2,0,P|352:235|398:248,1,89.9999943923952,2|2,0:0|0:0,0:0:0:0:
440,323,37744,1,6,0:3:0:0:
512,253,38117,1,10,0:0:0:0:
483,164,38490,1,2,0:0:0:0:
483,164,38676,6,0,B|439:177|410:178|410:178|348:151,1,134.999991588593,2|2,0:0|0:0,0:0:0:0:
316,131,39421,1,6,0:3:0:0:
316,131,39608,1,10,0:0:0:0:
219,149,39980,1,6,0:3:0:0:
215,248,40353,2,0,P|253:259|265:259,2,44.9999971961976,2|2|6,0:0|0:0|0:3,0:0:0:0:
168,231,40912,2,0,P|118:254|84:291,1,89.9999943923952,2|0,0:0|0:0,0:0:0:0:
72,323,41470,1,6,0:3:0:0:
53,369,41657,6,0,P|13:334|3:248,1,134.999991588593,2|2,0:0|0:0,0:0:0:0:
64,180,42589,2,0,L|52:77,1,89.9999943923952,10|2,0:0|0:0,0:0:0:0:
126,22,43334,2,0,L|180:27,1,44.9999971961976,2|2,0:0|0:0,0:0:0:0:
220,32,43707,1,6,0:3:0:0:
241,76,43893,2,0,B|257:116|257:116|247:215,1,134.999991588593,2|2,0:0|0:0,0:0:0:0:
241,256,44639,1,2,0:0:0:0:
229,304,44825,6,0,L|326:295,1,89.9999943923952,4|0,0:3|0:0,0:0:0:0:
389,226,45570,2,0,L|478:234,1,89.9999943923952,8|4,0:0|0:3,0:0:0:0:
500,137,46316,1,0,0:0:0:0:
350,7,47061,1,10,0:0:0:0:
287,83,47434,1,4,0:3:0:0:
209,24,47806,6,0,L|149:31,1,44.9999971961976,6|2,0:3|0:0,0:0:0:0:
118,49,48179,2,0,L|58:56,1,44.9999971961976,2|6,0:0|0:3,0:0:0:0:
29,76,48552,1,10,0:0:0:0:
95,148,48924,2,0,P|86:212|53:231,1,89.9999943923952,2|2,0:0|0:0,0:0:0:0:
11,306,49670,1,4,0:3:0:0:
41,345,49856,2,0,P|141:336|177:364,1,134.999991588593,2|0,0:0|0:0,0:0:0:0:
269,332,50788,5,6,0:3:0:0:
269,331,50974,1,2,0:0:0:0:
269,332,51161,2,0,L|274:376,2,44.9999971961976,2|6|10,0:0|0:3|0:0,0:0:0:0:
367,321,51906,2,0,L|372:276,1,44.9999971961976,6|2,0:3|0:0,0:0:0:0:
378,227,52278,2,0,P|292:221|278:212,1,89.9999943923952,2|6,0:0|0:3,0:0:0:0:
254,187,52837,2,0,P|204:196|159:183,1,89.9999943923952,2|2,0:0|0:0,0:0:0:0:
131,151,53396,1,6,0:3:0:0:
176,62,53769,6,0,L|236:55,1,44.9999971961976,6|2,0:3|0:0,0:0:0:0:
267,39,54142,2,0,L|327:32,1,44.9999971961976,2|6,0:0|0:3,0:0:0:0:
355,10,54515,1,10,0:0:0:0:
442,56,54887,2,0,L|447:120,1,44.9999971961976,2|2,0:0|0:0,0:0:0:0:
447,150,55260,2,0,P|434:198|461:247,1,89.9999943923952,2|6,0:0|0:3,0:0:0:0:
488,262,55819,2,0,P|387:253|351:281,1,134.999991588593,2|2,0:0|0:0,0:0:0:0:
273,309,56750,6,0,L|278:353,2,44.9999971961976,6|2|2,0:3|0:0|0:0,0:0:0:0:
268,264,57309,1,6,0:3:0:0:
268,264,57496,1,10,0:0:0:0:
169,275,57868,2,0,L|163:230,1,44.9999971961976,6|2,0:3|0:0,0:0:0:0:
160,181,58241,2,0,P|246:175|260:166,1,89.9999943923952,2|6,0:0|0:3,0:0:0:0:
281,138,58800,2,0,P|331:129|376:142,1,89.9999943923952,2|2,0:0|0:0,0:0:0:0:
396,179,59358,1,6,0:3:0:0:
489,147,59732,6,0,L|499:255,2,89.9999943923952,0|2|10,0:0|0:0|0:0,0:0:0:0:
445,57,60850,1,2,0:0:0:0:
348,37,61223,2,0,L|339:126,1,89.9999943923952,2|2,0:0|0:0,0:0:0:0:
334,176,61782,1,2,0:0:0:0:
242,204,62154,1,2,0:0:0:0:
242,204,62341,6,0,L|233:114,1,89.9999943923952,2|6,0:0|0:3,0:0:0:0:
226,65,62900,1,2,0:0:0:0:
84,19,63459,2,0,L|78:76,1,44.9999971961976,10|2,0:0|0:0,0:0:0:0:
47,101,63831,2,0,L|41:158,1,44.9999971961976,6|2,0:3|0:0,0:0:0:0:
18,189,64204,6,0,L|26:278,1,89.9999943923952,2|6,0:0|0:3,0:0:0:0:
35,327,64763,1,2,0:0:0:0:
132,363,65136,1,2,0:0:0:0:
132,363,65323,6,0,L|140:273,1,89.9999943923952,6|6,0:3|0:3,0:0:0:0:
147,224,65882,1,2,0:0:0:0:
245,257,66254,1,6,0:3:0:0:
245,257,66440,2,0,L|250:314,2,44.9999971961976,10|2|2,0:0|0:0|0:0,0:0:0:0:
337,220,67185,6,0,L|346:309,1,89.9999943923952,2|6,0:0|0:3,0:0:0:0:
352,358,67744,1,2,0:0:0:0:
453,347,68116,1,2,0:0:0:0:
453,347,68303,6,0,P|469:303|476:260,1,89.9999943923952,2|6,0:0|0:3,0:0:0:0:
468,211,68862,1,2,0:0:0:0:
397,80,69421,2,0,L|339:74,1,44.9999971961976,10|2,0:0|0:0,0:0:0:0:
308,51,69793,2,0,L|250:45,1,44.9999971961976,6|2,0:3|0:0,0:0:0:0:
217,26,70167,6,0,P|196:74|199:130,1,89.9999943923952,2|6,0:0|0:3,0:0:0:0:
222,152,70726,2,0,B|239:185|239:185|229:223|207:249|207:249|182:271,1,134.999991588593,2|4,0:0|0:3,0:0:0:0:
92,293,71657,6,0,L|39:285,1,44.9999971961976,4|2,0:3|0:0,0:0:0:0:
7,265,72030,2,0,P|7:221|38:172,1,89.9999943923952,2|10,0:0|0:0,0:0:0:0:
108,123,72775,6,0,L|161:131,1,44.9999971961976,0|2,0:0|0:0,0:0:0:0:
201,139,73148,2,0,P|201:183|170:232,2,89.9999943923952,2|6|8,0:0|0:3|0:0,0:0:0:0:
249,52,74266,1,2,0:0:0:0:
347,41,74639,6,0,P|380:53|399:71,1,44.9999971961976,4|2,0:3|0:0,0:0:0:0:
408,103,75011,2,0,L|393:198,1,89.9999943923952,2|10,0:0|0:0,0:0:0:0:
309,243,75757,6,0,P|276:231|257:213,1,44.9999971961976,4|2,0:3|0:0,0:0:0:0:
245,181,76129,2,0,L|259:85,2,89.9999943923952,2|6|8,0:0|0:3|0:0,0:0:0:0:
173,250,77247,1,6,0:3:0:0:
244,334,77620,5,4,0:3:0:0:
244,334,77806,1,2,0:0:0:0:
244,334,77993,2,0,P|285:294|304:250,1,89.9999943923952,2|10,0:0|0:0,0:0:0:0:
291,121,78924,5,2,0:0:0:0:
291,121,79111,2,0,P|249:160|231:205,2,89.9999943923952,2|6|8,0:0|0:3|0:0,0:0:0:0:
390,121,80229,1,2,0:0:0:0:
461,189,80601,6,0,L|475:284,1,89.9999943923952,4|2,0:3|0:0,0:0:0:0:
412,355,81347,2,0,L|316:340,1,89.9999943923952,8|4,0:0|0:3,0:0:0:0:
225,322,82092,1,0,0:0:0:0:
52,225,82837,6,0,P|45:269|46:314,2,89.9999943923952,10|6|2,0:0|0:3|0:0,0:0:0:0:
177,80,94018,6,0,B|271:56|247:134|365:94,1,179.99998878479,2|2,0:0|0:0,0:0:0:0:
431,42,95136,1,2,0:0:0:0:
489,121,95508,6,0,B|459:156|459:156|477:262,1,134.999991588593,6|6,0:3|0:3,0:0:0:0:
481,292,96254,2,0,P|425:318|390:315,1,89.9999943923952,10|2,0:0|0:0,0:0:0:0:
368,284,96813,1,0,0:0:0:0:
368,284,96999,2,0,L|324:289,1,44.9999971961976,2|0,0:0|0:0,0:0:0:0:
274,296,97372,1,6,0:3:0:0:
204,366,97744,1,10,0:0:0:0:
113,325,98117,1,2,0:0:0:0:
21,364,98490,6,0,B|8:328|7:260|7:260|41:226,1,134.999991588593,6|6,0:3|0:3,0:0:0:0:
71,215,99235,2,0,P|87:149|34:49,1,179.99998878479,10|2,0:0|0:0,0:0:0:0:
124,2,100353,2,0,L|242:14,2,89.9999943923952,6|10|6,0:3|0:0|0:3,0:0:0:0:
38,52,101471,6,0,B|66:100|66:100|115:93|155:127,1,134.999991588593,6|4,0:3|0:3,0:0:0:0:
175,152,102216,1,10,0:0:0:0:
274,149,102589,2,0,L|279:193,1,44.9999971961976,2|0,0:0|0:0,0:0:0:0:
285,243,102962,1,2,0:0:0:0:
378,212,103334,1,6,0:3:0:0:
464,260,103707,2,0,P|453:320|425:354,1,89.9999943923952,10|2,0:0|0:0,0:0:0:0:
337,347,104452,6,0,B|278:322|251:374|189:348,1,134.999991588593,6|6,0:3|0:3,0:0:0:0:
160,331,105198,2,0,P|182:274|166:141,1,179.99998878479,8|2,0:0|0:0,0:0:0:0:
145,123,106129,1,0,0:0:0:0:
145,123,106316,1,4,0:3:0:0:
50,92,106688,1,10,0:0:0:0:
39,190,107061,1,6,0:3:0:0:
35,289,107434,6,0,P|81:306|172:278,1,134.999991588593,6|6,0:3|0:3,0:0:0:0:
189,244,108179,1,10,0:0:0:0:
207,198,108365,1,2,0:0:0:0:
196,149,108552,2,0,L|298:136,1,89.9999943923952,2|2,0:0|0:0,0:0:0:0:
372,90,109297,1,6,0:3:0:0:
463,126,109670,1,10,0:0:0:0:
467,228,110042,1,2,0:0:0:0:
467,228,110229,6,0,P|401:241|356:289,1,134.999991588593,2|2,0:0|0:0,0:0:0:0:
338,335,110974,2,0,L|283:342,1,44.9999971961976,6|10,0:3|0:0,0:0:0:0:
207,319,111533,1,6,0:3:0:0:
207,319,111719,1,2,0:0:0:0:
207,319,111906,2,0,L|201:363,2,44.9999971961976,2|2|6,0:0|0:0|0:3,0:0:0:0:
220,271,112465,2,0,B|169:231|169:231|154:195,1,89.9999943923952,2|0,0:0|0:0,0:0:0:0:
145,165,113024,1,6,0:3:0:0:
145,165,113210,6,0,B|168:133|191:125|191:125|275:101,1,134.999991588593,2|2,0:0|0:0,0:0:0:0:
359,89,114142,2,0,L|370:179,1,89.9999943923952,10|2,0:0|0:0,0:0:0:0:
378,227,114701,1,2,0:0:0:0:
383,276,114887,1,2,0:0:0:0:
474,233,115260,1,6,0:3:0:0:
474,233,115446,2,0,B|497:195|497:195|484:94,1,134.999991588593,2|2,0:0|0:0,0:0:0:0:
473,62,116191,1,2,0:0:0:0:
473,62,116378,6,0,P|423:54|369:64,1,89.9999943923952,4|0,0:3|0:0,0:0:0:0:
316,131,117123,2,0,P|271:136|227:128,1,89.9999943923952,8|4,0:0|0:3,0:0:0:0:
160,54,117868,1,0,0:0:0:0:
12,186,118614,1,10,0:0:0:0:
46,278,118986,1,6,0:3:0:0:
97,362,119359,6,0,P|147:363|265:287,1,179.99998878479,2|2,0:0|0:0,0:0:0:0:
303,213,120477,1,2,0:0:0:0:
381,273,120850,2,0,B|426:294|426:294|478:290,2,89.9999943923952,2|2|2,0:0|0:0|0:0,0:0:0:0:
444,197,121968,1,2,0:0:0:0:
444,197,122154,6,0,P|453:140|430:66,1,134.999991588593,2|2,0:0|0:0,0:0:0:0:
337,28,123086,1,2,0:0:0:0:
238,34,123459,1,2,0:0:0:0:
168,105,123831,2,0,P|170:219|136:282,1,179.99998878479,2|0,0:0|0:0,0:0:0:0:
50,317,124949,1,2,0:0:0:0:
12,225,125322,6,0,L|23:134,1,89.9999943923952,0|2,0:0|0:0,0:0:0:0:
31,86,125881,1,2,0:0:0:0:
40,37,126067,2,0,P|86:63|136:66,1,89.9999943923952,2|2,0:0|0:0,0:0:0:0:
221,54,126813,2,0,L|214:2,2,44.9999971961976,2|2|2,0:0|0:0|0:0,0:0:0:0:
230,102,127372,2,0,B|291:91|291:91|309:99|309:99|363:91,1,134.999991588593,2|2,0:0|0:0,0:0:0:0:
410,83,128117,2,0,B|438:161|446:249|363:375|295:243|337:209,1,314.999980373383,2|0,0:0|0:0,0:0:0:0:
