osu file format v14

[General]
AudioFilename: audio.mp3
AudioLeadIn: 0
PreviewTime: 106688
Countdown: 0
SampleSet: Soft
StackLeniency: 0.7
Mode: 0
LetterboxInBreaks: 0
WidescreenStoryboard: 1

[Editor]
Bookmarks: 12030,23955,35881,47806,59732,71657,83536,95508,107387,119313
DistanceSpacing: 0.7
BeatDivisor: 4
GridSize: 32
TimelineZoom: 1.3

[Metadata]
Title:emotions
TitleUnicode:emotions
Artist:iann dior
ArtistUnicode:iann dior
Creator:jamesjan3
Version:hard
Source:
Tags:rap emo hip hop english male vocals trap nothings ever good enough
BeatmapID:2377854
BeatmapSetID:1138215

[Difficulty]
HPDrainRate:5
CircleSize:3.5
OverallDifficulty:7
ApproachRate:8
SliderMultiplier:2.99999990463257
SliderTickRate:1

[Events]
//Background and Video events
0,0,"jj-ying-DYHx6h3lMdY-unsplash.jpg",0,0
//Break Periods
2,83783,93268
//Storyboard Layer 0 (Background)
//Storyboard Layer 1 (Fail)
//Storyboard Layer 2 (Pass)
//Storyboard Layer 3 (Foreground)
//Storyboard Layer 4 (Overlay)
//Storyboard Sound Samples

[TimingPoints]
105,745.341614906832,4,2,1,15,1,0
105,-200,4,2,1,15,0,0
11285,-133.333333333333,4,2,1,30,0,0
12030,-133.333333333333,4,2,1,30,0,0
23955,-80,4,2,1,50,0,1
24701,-80,4,2,1,50,0,0
29918,-80,4,2,1,50,0,1
30664,-80,4,2,1,50,0,0
35881,-80,4,2,1,50,0,1
47806,-100,4,2,1,40,0,0
59732,-133.333333333333,4,2,1,40,0,0
95508,-83.3333333333333,4,2,1,50,0,1
96254,-83.3333333333333,4,2,1,50,0,0
101471,-83.3333333333333,4,2,1,50,0,1
102216,-83.3333333333333,4,2,1,50,0,0
107434,-83.3333333333333,4,2,1,50,0,1
119359,-125,4,2,1,30,0,0
128303,-125,4,2,1,5,0,0

[Colours]
Combo1 : 255,255,0
Combo2 : 250,5,189
Combo3 : 0,0,255

[HitObjects]
87,351,105,6,0,L|13:337,2,74.9999976158143,2|0|0,0:0|0:0|0:0,0:0:0:0:
146,278,1223,1,2,0:0:0:0:
193,357,1595,2,0,L|266:343,1,74.9999976158143,2|0,0:0|0:0,0:0:0:0:
304,257,2341,2,0,L|377:271,1,74.9999976158143
396,358,3086,5,2,0:0:0:0:
474,346,3459,1,0,0:0:0:0:
484,333,3831,1,0,0:0:0:0:
380,349,4204,1,2,0:0:0:0:
435,268,4577,2,0,P|366:256|294:300,1,149.999995231629,2|0,0:0|0:0,0:0:0:0:
249,384,5695,1,0,0:0:0:0:
167,273,6067,6,0,P|150:313|154:357,2,74.9999976158143,2|0|0,0:0|0:0|0:0,0:0:0:0:
256,213,7185,1,2,0:0:0:0:
160,179,7558,2,0,P|116:184|80:209,2,74.9999976158143,2|0|0,0:0|0:0|0:0,0:0:0:0:
256,213,8676,1,0,0:0:0:0:
314,294,9049,5,2,0:0:0:0:
216,315,9421,1,0,0:0:0:0:
323,306,9794,1,0,0:0:0:0:
207,304,10167,1,2,0:0:0:0:
97,322,10539,1,2,0:0:0:0:
97,322,11285,5,2,0:0:0:0:
88,305,11657,1,2,0:0:0:0:
78,289,12030,6,0,L|189:274,1,112.500000715256,2|0,0:0|0:0,0:0:0:0:
269,216,12589,1,2,0:0:0:0:
308,238,12775,2,0,L|320:308,1,56.2500003576279,2|2,0:0|0:0,0:0:0:0:
330,383,13148,2,0,P|332:352|395:295,1,112.500000715256,2|2,0:0|0:0,0:0:0:0:
398,307,13893,1,2,0:0:0:0:
416,318,14266,2,0,L|475:307,1,56.2500003576279,2|0,0:0|0:0,0:0:0:0:
499,230,14639,1,2,0:0:0:0:
499,230,14825,1,2,0:0:0:0:
499,142,15011,6,0,P|460:93|397:76,1,112.500000715256,0|2,0:0|0:0,0:0:0:0:
330,107,15570,2,0,P|337:134|334:161,1,56.2500003576279,2|2,0:0|0:0,0:0:0:0:
252,15,16129,2,0,L|247:76,1,56.2500003576279,2|2,0:0|0:0,0:0:0:0:
163,123,16502,2,0,L|158:66,2,56.2500003576279,2|2|2,0:0|0:0|0:0,0:0:0:0:
102,192,17061,2,0,P|59:160|23:100,1,112.500000715256,2|0,0:0|0:0,0:0:0:0:
67,32,17620,1,2,0:0:0:0:
67,32,17806,1,2,0:0:0:0:
138,86,17993,6,0,P|198:58|266:65,1,112.500000715256,0|2,0:0|0:0,0:0:0:0:
318,105,18552,1,2,0:0:0:0:
281,131,18738,2,0,P|266:196|264:268,1,112.500000715256,2|2,0:0|0:0,0:0:0:0:
224,317,19297,1,2,0:0:0:0:
185,340,19483,2,0,L|124:330,1,56.2500003576279,2|2,0:0|0:0,0:0:0:0:
49,356,19856,1,2,0:0:0:0:
49,356,20042,2,0,P|78:328|97:247,1,112.500000715256,2|0,0:0|0:0,0:0:0:0:
38,199,20601,1,2,0:0:0:0:
38,199,20788,1,2,0:0:0:0:
119,134,20974,6,0,P|172:148|247:144,2,112.500000715256
133,17,22092,1,2,0:0:0:0:
267,46,22465,6,0,B|301:74|344:71|344:71|353:103|353:103|415:87|468:124,1,225.000001430512,2|2,0:0|0:0,0:0:0:0:
512,9,23583,1,2,0:0:0:0:
512,9,23955,6,0,B|400:40|496:171|347:223,1,281.249991059303,6|4,0:3|0:3,0:0:0:0:
258,165,24701,2,0,P|268:229|259:284,1,93.7499970197678,10|0,0:0|0:0,0:0:0:0:
197,314,25073,1,2,0:0:0:0:
113,317,25260,1,0,0:0:0:0:
113,317,25353,1,0,0:0:0:0:
113,317,25446,6,0,P|64:291|41:255,1,93.7499970197678,2|0,0:0|0:0,0:0:0:0:
55,169,25819,2,0,P|102:139|144:137,1,93.7499970197678,6|0,0:3|0:0,0:0:0:0:
209,191,26191,2,0,P|210:246|191:284,1,93.7499970197678,10|0,0:0|0:0,0:0:0:0:
123,226,26564,2,0,L|81:267,2,46.8749985098839,2|0|0,0:0|0:0|0:0,0:0:0:0:
101,101,26937,6,0,B|232:52|232:52|287:65|316:160,1,281.249991059303,6|4,0:3|0:3,0:0:0:0:
332,252,27682,2,0,P|331:201|395:80,1,187.499994039536,10|4,0:0|0:3,0:0:0:0:
470,11,28241,2,0,L|480:127,1,93.7499970197678,0|2,0:0|0:0,0:0:0:0:
441,186,28614,5,0,0:0:0:0:
441,186,28707,1,0,0:0:0:0:
441,186,28800,2,0,P|457:234|498:272,1,93.7499970197678,6|0,0:3|0:0,0:0:0:0:
428,324,29173,2,0,P|381:324|350:339,2,46.8749985098839,10|0|0,0:0|0:0|0:0,0:0:0:0:
305,279,29545,2,0,P|338:241|350:186,1,93.7499970197678,6|0,0:3|0:0,0:0:0:0:
343,67,29918,6,0,B|325:105|272:109|272:109|242:206|151:253,1,281.249991059303,6|4,0:3|0:3,0:0:0:0:
0,244,30664,2,0,P|48:260|87:311,1,93.7499970197678,10|0,0:0|0:0,0:0:0:0:
152,341,31036,1,2,0:0:0:0:
249,276,31223,1,0,0:0:0:0:
249,276,31316,1,0,0:0:0:0:
249,276,31409,6,0,L|235:385,1,93.7499970197678,2|0,0:0|0:0,0:0:0:0:
209,193,31782,2,0,L|121:126,1,93.7499970197678,6|0,0:3|0:0,0:0:0:0:
300,199,32154,2,0,L|402:156,1,93.7499970197678,10|0,0:0|0:0,0:0:0:0:
249,276,32527,2,0,L|242:330,2,46.8749985098839,2|0|0,0:0|0:0|0:0,0:0:0:0:
331,318,32900,6,0,B|397:289|421:203|421:203|433:189|433:189|451:138|427:70,1,281.249991059303,6|6,0:3|0:3,0:0:0:0:
491,14,33645,2,0,P|441:54|297:73,1,187.499994039536,10|6,0:0|0:3,0:0:0:0:
253,23,34204,1,0,0:0:0:0:
163,42,34390,1,2,0:0:0:0:
73,61,34577,2,0,L|66:114,2,46.8749985098839,0|0|4,0:0|0:0|0:3,0:0:0:0:
157,191,35136,6,0,L|58:208,1,93.7499970197678,10|0,0:0|0:0,0:0:0:0:
199,266,35508,2,0,L|291:250,1,93.7499970197678,6|0,0:3|0:0,0:0:0:0:
425,309,35881,6,0,B|358:320|358:320|312:353|312:353|230:369,1,187.499994039536,6|0,0:3|0:0,0:0:0:0:
156,373,36440,1,6,0:3:0:0:
115,294,36626,1,10,0:0:0:0:
49,361,36813,1,2,0:0:0:0:
26,272,36999,2,0,P|35:216|71:162,1,93.7499970197678,2|0,0:0|0:0,0:0:0:0:
100,174,37278,1,0,0:0:0:0:
100,174,37372,6,0,L|214:204,1,93.7499970197678,2|0,0:0|0:0,0:0:0:0:
312,136,37744,2,0,L|221:112,1,93.7499970197678,6|0,0:3|0:0,0:0:0:0:
125,16,38117,2,0,B|171:30|171:30|297:10,1,140.624995529652,10|0,0:0|0:0,0:0:0:0:
305,4,38490,1,2,0:0:0:0:
353,89,38676,1,2,0:0:0:0:
404,5,38862,6,0,P|398:79|456:223,1,187.499994039536,4|2,0:3|0:0,0:0:0:0:
505,244,39421,1,6,0:3:0:0:
483,335,39608,2,0,L|296:316,1,187.499994039536,10|6,0:0|0:3,0:0:0:0:
211,357,40167,1,2,0:0:0:0:
196,264,40353,5,2,0:0:0:0:
117,314,40539,1,2,0:0:0:0:
109,220,40726,1,6,0:3:0:0:
27,188,40912,2,0,B|124:172|124:172|201:118,1,187.499994039536,2|0,0:0|0:0,0:0:0:0:
212,28,41471,1,6,0:3:0:0:
296,113,41657,1,2,0:0:0:0:
310,18,41844,6,0,B|295:115|295:115|322:205,1,187.499994039536,4|2,0:3|0:0,0:0:0:0:
413,215,42403,1,6,0:3:0:0:
425,122,42589,2,0,P|361:111|212:131,1,187.499994039536,10|2,0:0|0:0,0:0:0:0:
171,186,43148,1,2,0:0:0:0:
82,156,43334,5,2,0:0:0:0:
101,249,43521,1,2,0:0:0:0:
190,279,43707,1,6,0:3:0:0:
110,345,43893,2,0,B|56:337|24:303|24:303|8:190,1,187.499994039536,2|0,0:0|0:0,0:0:0:0:
1,120,44452,1,2,0:0:0:0:
82,156,44639,1,2,0:0:0:0:
76,48,44825,6,0,B|130:56|162:90|162:90|178:203,2,187.499994039536,4|0|8,0:3|0:0|0:0,0:0:0:0:
280,14,45943,1,4,0:3:0:0:
268,201,46316,5,0,0:0:0:0:
365,183,46502,1,0,0:0:0:0:
365,183,46595,1,0,0:0:0:0:
365,183,46688,2,0,L|354:282,1,93.7499970197678,4|0,0:3|0:0,0:0:0:0:
428,334,47061,2,0,L|474:350,2,46.8749985098839,10|0|0,0:0|0:0|0:0,0:0:0:0:
340,369,47434,2,0,P|270:354|248:336,1,93.7499970197678,4|0,0:3|0:0,0:0:0:0:
195,216,47806,6,0,L|178:309,1,74.9999976158143,6|2,0:3|0:0,0:0:0:0:
85,332,48179,2,0,L|98:258,2,74.9999976158143,2|6|10,0:0|0:3|0:0,0:0:0:0:
42,149,48924,6,0,P|99:130|138:128,1,74.9999976158143,2|0,0:0|0:0,0:0:0:0:
169,58,49297,2,0,P|226:76|302:151,1,149.999995231629,2|4,0:0|0:3,0:0:0:0:
377,143,49856,2,0,P|389:201|337:361,1,224.999992847443,2|0,0:0|0:0,0:0:0:0:
130,347,50788,6,0,L|116:273,1,74.9999976158143,6|2,0:3|0:0,0:0:0:0:
35,235,51161,2,0,L|21:161,1,74.9999976158143,2|6,0:0|0:3,0:0:0:0:
22,59,51533,2,0,P|47:116|129:170,1,149.999995231629,10|6,0:0|0:3,0:0:0:0:
186,109,52092,1,2,0:0:0:0:
286,101,52278,2,0,P|225:144|190:209,1,149.999995231629,2|6,0:0|0:3,0:0:0:0:
287,228,52837,2,0,L|370:201,1,74.9999976158143,2|8,0:0|0:0,0:0:0:0:
389,325,53210,2,0,P|316:338|246:313,1,149.999995231629,2|0,0:0|0:0,0:0:0:0:
274,155,53769,6,0,L|291:248,1,74.9999976158143,6|2,0:3|0:0,0:0:0:0:
387,236,54142,2,0,L|373:162,2,74.9999976158143,2|6|10,0:0|0:3|0:0,0:0:0:0:
473,84,54887,5,2,0:0:0:0:
393,45,55073,1,2,0:0:0:0:
304,36,55260,2,0,P|246:54|171:129,1,149.999995231629,2|6,0:0|0:3,0:0:0:0:
96,121,55819,2,0,P|83:179|136:339,1,224.999992847443,2|2,0:0|0:0,0:0:0:0:
339,371,56750,6,0,L|352:297,1,74.9999976158143,6|2,0:3|0:0,0:0:0:0:
432,252,57123,2,0,L|445:178,1,74.9999976158143,2|6,0:0|0:3,0:0:0:0:
473,60,57496,2,0,P|391:115|300:99,1,149.999995231629,10|6,0:0|0:3,0:0:0:0:
255,95,58055,1,2,0:0:0:0:
202,25,58241,2,0,P|232:92|230:167,1,149.999995231629,2|6,0:0|0:3,0:0:0:0:
219,263,58800,2,0,L|268:319,1,74.9999976158143,2|8,0:0|0:0,0:0:0:0:
128,228,59173,2,0,P|56:215|0:167,1,149.999995231629,2|0,0:0|0:0,0:0:0:0:
26,33,59732,6,0,L|40:98,1,56.2500003576279,0|2,0:0|0:0,0:0:0:0:
105,143,60104,1,2,0:0:0:0:
116,134,60291,1,2,0:0:0:0:
128,228,60477,1,10,0:0:0:0:
266,341,60850,1,2,0:0:0:0:
256,329,61036,1,2,0:0:0:0:
352,372,61223,6,0,L|368:244,1,112.500000715256,2|2,0:0|0:0,0:0:0:0:
355,266,61782,2,0,L|347:210,1,56.2500003576279,2|8,0:0|0:0,0:0:0:0:
391,112,62154,1,2,0:0:0:0:
377,123,62341,6,0,L|249:139,1,112.500000715256,2|6,0:0|0:3,0:0:0:0:
271,126,62900,2,0,L|215:118,2,56.2500003576279,2|0|4,0:0|0:0|0:3,0:0:0:0:
238,30,63459,1,10,0:0:0:0:
249,39,63646,1,2,0:0:0:0:
343,46,63831,1,6,0:3:0:0:
332,55,64018,1,2,0:0:0:0:
432,25,64204,6,0,L|418:136,1,112.500000715256,2|6,0:0|0:3,0:0:0:0:
429,131,64763,2,0,L|436:186,1,56.2500003576279,2|8,0:0|0:0,0:0:0:0:
483,263,65136,1,2,0:0:0:0:
470,274,65322,6,0,L|342:258,1,112.500000715256,6|6,0:3|0:3,0:0:0:0:
364,271,65881,2,0,L|308:278,1,56.2500003576279,2|0,0:0|0:0,0:0:0:0:
231,245,66254,1,6,0:3:0:0:
163,314,66440,1,10,0:0:0:0:
154,303,66627,1,2,0:0:0:0:
147,209,66812,1,2,0:0:0:0:
138,220,66999,1,2,0:0:0:0:
60,270,67185,6,0,L|44:142,1,112.500000715256,2|6,0:0|0:3,0:0:0:0:
57,164,67744,2,0,L|64:108,1,56.2500003576279,2|8,0:0|0:0,0:0:0:0:
28,31,68117,1,2,0:0:0:0:
144,72,68303,6,0,P|205:65|293:86,1,112.500000715256,2|6,0:0|0:3,0:0:0:0:
268,82,68862,2,0,P|295:74|324:75,2,56.2500003576279,2|0|4,0:0|0:0|0:3,0:0:0:0:
208,146,69421,1,10,0:0:0:0:
313,162,69608,1,2,0:0:0:0:
219,155,69793,1,6,0:3:0:0:
302,171,69980,1,2,0:0:0:0:
248,244,70167,6,0,B|279:299|309:258|358:317,1,112.500000715256,2|6,0:0|0:3,0:0:0:0:
350,315,70726,1,2,0:0:0:0:
435,289,70912,1,8,0:0:0:0:
435,289,71005,1,0,0:0:0:0:
435,289,71098,1,0,0:0:0:0:
489,356,71285,1,4,0:3:0:0:
480,166,71657,6,0,L|405:161,1,56.2500003576279,4|2,0:3|0:0,0:0:0:0:
373,27,72030,2,0,L|369:83,1,56.2500003576279,2|4,0:0|0:3,0:0:0:0:
464,174,72403,2,0,L|350:166,1,112.500000715256,10|0,0:0|0:0,0:0:0:0:
267,197,72962,1,2,0:0:0:0:
233,64,73148,6,0,L|229:120,1,56.2500003576279,2|0,0:0|0:0,0:0:0:0:
257,207,73521,2,0,L|143:199,1,112.500000715256,6|8,0:3|0:0,0:0:0:0:
61,214,74080,1,2,0:0:0:0:
28,295,74266,2,0,L|25:332,2,28.125000178814,2|0|0,0:0|0:0|0:0,0:0:0:0:
61,214,74639,6,0,L|136:209,1,56.2500003576279,4|2,0:3|0:0,0:0:0:0:
168,75,75012,2,0,L|171:131,1,56.2500003576279,2|4,0:0|0:3,0:0:0:0:
77,222,75385,2,0,L|190:214,1,112.500000715256,10|4,0:0|0:3,0:0:0:0:
274,245,75944,1,2,0:0:0:0:
315,113,76130,6,0,L|318:169,1,56.2500003576279,2|4,0:0|0:3,0:0:0:0:
284,255,76503,2,0,L|397:247,1,112.500000715256,6|8,0:3|0:0,0:0:0:0:
480,287,77062,1,2,0:0:0:0:
405,333,77247,1,6,0:3:0:0:
395,346,77434,1,2,0:0:0:0:
480,287,77620,6,0,L|483:230,1,56.2500003576279,4|2,0:3|0:0,0:0:0:0:
388,127,77993,2,0,L|384:183,1,56.2500003576279,2|4,0:0|0:3,0:0:0:0:
470,276,78365,2,0,L|477:162,1,112.500000715256,10|0,0:0|0:0,0:0:0:0:
460,79,78924,1,2,0:0:0:0:
388,127,79111,6,0,L|384:183,1,56.2500003576279,2|0,0:0|0:0,0:0:0:0:
287,263,79483,2,0,L|294:149,1,112.500000715256,6|8,0:3|0:0,0:0:0:0:
249,77,80042,1,2,0:0:0:0:
202,152,80229,1,2,0:0:0:0:
202,152,80322,1,0,0:0:0:0:
202,152,80415,1,0,0:0:0:0:
118,119,80601,6,0,P|100:182|109:245,1,112.500000715256,4|2,0:3|0:0,0:0:0:0:
145,303,81160,1,4,0:3:0:0:
155,312,81347,1,8,0:0:0:0:
267,227,81719,1,4,0:3:0:0:
338,333,82092,1,0,0:0:0:0:
411,281,82278,1,4,0:3:0:0:
499,278,82465,1,4,0:3:0:0:
392,149,82838,5,10,0:0:0:0:
424,144,83210,1,6,0:3:0:0:
456,139,83583,1,2,0:3:0:0:
282,241,94018,6,0,P|244:335|212:267,1,225.000001430512,2|2,0:0|0:0,0:0:0:0:
378,166,95136,1,2,0:0:0:0:
378,166,95508,6,0,B|334:109|346:3|443:-25|484:57|455:100,1,269.999983177186,6|6,0:3|0:3,0:0:0:0:
471,180,96254,2,0,P|458:228|455:290,1,89.9999943923952,10|0,0:0|0:0,0:0:0:0:
407,351,96626,1,2,0:0:0:0:
322,308,96813,1,0,0:0:0:0:
322,308,96906,1,0,0:0:0:0:
322,308,96999,6,0,P|253:309|201:338,1,89.9999943923952,2|0,0:0|0:0,0:0:0:0:
163,232,97372,2,0,P|196:171|197:112,1,89.9999943923952,6|0,0:3|0:0,0:0:0:0:
307,131,97744,2,0,P|327:172|358:204,1,89.9999943923952,10|0,0:0|0:0,0:0:0:0:
263,229,98117,2,0,L|270:277,2,44.9999971961976,2|0|0,0:0|0:0|0:0,0:0:0:0:
248,62,98490,6,0,B|210:92|210:92|91:63|7:156,1,269.999983177186,6|6,0:3|0:3,0:0:0:0:
98,189,99235,2,0,P|83:101|27:32,2,179.99998878479,10|6|2,0:0|0:3|0:0,0:0:0:0:
167,273,100167,5,0,0:0:0:0:
167,273,100260,1,0,0:0:0:0:
167,273,100353,2,0,P|149:315|109:346,1,89.9999943923952,6|0,0:3|0:0,0:0:0:0:
178,181,100726,2,0,P|149:144|146:119,2,44.9999971961976,10|0|0,0:0|0:0|0:0,0:0:0:0:
252,236,101098,2,0,P|298:229|344:248,1,89.9999943923952,6|0,0:3|0:0,0:0:0:0:
416,347,101471,6,0,B|342:254|364:137|364:137|371:168|405:190,1,269.999983177186,6|4,0:3|0:3,0:0:0:0:
455,230,102216,2,0,P|471:186|472:134,1,89.9999943923952,10|0,0:0|0:0,0:0:0:0:
447,66,102589,1,2,0:0:0:0:
378,27,102775,1,0,0:0:0:0:
378,27,102868,1,0,0:0:0:0:
378,27,102962,6,0,L|281:39,1,89.9999943923952,2|0,0:0|0:0,0:0:0:0:
250,118,103334,2,0,L|308:196,1,89.9999943923952,6|0,0:3|0:0,0:0:0:0:
393,184,103707,2,0,L|431:93,1,89.9999943923952,10|0,0:0|0:0,0:0:0:0:
334,48,104080,2,0,L|339:93,2,44.9999971961976,2|0|0,0:0|0:0|0:0,0:0:0:0:
208,16,104452,6,0,B|100:46|163:170|19:207,1,269.999983177186,6|6,0:3|0:3,0:0:0:0:
26,110,105198,2,0,P|82:132|163:264,1,179.99998878479,8|6,0:0|0:3,0:0:0:0:
147,310,105757,1,0,0:0:0:0:
67,357,105943,1,2,0:0:0:0:
18,285,106129,1,0,0:0:0:0:
18,285,106223,1,0,0:0:0:0:
18,285,106316,1,4,0:3:0:0:
115,123,106688,6,0,L|100:234,1,89.9999943923952,10|0,0:0|0:0,0:0:0:0:
212,188,107061,2,0,L|225:99,1,89.9999943923952,6|0,0:3|0:0,0:0:0:0:
335,75,107434,6,0,B|337:121|313:148|313:148|318:175|318:175|296:218|309:258,1,179.99998878479,6|0,0:3|0:0,0:0:0:0:
331,333,107993,1,6,0:3:0:0:
391,267,108179,1,10,0:0:0:0:
446,337,108365,1,2,0:0:0:0:
503,267,108552,2,0,P|506:218|490:177,1,89.9999943923952,2|0,0:0|0:0,0:0:0:0:
463,145,108831,1,0,0:0:0:0:
463,145,108924,6,0,L|352:130,1,89.9999943923952,2|0,0:0|0:0,0:0:0:0:
257,24,109297,2,0,L|346:36,1,89.9999943923952,6|0,0:3|0:0,0:0:0:0:
274,143,109670,2,0,B|226:136|226:136|152:87,1,134.999991588593,10|0,0:0|0:0,0:0:0:0:
119,59,110042,1,2,0:0:0:0:
28,118,110229,1,2,0:0:0:0:
19,20,110415,6,0,P|6:96|28:237,1,179.99998878479,4|2,0:3|0:0,0:0:0:0:
32,298,110974,1,6,0:3:0:0:
108,231,111160,2,0,L|300:241,1,179.99998878479,10|6,0:0|0:3,0:0:0:0:
378,265,111719,1,2,0:0:0:0:
306,324,111906,6,0,L|211:339,1,89.9999943923952,2|2,0:0|0:0,0:0:0:0:
128,349,112278,1,6,0:3:0:0:
39,364,112465,2,0,B|24:273|95:294|83:189,1,179.99998878479,2|0,0:0|0:0,0:0:0:0:
55,110,113024,1,6,0:3:0:0:
142,129,113210,1,2,0:0:0:0:
119,41,113396,6,0,B|209:26|188:97|293:85,1,179.99998878479,4|2,0:3|0:0,0:0:0:0:
375,65,113955,1,6,0:3:0:0:
439,0,114142,2,0,L|419:206,1,179.99998878479,10|2,0:0|0:0,0:0:0:0:
460,260,114701,1,2,0:0:0:0:
370,250,114887,5,2,0:0:0:0:
406,331,115073,1,2,0:0:0:0:
316,323,115260,1,6,0:3:0:0:
280,240,115446,2,0,B|259:275|209:276|209:276|158:327|97:331,1,179.99998878479,2|0,0:0|0:0,0:0:0:0:
29,311,116005,1,2,0:0:0:0:
111,229,116191,1,2,0:0:0:0:
14,209,116378,6,0,B|55:196|89:214|89:214|148:214|214:152,2,179.99998878479,4|0|8,0:3|0:0|0:0,0:0:0:0:
32,29,117496,1,4,0:3:0:0:
209,2,117868,6,0,L|197:114,1,89.9999943923952,0|0,0:0|0:0,0:0:0:0:
199,140,118148,1,0,0:0:0:0:
199,140,118241,1,4,0:3:0:0:
271,192,118427,1,0,0:0:0:0:
342,246,118614,2,0,P|349:296|335:337,1,89.9999943923952,10|0,0:0|0:0,0:0:0:0:
435,216,118986,2,0,P|474:184|517:176,1,89.9999943923952,6|0,0:3|0:0,0:0:0:0:
363,150,119359,6,0,P|316:131|263:61,1,119.999996185303,2|0,0:0|0:0,0:0:0:0:
189,60,119918,1,2,0:0:0:0:
164,82,120104,2,0,L|155:163,1,59.9999980926514,2|2,0:0|0:0,0:0:0:0:
109,216,120477,2,0,P|58:166|-7:151,2,119.999996185303,2|2|2,0:0|0:0|0:0,0:0:0:0:
121,335,121595,2,0,P|167:316|215:262,1,119.999996185303,2|2,0:0|0:0,0:0:0:0:
280,198,122154,1,2,0:0:0:0:
304,225,122341,6,0,P|257:206|204:136,1,119.999996185303,0|2,0:0|0:0,0:0:0:0:
237,74,122900,1,2,0:0:0:0:
237,74,123086,1,2,0:0:0:0:
369,1,123458,2,0,P|362:36|366:77,1,59.9999980926514,2|2,0:0|0:0,0:0:0:0:
403,134,123831,2,0,P|403:163|396:193,2,59.9999980926514,2|2|2,0:0|0:0|0:0,0:0:0:0:
494,61,124390,2,0,P|488:151|511:260,1,179.999994277954,2|2,0:0|0:0,0:0:0:0:
443,303,125136,1,2,0:0:0:0:
443,303,125322,6,0,P|358:283|304:288,1,119.999996185303,0|2,0:0|0:0,0:0:0:0:
250,333,125881,1,2,0:0:0:0:
214,310,126067,2,0,L|206:182,1,119.999996185303,2|2,0:0|0:0,0:0:0:0:
150,127,126626,1,2,0:0:0:0:
79,177,126813,2,0,L|67:246,2,59.9999980926514,2|2|2,0:0|0:0|0:0,0:0:0:0:
23,104,127372,2,0,P|92:56|196:47,1,179.999994277954,2|2,0:0|0:0,0:0:0:0:
274,51,128117,6,0,B|178:53|118:111|42:233|135:312|226:279|258:200|219:171,1,419.99998664856,2|0,0:0|0:0,0:0:0:0:
