osu file format v14

[General]
AudioFilename: audio.mp3
AudioLeadIn: 0
PreviewTime: 44475
Countdown: 0
SampleSet: Soft
StackLeniency: 0.7
Mode: 0
LetterboxInBreaks: 0
WidescreenStoryboard: 1

[Editor]
Bookmarks: 6722,74585,138929
DistanceSpacing: 1.1
BeatDivisor: 4
GridSize: 4
TimelineZoom: 1

[Metadata]
Title:Sick and Tired feat. Machine Gun Kelly & Travis Barker
TitleUnicode:Sick and Tired feat. Machine Gun Kelly & Travis Barker
Artist:iann dior
ArtistUnicode:iann dior
Creator:Mimari
Version:mimari & james' normal
Source:
Tags:english hip hop emo rap pop jamesjan3 i'm im gone ft. collab
BeatmapID:2577457
BeatmapSetID:1239705

[Difficulty]
HPDrainRate:3
CircleSize:3.6
OverallDifficulty:4
ApproachRate:4.8
SliderMultiplier:1
SliderTickRate:1

[Events]
//Background and Video events
0,0,"anime-girl-night-moon-digital-art-ar-1920x1080.jpg",0,0
//Break Periods
//Storyboard Layer 0 (Background)
//Storyboard Layer 1 (Fail)
//Storyboard Layer 2 (Pass)
//Storyboard Layer 3 (Foreground)
//Storyboard Layer 4 (Overlay)
//Storyboard Sound Samples

[TimingPoints]
6613,413.793103448276,4,2,0,40,1,0
19854,-100,4,2,0,50,0,0
44681,-100,4,2,0,50,0,0
46337,-100,4,2,0,75,0,1
52854,-100,4,2,0,75,0,1
52957,-100,4,2,0,75,0,1
59475,-100,4,2,0,75,0,1
59578,-100,4,2,0,75,0,1
66095,-100,4,2,0,75,0,1
66199,-100,4,2,0,75,0,1
72819,-100,4,2,0,75,0,0
73647,-100,4,2,0,75,0,0
74061,-100,4,2,0,75,0,0
74475,-100,4,2,0,45,0,0
87716,-100,4,2,0,55,0,0
100957,-100,4,2,0,75,0,1
107475,-100,4,2,0,75,0,1
107578,-100,4,2,0,75,0,1
114095,-100,4,2,0,75,0,1
114199,-100,4,2,0,75,0,1
120716,-100,4,2,0,75,0,1
120819,-100,4,2,0,75,0,1
127337,-100,4,2,0,75,0,1
127440,-100,4,2,0,35,0,0
137371,-100,4,2,0,35,0,0
138819,-100,4,2,0,35,0,0

[Colours]
Combo1 : 0,0,255
Combo2 : 198,180,203
Combo3 : 139,123,159
Combo4 : 13,173,242

[HitObjects]
14,248,6612,6,0,L|121:231,1,100,2|2,0:0|0:0,0:0:0:0:
190,168,7440,2,0,L|252:177,1,50,0|0,0:0|0:0,0:0:0:0:
281,203,7854,2,0,L|343:212,1,50,0|0,0:0|0:0,0:0:0:0:
379,219,8268,5,2,0:0:0:0:
449,148,8681,2,0,L|438:26,2,100,0|0|0,0:0|0:0|0:0,0:0:0:0:
479,243,9923,37,2,0:0:0:0:
455,340,10337,2,0,L|386:328,1,50,0|0,0:0|0:0,0:0:0:0:
356,341,10750,2,0,L|255:321,1,100,0|0,0:0|0:0,0:0:0:0:
161,350,11578,6,0,L|95:362,1,50,2|0,0:0|0:0,0:0:0:0:
63,372,11992,1,0,0:0:0:0:
14,284,12406,2,0,L|80:272,1,50,0|0,0:0|0:0,0:0:0:0:
112,263,12820,1,0,0:0:0:0:
154,172,13233,6,0,B|202:158|202:158|265:184,1,100,2|0,0:0|0:0,0:0:0:0:
341,214,14061,2,0,L|333:146,1,50,0|0,0:0|0:0,0:0:0:0:
312,119,14475,2,0,L|304:51,1,50,0|0,0:0|0:0,0:0:0:0:
298,18,14888,5,2,0:0:0:0:
397,8,15302,2,0,L|501:25,2,100,0|0|0,0:0|0:0|0:0,0:0:0:0:
354,98,16544,37,2,0:0:0:0:
406,182,16958,2,0,L|418:253,1,50,0|0,0:0|0:0,0:0:0:0:
399,279,17371,2,0,B|351:290|351:290|299:273,1,100,0|0,0:0|0:0,0:0:0:0:
255,256,17992,1,0,0:0:0:0:
75,346,19854,38,0,L|61:246,1,100,0|2,3:0|0:0,0:0:0:0:
46,148,20681,2,0,L|108:161,1,50,8|2,0:0|0:0,0:0:0:0:
137,185,21095,2,0,L|199:198,1,50,2|2,0:0|0:0,0:0:0:0:
230,171,21509,38,0,L|216:71,1,100,2|0,0:0|3:0,0:0:0:0:
316,71,22337,2,0,L|330:171,2,100,8|2|0,0:0|0:0|3:0,0:0:0:0:
331,26,23371,5,0,3:0:0:0:
331,26,23578,1,2,0:0:0:0:
231,11,23992,2,0,L|172:6,1,50,8|2,0:0|0:0,0:0:0:0:
134,25,24406,2,0,L|75:20,1,50,2|2,0:0|0:0,0:0:0:0:
47,54,24819,38,0,L|69:166,1,100,2|0,0:0|3:0,0:0:0:0:
49,251,25647,2,0,L|118:260,1,50,8|2,0:0|0:0,0:0:0:0:
147,267,26061,1,2,0:0:0:0:
219,336,26475,6,0,P|271:343|332:320,1,100,0|2,3:0|0:0,0:0:0:0:
414,346,27302,2,0,L|419:287,1,50,8|2,0:0|0:0,0:0:0:0:
450,257,27716,2,0,L|455:198,1,50,2|2,0:0|0:0,0:0:0:0:
456,156,28130,1,2,0:0:0:0:
377,94,28544,2,0,L|267:115,1,100,2|8,3:1|0:0,0:0:0:0:
191,64,29371,2,0,L|128:54,1,50,2|2,0:0|0:0,0:0:0:0:
100,84,29785,38,0,L|38:96,1,50,0|0,3:0|3:0,0:0:0:0:
4,112,30199,2,0,L|16:231,1,100,2|8,0:1|0:0,0:0:0:0:
94,271,31026,2,0,L|87:328,1,50,2|2,0:0|0:0,0:0:0:0:
86,370,31440,6,0,L|190:353,1,100,2|0,0:0|3:0,0:0:0:0:
264,293,32268,2,0,L|273:224,1,50,8|0,0:0|3:0,0:0:0:0:
251,197,32681,1,2,0:0:0:0:
274,99,33095,38,0,P|324:82|386:95,1,100,0|2,3:0|0:0,0:0:0:0:
460,130,33923,2,0,L|470:200,1,50,8|0,0:0|0:0,0:0:0:0:
462,229,34337,2,0,L|472:299,1,50,0|0,0:0|0:0,0:0:0:0:
478,327,34750,6,0,L|373:306,1,100,2|0,0:0|3:0,0:0:0:0:
332,321,35371,1,2,0:0:0:0:
332,321,35578,2,0,L|227:300,1,100,8|0,0:0|0:0,0:0:0:0:
142,260,36406,38,0,L|133:196,1,50,0|0,3:0|3:0,0:0:0:0:
130,160,36819,1,2,0:0:0:0:
130,160,37026,2,0,P|183:155|237:179,2,100,2|2|2,0:0|0:0|0:0,0:0:0:0:
84,180,38061,6,0,L|71:280,1,100,2|0,0:0|3:0,0:0:0:0:
144,346,38888,2,0,L|207:334,1,50,8|2,0:0|0:0,0:0:0:0:
240,353,39302,2,0,L|303:341,1,50,2|0,0:0|0:0,0:0:0:0:
338,354,39716,38,0,L|351:250,1,100,0|2,3:0|0:0,0:0:0:0:
384,217,40337,2,0,L|397:113,1,100,2|0,0:0|0:0,0:0:0:0:
420,73,40957,1,2,0:0:0:0:
337,17,41371,6,0,P|289:7|231:6,1,100,2|0,0:0|3:0,0:0:0:0:
198,36,41992,2,0,P|150:46|92:47,1,100,2|0,0:0|0:0,0:0:0:0:
57,18,42613,1,0,0:0:0:0:
21,111,43026,38,0,L|30:170,1,50,0|0,3:0|3:0,0:0:0:0:
43,208,43440,1,2,0:0:0:0:
43,208,43647,2,0,L|32:311,2,100,2|2|2,0:0|0:0|0:0,0:0:0:0:
314,48,46337,6,0,P|327:99|316:153,1,100,0|8,3:1|0:1,0:0:0:0:
323,254,47164,1,2,0:0:0:0:
269,264,47371,1,2,0:0:0:0:
216,248,47578,2,0,L|157:240,1,50,8|2,0:1|0:0,0:0:0:0:
111,233,47992,37,2,0:0:0:0:
4,259,48406,2,0,L|18:326,1,50,8|2,0:1|0:0,0:0:0:0:
47,351,48819,2,0,L|-9:367,2,50,2|2|8,0:0|0:0|0:1,0:0:0:0:
105,344,49440,1,2,0:0:0:0:
105,344,49647,6,0,L|202:365,1,100,0|8,3:1|0:1,0:0:0:0:
298,310,50475,2,0,L|365:300,1,50,2|2,0:0|0:0,0:0:0:0:
402,295,50888,1,8,0:1:0:0:
491,358,51302,38,0,L|502:299,1,50
510,254,51716,2,0,L|494:145,1,100,8|2,0:1|0:0,0:0:0:0:
479,102,52337,1,0,3:1:0:0:
496,49,52544,1,8,0:1:0:0:
394,7,52957,38,0,B|340:3|340:3|282:32,1,100,0|8,3:1|0:1,0:0:0:0:
205,81,53785,1,2,0:0:0:0:
222,133,53992,1,2,0:0:0:0:
239,185,54199,2,0,L|231:244,1,50,8|2,0:1|0:0,0:0:0:0:
224,289,54613,37,2,0:0:0:0:
143,364,55027,2,0,L|78:352,1,50,8|2,0:1|0:0,0:0:0:0:
45,328,55440,2,0,L|55:384,2,50,2|2|8,0:0|0:0|0:1,0:0:0:0:
26,281,56061,1,2,0:0:0:0:
26,281,56268,6,0,L|36:168,1,100,0|8,3:1|0:1,0:0:0:0:
28,71,57096,2,0,L|88:59,1,50,2|0,0:0|0:0,0:0:0:0:
131,52,57509,1,8,0:1:0:0:
216,121,57923,38,0,L|285:109,1,50,2|0,0:0|0:0,0:0:0:0:
319,124,58337,2,0,L|431:102,1,100,8|2,0:1|0:0,0:0:0:0:
471,95,58958,1,0,3:1:0:0:
509,134,59164,1,8,0:1:0:0:
475,238,59578,38,0,P|471:289|464:346,1,100,0|8,3:1|0:1,0:0:0:0:
357,362,60406,1,2,0:0:0:0:
301,363,60613,1,2,0:0:0:0:
246,365,60819,2,0,L|187:357,1,50,8|2,0:1|0:0,0:0:0:0:
141,349,61233,37,2,0:0:0:0:
127,239,61647,2,0,L|116:190,1,50,8|2,0:1|0:0,0:0:0:0:
65,168,62061,2,0,L|-7:151,2,50,2|2|8,0:0|0:0|0:1,0:0:0:0:
92,122,62681,1,2,0:0:0:0:
92,122,62888,6,0,L|210:99,1,100,0|8,3:1|0:1,0:0:0:0:
285,157,63716,2,0,L|351:168,1,50,2|2,0:0|0:0,0:0:0:0:
388,176,64129,1,8,0:1:0:0:
490,136,64543,38,0,L|501:77,1,50,2|0,0:0|0:0,0:0:0:0:
487,32,64957,2,0,P|432:29|384:46,1,100,8|2,0:1|0:0,0:0:0:0:
344,74,65578,1,0,3:1:0:0:
290,62,65785,1,8,0:1:0:0:
194,116,66199,38,0,B|143:126|143:126|89:101,1,100,0|8,3:1|0:1,0:0:0:0:
17,178,67026,1,2,0:0:0:0:
31,229,67233,1,2,0:0:0:0:
41,282,67440,2,0,L|34:349,1,50,8|2,0:1|0:0,0:0:0:0:
74,370,67854,37,2,0:0:0:0:
180,340,68268,2,0,L|245:328,1,50,8|2,0:1|0:0,0:0:0:0:
271,295,68681,2,0,L|329:312,2,50,2|2|8,0:0|0:0|0:1,0:0:0:0:
256,246,69302,1,2,0:0:0:0:
256,246,69509,6,0,L|240:131,1,100,0|8,3:1|0:1,0:0:0:0:
238,40,70337,1,2,0:0:0:0:
238,40,70544,2,0,L|343:67,1,100,2|2,0:0|0:0,0:0:0:0:
387,80,71164,37,2,0:0:0:0:
491,113,71578,2,0,L|485:228,1,100,8|2,0:1|0:0,0:0:0:0:
479,267,72199,1,0,3:1:0:0:
474,321,72406,2,0,B|423:334|423:334|377:303,1,100,8|2,0:1|0:0,0:0:0:0:
206,263,74475,6,0,B|169:295|169:295|105:277,1,100,0|8,3:0|0:0,0:0:0:0:
42,217,75302,2,0,L|24:103,1,100,2|8,0:0|0:0,0:0:0:0:
17,68,75923,1,2,0:0:0:0:
17,68,76130,37,0,3:0:0:0:
98,9,76544,2,0,L|154:18,1,50,8|8,0:0|0:0,0:0:0:0:
183,51,76957,2,0,L|275:35,2,75,2|0|2,0:0|0:0|0:0,0:0:0:0:
150,89,77785,5,0,3:0:0:0:
213,166,78199,2,0,L|328:182,2,100,8|2|8,0:0|0:0|0:0,0:0:0:0:
183,206,79233,1,2,0:0:0:0:
183,206,79440,37,0,3:0:0:0:
202,304,79854,1,8,0:0:0:0:
302,271,80268,1,2,0:0:0:0:
320,369,80681,1,8,0:0:0:0:
419,356,81095,6,0,B|449:317|449:317|438:244,1,100,0|8,3:0|0:0,0:0:0:0:
423,168,81923,2,0,L|367:161,2,50,2|2|8,0:0|0:0|0:0,0:0:0:0:
476,180,82544,1,2,0:0:0:0:
476,180,82750,38,0,L|466:71,1,100,0|8,3:0|0:0,0:0:0:0:
386,20,83578,2,0,L|274:8,1,100,2|8,0:0|0:0,0:0:0:0:
236,3,84199,2,0,B|257:51|257:51|244:109,1,100,2|2,0:0|0:0,0:0:0:0:
229,149,84819,6,0,L|174:160,1,50,8|8,0:0|0:0,0:0:0:0:
125,166,85233,1,2,0:0:0:0:
86,73,85647,1,8,0:0:0:0:
2,127,86061,37,0,3:0:0:0:
386,285,87716,6,0,L|395:224,2,50,0|2|2,3:0|0:0|0:0,0:0:0:0:
379,334,88337,2,0,B|340:350|340:350|223:324,1,150,2|0,0:0|0:0,0:0:0:0:
139,297,89371,37,2,0:0:0:0:
139,297,89578,2,0,L|133:246,1,50,8|0,0:0|3:0,0:0:0:0:
126,197,89992,1,2,0:0:0:0:
213,148,90406,2,0,B|244:164|244:164|319:144,1,100,2|2,0:0|0:0,0:0:0:0:
354,131,91026,6,0,L|356:82,1,50,0|0,3:0|3:0,0:0:0:0:
360,31,91440,1,2,0:0:0:0:
447,79,91854,2,0,L|506:72,2,50,8|2|2,0:0|0:0|0:0,0:0:0:0:
433,181,92681,37,2,0:0:0:0:
433,181,92888,2,0,L|420:280,1,100,8|2,0:0|0:0,0:0:0:0:
338,338,93716,2,0,B|307:354|307:354|232:334,1,100,2|0,0:0|0:0,0:0:0:0:
196,321,94337,5,0,3:0:0:0:
196,321,94544,1,2,0:0:0:0:
228,226,94957,2,0,B|152:213|152:213|90:275,1,150,2|2,0:0|0:0,0:0:0:0:
38,192,95992,37,2,0:0:0:0:
38,192,96199,2,0,L|45:121,1,50,8|0,0:0|3:0,0:0:0:0:
49,92,96613,1,2,0:0:0:0:
115,18,97026,2,0,B|146:2|146:2|221:22,1,100,2|2,0:0|0:0,0:0:0:0:
255,38,97647,6,0,L|248:87,1,50,0|0,3:0|3:0,0:0:0:0:
257,137,98061,2,0,L|264:192,1,50,2|2,0:0|0:0,0:0:0:0:
260,236,98475,2,0,L|253:291,1,50,8|2,0:0|0:0,0:0:0:0:
259,335,98888,1,2,0:0:0:0:
259,335,99095,1,2,0:0:0:0:
475,54,100957,6,0,P|428:95|424:145,1,100,0|8,3:1|0:1,0:0:0:0:
470,228,101785,1,2,0:0:0:0:
496,276,101992,1,2,0:0:0:0:
491,330,102199,2,0,L|423:337,1,50,8|2,0:1|0:0,0:0:0:0:
390,357,102613,6,0,L|274:337,1,100,2|8,0:0|0:1,0:0:0:0:
218,257,103440,2,0,L|214:207,1,50,2|2,0:0|0:0,0:0:0:0:
241,159,103854,2,0,L|245:109,1,50,8|2,0:1|0:0,0:0:0:0:
221,59,104268,37,0,3:1:0:0:
114,30,104681,1,8,0:1:0:0:
24,94,105095,2,0,L|17:147,2,50,2|2|8,0:0|0:0|0:1,0:0:0:0:
36,43,105716,1,2,0:0:0:0:
36,43,105923,6,0,P|85:37|143:54,1,100,2|8,0:0|0:1,0:0:0:0:
176,84,106544,1,2,0:0:0:0:
176,84,106750,2,0,L|168:148,1,50,2|0,0:0|3:1,0:0:0:0:
163,188,107164,1,8,0:1:0:0:
224,279,107578,6,0,B|270:252|270:252|277:186,1,100,0|8,3:1|0:1,0:0:0:0:
306,99,108406,1,2,0:0:0:0:
360,96,108613,1,2,0:0:0:0:
409,119,108819,2,0,L|461:129,1,50,8|2,0:1|0:0,0:0:0:0:
500,164,109233,5,2,0:0:0:0:
458,265,109647,1,8,0:1:0:0:
347,283,110061,2,0,L|341:220,2,50,2|2|8,0:0|0:0|0:1,0:0:0:0:
357,341,110681,1,2,0:0:0:0:
357,341,110888,37,0,3:1:0:0:
248,360,111302,1,8,0:1:0:0:
137,360,111716,2,0,L|85:351,2,50,2|2|8,0:0|0:0|0:1,0:0:0:0:
180,325,112337,1,2,0:0:0:0:
180,325,112544,6,0,B|191:277|191:277|163:216,1,100,2|8,0:0|0:1,0:0:0:0:
136,186,113164,1,2,0:0:0:0:
102,142,113371,2,0,L|47:149,2,50,2|0|8,0:0|3:1|0:1,0:0:0:0:
212,141,114199,6,0,P|255:127|275:69,1,100,0|8,3:1|0:1,0:0:0:0:
190,10,115026,1,2,0:0:0:0:
135,19,115233,1,2,0:0:0:0:
81,33,115440,2,0,L|77:91,1,50,8|2,0:1|0:0,0:0:0:0:
55,133,115854,6,0,L|69:245,1,100,2|8,0:0|0:1,0:0:0:0:
169,273,116681,2,0,L|174:213,2,50,2|2|8,0:0|0:0|0:1,0:0:0:0:
187,325,117302,1,2,0:0:0:0:
184,379,117509,37,0,3:1:0:0:
291,354,117923,2,0,L|349:361,1,50,8|2,0:1|0:0,0:0:0:0:
391,338,118337,2,0,L|447:344,2,50,2|2|8,0:0|0:0|0:1,0:0:0:0:
368,293,118957,1,2,0:0:0:0:
368,293,119164,5,2,0:0:0:0:
303,203,119578,2,0,L|293:135,1,50,8|2,0:1|0:0,0:0:0:0:
310,100,119992,2,0,L|302:30,2,50,2|0|8,0:0|3:1|0:1,0:0:0:0:
411,142,120819,6,0,B|463:147|463:147|501:91,1,100,0|8,3:1|0:1,0:0:0:0:
438,10,121647,1,2,0:0:0:0:
382,11,121854,1,2,0:0:0:0:
330,30,122061,2,0,L|264:17,1,50,8|2,0:1|0:0,0:0:0:0:
233,48,122475,6,0,L|254:157,1,100,2|8,0:0|0:1,0:0:0:0:
161,209,123302,2,0,L|152:265,2,50,2|2|8,0:0|0:0|0:1,0:0:0:0:
144,161,123923,1,2,0:0:0:0:
144,161,124130,37,0,3:1:0:0:
103,58,124544,2,0,L|45:50,1,50,8|2,0:1|0:0,0:0:0:0:
13,89,124957,1,2,0:0:0:0:
13,89,125164,2,0,L|34:206,1,100,2|2,0:0|0:0,0:0:0:0:
35,242,125785,5,2,0:0:0:0:
27,296,125992,1,0,0:0:0:0:
130,333,126406,2,0,L|122:387,2,50,2|2|0,0:0|0:0|3:1,0:0:0:0:
170,295,127026,1,8,0:1:0:0:
129,192,127440,6,0,B|77:124|282:-7|230:270|387:174,1,350,0|0,3:0|0:0,0:0:0:0:
432,145,129095,6,0,P|428:77|411:28,3,100,0|8|0|8,3:0|0:1|0:0|0:1,0:0:0:0:
311,25,130750,6,0,L|205:33,3,100,0|8|0|8,3:0|0:1|0:0|0:1,0:0:0:0:
101,42,132406,5,0,3:0:0:0:
118,150,132819,1,8,0:1:0:0:
20,117,133233,1,0,0:0:0:0:
9,226,133647,1,8,0:1:0:0:
98,289,134061,6,0,B|122:330|249:424|246:210|431:317,1,350,0|0,3:0|0:0,0:0:0:0:
408,363,135716,6,0,P|473:372|509:355,3,100,0|8|0|8,3:0|0:1|0:0|0:1,0:0:0:0:
496,249,137371,5,0,3:0:0:0:
458,150,137785,1,8,0:1:0:0:
458,150,137992,2,0,L|347:165,1,100,8|0,0:1|0:0,0:0:0:0:
309,174,138613,1,8,0:1:0:0:
309,174,138819,1,0,0:0:0:0:
