osu file format v14

[General]
AudioFilename: audio.mp3
AudioLeadIn: 0
PreviewTime: 44475
Countdown: 0
SampleSet: Soft
StackLeniency: 0.7
Mode: 0
LetterboxInBreaks: 0
WidescreenStoryboard: 1

[Editor]
Bookmarks: 6722,13343,19964,33205,46447,53067,66309,74585,87826,101067,114309,127550,134171,138929
DistanceSpacing: 1.1
BeatDivisor: 4
GridSize: 8
TimelineZoom: 1.2

[Metadata]
Title:Sick and Tired feat. Machine Gun Kelly & Travis Barker
TitleUnicode:Sick and Tired feat. Machine Gun Kelly & Travis Barker
Artist:iann dior
ArtistUnicode:iann dior
Creator:Mimari
Version:mimari & james' insane
Source:
Tags:english hip hop emo rap pop jamesjan3 i'm im gone ft. collab
BeatmapID:2577456
BeatmapSetID:1239705

[Difficulty]
HPDrainRate:5
CircleSize:4.4
OverallDifficulty:8
ApproachRate:8.8
SliderMultiplier:2
SliderTickRate:1

[Events]
//Background and Video events
0,0,"anime-girl-night-moon-digital-art-ar-1920x1080.jpg",0,0
//Break Periods
//Storyboard Layer 0 (Background)
//Storyboard Layer 1 (Fail)
//Storyboard Layer 2 (Pass)
//Storyboard Layer 3 (Foreground)
//Storyboard Layer 4 (Overlay)
//Storyboard Sound Samples

[TimingPoints]
6613,413.793103448276,4,2,0,40,1,0
6613,-133.333333333333,4,2,0,40,0,0
7440,-200,4,2,0,40,0,0
8268,-133.333333333333,4,2,0,40,0,0
8888,-200,4,2,0,40,0,0
9923,-133.333333333333,4,2,0,40,0,0
10750,-200,4,2,0,40,0,0
11578,-133.333333333333,4,2,0,40,0,0
11992,-200,4,2,0,40,0,0
13233,-133.333333333333,4,2,0,40,0,0
14061,-200,4,2,0,40,0,0
14888,-133.333333333333,4,2,0,40,0,0
15716,-200,4,2,0,40,0,0
16544,-133.333333333333,4,2,0,40,0,0
17371,-200,4,2,0,40,0,0
17992,-333.333333333333,4,2,0,40,0,0
19854,-100,4,2,0,50,0,0
28544,-66.6666666666667,4,2,0,50,0,0
29371,-100,4,2,0,50,0,0
33095,-166.666666666667,4,2,0,50,0,0
33509,-111.111111111111,4,2,0,50,0,0
44681,-111.111111111111,4,2,0,50,0,0
46337,-66.6666666666667,4,2,0,75,0,1
46750,-100,4,2,0,75,0,1
47992,-66.6666666666667,4,2,0,75,0,1
48406,-100,4,2,0,75,0,1
49647,-66.6666666666667,4,2,0,75,0,1
50061,-100,4,2,0,75,0,1
51302,-66.6666666666667,4,2,0,75,0,1
51716,-100,4,2,0,75,0,1
52544,-133.333333333333,4,2,0,75,0,0
52854,-133.333333333333,4,2,0,75,0,0
52957,-66.6666666666667,4,2,0,75,0,1
53371,-100,4,2,0,75,0,1
54613,-66.6666666666667,4,2,0,75,0,1
55026,-100,4,2,0,75,0,1
56268,-66.6666666666667,4,2,0,75,0,1
56681,-100,4,2,0,75,0,1
57923,-66.6666666666667,4,2,0,75,0,1
58337,-100,4,2,0,75,0,1
59164,-133.333333333333,4,2,0,75,0,0
59475,-133.333333333333,4,2,0,75,0,0
59578,-66.6666666666667,4,2,0,75,0,1
59992,-100,4,2,0,75,0,1
61233,-66.6666666666667,4,2,0,75,0,1
61647,-100,4,2,0,75,0,1
62888,-66.6666666666667,4,2,0,75,0,1
63302,-100,4,2,0,75,0,1
64544,-66.6666666666667,4,2,0,75,0,1
64957,-100,4,2,0,75,0,1
65785,-133.333333333333,4,2,0,75,0,0
66095,-133.333333333333,4,2,0,75,0,0
66199,-66.6666666666667,4,2,0,75,0,1
66613,-100,4,2,0,75,0,1
67854,-66.6666666666667,4,2,0,75,0,1
68268,-100,4,2,0,75,0,1
69509,-66.6666666666667,4,2,0,75,0,1
69923,-100,4,2,0,75,0,1
71164,-66.6666666666667,4,2,0,75,0,1
71578,-100,4,2,0,75,0,1
72406,-100,4,2,0,75,0,0
72819,-100,4,2,0,75,0,0
73233,-133.333333333333,4,2,0,75,0,0
73647,-133.333333333333,4,2,0,65,0,0
73699,-133.333333333333,4,2,0,5,0,0
73854,-66.6666666666667,4,2,0,65,0,0
73957,-133.333333333333,4,2,0,5,0,0
74061,-133.333333333333,4,2,0,65,0,0
74164,-133.333333333333,4,2,0,5,0,0
74268,-133.333333333333,4,2,0,65,0,0
74319,-133.333333333333,4,2,0,5,0,0
74475,-133.333333333333,4,2,0,45,0,0
87302,-200,4,2,0,45,0,0
87716,-100,4,2,0,55,0,0
100957,-66.6666666666667,4,2,0,75,0,1
101371,-100,4,2,0,75,0,1
102613,-66.6666666666667,4,2,0,75,0,1
103026,-100,4,2,0,75,0,1
104268,-66.6666666666667,4,2,0,75,0,1
104785,-100,4,2,0,75,0,1
105923,-66.6666666666667,4,2,0,75,0,1
106337,-100,4,2,0,75,0,1
107164,-133.333333333333,4,2,0,75,0,0
107475,-133.333333333333,4,2,0,75,0,0
107578,-66.6666666666667,4,2,0,75,0,1
107992,-100,4,2,0,75,0,1
109233,-66.6666666666667,4,2,0,75,0,1
109647,-100,4,2,0,75,0,1
110888,-66.6666666666667,4,2,0,75,0,1
111406,-100,4,2,0,75,0,1
112544,-66.6666666666667,4,2,0,75,0,1
112957,-100,4,2,0,75,0,1
113785,-133.333333333333,4,2,0,75,0,0
114095,-133.333333333333,4,2,0,75,0,0
114199,-66.6666666666667,4,2,0,75,0,1
114613,-100,4,2,0,75,0,1
115854,-66.6666666666667,4,2,0,75,0,1
116268,-100,4,2,0,75,0,1
117509,-66.6666666666667,4,2,0,75,0,1
117923,-100,4,2,0,75,0,1
119164,-66.6666666666667,4,2,0,75,0,1
119578,-100,4,2,0,75,0,1
120406,-133.333333333333,4,2,0,75,0,0
120716,-133.333333333333,4,2,0,75,0,0
120819,-66.6666666666667,4,2,0,75,0,1
121233,-100,4,2,0,75,0,1
122475,-66.6666666666667,4,2,0,75,0,1
122888,-100,4,2,0,75,0,1
124130,-66.6666666666667,4,2,0,75,0,1
124544,-100,4,2,0,75,0,1
125785,-66.6666666666667,4,2,0,75,0,1
126199,-100,4,2,0,75,0,1
127026,-133.333333333333,4,2,0,75,0,0
127337,-133.333333333333,4,2,0,75,0,0
127440,-200,4,2,0,35,0,0
137371,-200,4,2,0,35,0,0
138819,-200,4,2,0,35,0,0

[Colours]
Combo1 : 0,0,255
Combo2 : 198,180,203
Combo3 : 139,123,159
Combo4 : 13,173,242

[HitObjects]
169,19,6613,6,0,P|97:23|47:103,1,150.000005722046,2|0,0:0|0:0,0:0:0:0:
59,93,7233,1,0,0:0:0:0:
143,147,7440,2,0,L|138:85,2,50,0|0|0,0:0|0:0|0:0,0:0:0:0:
151,227,8061,1,0,0:0:0:0:
34,292,8268,6,0,P|73:286|159:363,1,150.000005722046,2|0,0:0|0:0,0:0:0:0:
148,361,8888,1,0,0:0:0:0:
278,316,9095,2,0,L|223:311,1,50,0|0,0:0|0:0,0:0:0:0:
340,380,9509,2,0,L|395:375,1,50,0|0,0:0|0:0,0:0:0:0:
512,310,9923,38,0,P|473:316|387:239,1,150.000005722046,2|0,0:0|0:0,0:0:0:0:
397,240,10544,1,0,0:0:0:0:
450,130,10750,2,0,L|457:194,2,50,0|0|0,0:0|0:0|0:0,0:0:0:0:
436,52,11371,1,0,0:0:0:0:
249,33,11578,6,0,P|288:27|359:73,1,112.500004291535,2|0,0:0|0:0,0:0:0:0:
350,60,11992,2,0,P|317:74|300:105,1,50,0|0,0:0|0:0,0:0:0:0:
234,163,12406,1,0,0:0:0:0:
308,184,12613,1,0,0:0:0:0:
253,238,12819,1,0,0:0:0:0:
37,40,13233,6,0,B|64:60|91:82|91:82|67:169,1,150.000005722046,2|0,0:0|0:0,0:0:0:0:
74,175,13854,1,0,0:0:0:0:
34,302,14061,2,0,L|29:244,2,50,0|0|0,0:0|0:0|0:0,0:0:0:0:
42,377,14681,1,0,0:0:0:0:
177,309,14888,6,0,B|265:270|265:270|287:288|326:316,1,150.000005722046,2|0,0:0|0:0,0:0:0:0:
302,318,15509,1,0,0:0:0:0:
228,236,15716,2,0,L|221:186,1,50,0|0,0:0|0:0,0:0:0:0:
284,86,16130,2,0,L|290:36,1,50,0|0,0:0|0:0,0:0:0:0:
438,167,16544,38,0,B|388:206|388:206|270:173,1,150.000005722046,2|0,0:0|0:0,0:0:0:0:
285,188,17164,1,0,0:0:0:0:
361,73,17371,2,0,L|373:140,2,50,0|0|0,0:0|0:0|0:0,0:0:0:0:
378,21,17992,6,0,L|369:88,1,59.9999981689454,0|0,0:0|0:0,0:0:0:0:
462,237,19854,6,0,P|398:233|326:293,1,150,0|0,3:0|0:0,0:0:0:0:
336,290,20268,2,0,P|379:303|413:360,1,100,2|0,0:0|0:0,0:0:0:0:
204,379,20681,5,8,0:0:0:0:
166,283,20888,1,2,0:0:0:0:
240,309,21095,1,2,0:0:0:0:
129,351,21302,1,2,0:0:0:0:
74,190,21509,38,0,L|232:200,1,150,2|0,0:0|0:0,0:0:0:0:
223,199,21923,2,0,P|250:148|246:94,1,100,0|0,3:0|0:0,0:0:0:0:
101,64,22337,5,8,0:0:0:0:
148,137,22544,1,2,0:0:0:0:
101,64,22750,2,0,P|148:45|216:61,1,100,2|0,0:0|0:0,0:0:0:0:
410,126,23164,38,0,L|356:121,1,50,0|0,3:0|0:0,0:0:0:0:
280,110,23371,1,0,3:0:0:0:
456,62,23578,1,2,0:0:0:0:
456,62,23681,1,2,0:0:0:0:
406,307,23992,5,8,0:0:0:0:
389,230,24199,1,2,0:0:0:0:
466,213,24406,1,2,0:0:0:0:
483,290,24613,1,2,0:0:0:0:
313,287,24819,38,0,P|293:249|291:179,1,100,2|0,0:0|0:0,0:0:0:0:
181,305,25233,2,0,P|218:337|265:354,1,100,0|0,3:0|0:0,0:0:0:0:
476,285,25647,5,8,0:0:0:0:
394,318,25854,1,2,0:0:0:0:
476,285,26061,2,0,P|485:236|458:127,1,150,2|0,0:0|0:0,0:0:0:0:
465,139,26475,38,0,P|391:141|335:109,1,100,0|0,3:0|0:0,0:0:0:0:
274,15,26888,1,2,0:0:0:0:
357,50,27095,1,0,0:0:0:0:
223,135,27302,5,8,0:0:0:0:
318,178,27509,1,2,0:0:0:0:
292,104,27716,1,2,0:0:0:0:
243,209,27923,1,2,0:0:0:0:
154,66,28130,38,0,L|144:223,1,150,2|0,0:0|0:0,0:0:0:0:
144,215,28544,6,0,B|123:54,1,150.000005722046,2|0,3:1|0:0,0:0:0:0:
2,0,28957,37,8,0:0:0:0:
43,70,29164,1,0,0:0:0:0:
172,1,29371,1,2,0:0:0:0:
124,66,29578,1,2,0:0:0:0:
7,176,29785,6,0,L|69:164,1,50,0|0,3:0|0:0,0:0:0:0:
175,135,29992,1,0,3:0:0:0:
11,180,30199,38,0,B|160:210,1,150,2|0,0:1|0:0,0:0:0:0:
158,209,30613,5,8,0:0:0:0:
145,290,30820,1,2,0:0:0:0:
222,307,31027,1,2,0:0:0:0:
239,230,31234,1,2,0:0:0:0:
364,367,31440,38,0,L|348:247,1,100,2|8,0:0|0:0,0:0:0:0:
448,121,31854,1,0,3:0:0:0:
417,201,32061,1,2,0:0:0:0:
226,136,32268,6,0,P|242:183|280:215,1,100,8|0,0:0|3:0,0:0:0:0:
403,38,32681,2,0,L|240:54,1,150,2|0,0:0|0:0,0:0:0:0:
254,53,33095,38,0,P|234:82|239:124,1,59.9999981689454,0|2,3:0|0:0,0:0:0:0:
255,279,33509,2,0,P|273:244|264:177,1,89.9999972534181,2|2,0:0|0:0,0:0:0:0:
154,78,33923,5,8,0:0:0:0:
79,95,34130,1,0,0:0:0:0:
96,172,34337,1,0,0:0:0:0:
171,155,34544,1,0,0:0:0:0:
11,43,34750,38,0,L|-2:142,2,89.9999972534181,2|8|0,0:0|0:0|3:0,0:0:0:0:
6,147,35371,1,2,0:0:0:0:
142,278,35578,6,0,P|101:237|8:225,1,134.999995880127,8|0,0:0|0:0,0:0:0:0:
27,221,35992,2,0,P|52:267|46:322,1,89.9999972534181,0|2,0:0|0:0,0:0:0:0:
127,384,36406,38,0,P|119:351|133:307,1,44.999998626709,0|0,3:0|0:0,0:0:0:0:
187,215,36613,2,0,L|287:235,2,89.9999972534181,0|2|2,3:0|0:0|0:0,0:0:0:0:
285,249,37233,1,8,0:0:0:0:
398,129,37440,6,0,L|258:150,1,134.999995880127,2|0,0:0|0:0,0:0:0:0:
264,149,37854,1,2,0:0:0:0:
307,48,38061,37,2,0:0:0:0:
248,0,38268,1,8,0:0:0:0:
385,57,38475,1,0,3:0:0:0:
462,28,38682,1,2,0:0:0:0:
239,82,38888,6,0,P|196:72|133:59,1,89.9999972534181,8|2,0:0|0:0,0:0:0:0:
211,235,39302,2,0,L|354:212,1,134.999995880127,2|0,0:0|0:0,0:0:0:0:
345,214,39716,38,0,P|365:252|366:314,1,89.9999972534181,0|2,3:0|0:0,0:0:0:0:
477,196,40130,2,0,P|440:164|394:149,1,89.9999972534181,2|2,0:0|0:0,0:0:0:0:
183,237,40544,5,8,0:0:0:0:
287,282,40751,1,0,0:0:0:0:
259,204,40958,1,2,0:0:0:0:
212,313,41165,1,2,0:0:0:0:
102,167,41371,37,2,0:0:0:0:
183,237,41578,2,0,L|121:227,1,44.999998626709,8|0,0:0|0:0,0:0:0:0:
11,264,41785,1,0,3:0:0:0:
42,335,41992,1,2,0:0:0:0:
102,167,42199,6,0,P|120:99|106:25,1,134.999995880127,8|0,0:0|0:0,0:0:0:0:
110,36,42613,2,0,P|147:53|202:41,1,89.9999972534181,0|2,0:0|0:0,0:0:0:0:
353,20,43026,38,0,L|296:12,1,44.999998626709,0|0,3:0|0:0,0:0:0:0:
197,124,43233,2,0,P|219:166|223:236,2,89.9999972534181,0|2|2,3:0|0:0|0:0,0:0:0:0:
235,227,43854,1,8,0:0:0:0:
450,193,44061,6,0,P|393:209|341:323,1,179.999994506836,2|2,0:0|0:0,0:0:0:0:
466,135,46337,38,0,B|362:106|380:244|264:199,1,225.000008583069,0|0,3:1|0:0,0:0:0:0:
222,146,46750,2,0,P|267:115|314:153,1,100,8|0,0:1|0:0,0:0:0:0:
172,283,47164,6,0,P|171:245|196:204,1,50,2|0,0:0|0:0,0:0:0:0:
322,287,47371,2,0,P|305:315|263:338,1,50,2|0,0:0|0:0,0:0:0:0:
213,350,47578,1,8,0:1:0:0:
268,200,47785,1,2,0:0:0:0:
17,147,47992,38,0,P|90:169|203:85,1,225.000008583069,2|0,0:0|0:0,0:0:0:0:
159,20,48406,2,0,P|130:45|129:76,1,50,8|0,0:1|0:0,0:0:0:0:
132,65,48613,1,2,0:0:0:0:
419,88,48819,6,0,L|355:77,1,50,2|0,0:0|0:0,0:0:0:0:
257,30,49026,2,0,L|321:19,1,50,2|0,0:0|0:0,0:0:0:0:
403,1,49233,1,8,0:1:0:0:
286,108,49440,1,2,0:0:0:0:
512,201,49647,38,0,B|475:142|362:202|421:322,1,225.000008583069,0|0,3:1|0:0,0:0:0:0:
484,357,50061,1,8,0:1:0:0:
493,351,50164,2,0,P|505:317|506:281,1,50,2|0,0:0|0:0,0:0:0:0:
268,205,50475,6,0,P|245:236|239:274,1,50,2|0,0:0|0:0,0:0:0:0:
255,375,50681,2,0,P|235:348|231:318,1,50,2|0,0:0|0:0,0:0:0:0:
154,275,50888,1,8,0:1:0:0:
318,301,51095,1,2,0:0:0:0:
229,34,51302,38,0,P|158:64|140:158,1,150.000005722046,2|0,0:0|0:0,0:0:0:0:
366,132,51716,2,0,P|339:114|305:107,1,50,8|0,0:1|0:0,0:0:0:0:
234,125,51923,1,2,0:0:0:0:
405,223,52130,5,2,0:0:0:0:
273,216,52337,2,0,P|300:234|334:241,1,50,0|0,3:1|0:0,0:0:0:0:
495,231,52544,2,0,P|468:298|434:314,1,112.500004291535,8|0,0:1|0:0,0:0:0:0:
362,341,52957,6,0,B|302:358|302:358|222:293|222:293|117:317,1,225.000008583069,0|0,3:1|0:0,0:0:0:0:
94,269,53371,2,0,B|74:319|74:319|103:359,1,100,8|0,0:1|0:0,0:0:0:0:
132,163,53785,6,0,L|71:180,1,50,2|0,0:0|0:0,0:0:0:0:
217,296,53992,2,0,L|278:313,1,50,2|0,0:0|0:0,0:0:0:0:
208,100,54199,1,8,0:1:0:0:
161,233,54406,1,2,0:0:0:0:
44,41,54613,38,0,B|94:-12|94:-12|261:40,1,225.000008583069,2|0,0:0|0:0,0:0:0:0:
322,115,55026,2,0,L|313:42,1,50,8|0,0:1|0:0,0:0:0:0:
316,54,55234,1,2,0:0:0:0:
423,235,55440,6,0,L|429:174,1,50,2|0,0:0|0:0,0:0:0:0:
316,54,55647,2,0,L|322:115,1,50,2|0,0:0|0:0,0:0:0:0:
342,210,55854,1,8,0:1:0:0:
408,56,56061,1,2,0:0:0:0:
448,328,56268,38,0,B|375:303|305:279|305:279|228:335,1,225.000008583069,0|0,3:1|0:0,0:0:0:0:
188,371,56681,1,8,0:1:0:0:
180,358,56785,2,0,B|166:331|166:331|181:286,1,50,2|0,0:0|0:0,0:0:0:0:
239,136,57095,6,0,B|227:159|227:159|232:211,1,50,2|0,0:0|0:0,0:0:0:0:
266,303,57302,2,0,B|242:283|242:283|239:235,1,50,2|0,0:0|0:0,0:0:0:0:
313,107,57508,1,8,0:1:0:0:
167,237,57715,1,2,0:0:0:0:
223,0,57923,38,0,B|276:10|276:10|302:30|302:30|394:15,1,150.000005722046,2|0,0:0|0:0,0:0:0:0:
496,145,58337,2,0,L|425:132,1,50,8|0,0:1|0:0,0:0:0:0:
313,107,58544,1,2,0:0:0:0:
456,223,58750,5,2,0:0:0:0:
223,273,58957,2,0,L|272:263,1,50,0|0,3:1|0:0,0:0:0:0:
456,223,59164,2,0,B|418:250|418:250|441:334,1,112.500004291535,8|0,0:1|0:0,0:0:0:0:
500,276,59578,6,0,B|397:239|419:412|283:346,1,225.000008583069,0|0,3:1|0:0,0:0:0:0:
271,263,59992,2,0,P|325:253|334:299,1,100,8|0,0:1|0:0,0:0:0:0:
164,181,60406,6,0,L|151:254,1,50,2|0,0:0|0:0,0:0:0:0:
229,384,60613,2,0,L|237:334,1,50,2|0,0:0|0:0,0:0:0:0:
167,170,60820,1,8,0:1:0:0:
139,339,61027,1,2,0:0:0:0:
314,165,61233,38,0,P|389:149|477:257,1,225.000008583069,2|0,0:0|0:0,0:0:0:0:
403,297,61647,2,0,P|394:270|405:218,1,50,8|0,0:1|0:0,0:0:0:0:
401,237,61854,1,2,0:0:0:0:
282,15,62061,5,2,0:0:0:0:
318,154,62268,2,0,P|327:127|316:75,1,50,2|0,0:0|0:0,0:0:0:0:
185,10,62475,2,0,P|176:37|187:89,1,50,8|0,0:1|0:0,0:0:0:0:
233,207,62681,1,2,0:0:0:0:
0,29,62888,38,0,B|98:57|7:191|130:203,1,225.000008583069,0|0,3:1|0:0,0:0:0:0:
47,256,63302,2,0,P|5:274|-9:288,1,50,8|0,0:1|0:0,0:0:0:0:
1,288,63509,1,2,0:0:0:0:
152,382,63716,6,0,P|155:352|164:305,1,50,2|0,0:0|0:0,0:0:0:0:
199,129,63923,2,0,P|202:158|211:206,1,50,2|0,0:0|0:0,0:0:0:0:
228,346,64130,1,8,0:1:0:0:
130,198,64337,1,2,0:0:0:0:
369,306,64544,38,0,P|326:261|240:258,1,150.000005722046,2|0,0:0|0:0,0:0:0:0:
57,145,64957,2,0,P|91:134|129:88,1,50,8|0,0:1|0:0,0:0:0:0:
153,38,65164,1,2,0:0:0:0:
274,245,65371,5,2,0:0:0:0:
191,113,65578,2,0,P|189:138|181:162,1,50,0|0,3:1|0:0,0:0:0:0:
68,345,65785,2,0,P|123:312|181:324,1,112.500004291535,8|0,0:1|0:0,0:0:0:0:
219,384,66199,6,0,B|255:338|255:338|238:232|238:232|289:182,1,225.000008583069,0|0,3:1|0:0,0:0:0:0:
293,118,66613,2,0,B|343:134|343:134|361:202,1,100,8|0,0:1|0:0,0:0:0:0:
298,371,67026,6,0,B|280:355|280:355|279:319,1,50,2|0,0:0|0:0,0:0:0:0:
425,268,67233,2,0,B|443:284|443:284|444:320,1,50,2|0,0:0|0:0,0:0:0:0:
364,320,67440,1,8,0:1:0:0:
512,252,67647,1,2,0:0:0:0:
445,64,67854,38,0,B|397:55|397:55|323:165|323:165|269:160,1,225.000008583069,2|0,0:0|0:0,0:0:0:0:
222,94,68268,2,0,L|290:87,1,50,8|0,0:1|0:0,0:0:0:0:
286,88,68475,1,2,0:0:0:0:
49,228,68681,6,0,L|43:164,1,50,2|0,0:0|0:0,0:0:0:0:
119,74,68888,2,0,L|114:123,1,50,2|0,0:0|0:0,0:0:0:0:
101,292,69095,1,8,0:1:0:0:
34,95,69302,1,2,0:0:0:0:
308,202,69509,38,0,B|237:180|237:180|174:238,1,150.000005722046,0|2,3:1|0:0,0:0:0:0:
267,357,69923,2,0,L|256:290,1,50,8|0,0:1|0:0,0:0:0:0:
256,293,70130,1,2,0:0:0:0:
444,323,70337,6,0,B|419:330|419:330|382:307,1,50,2|0,0:0|0:0,0:0:0:0:
448,145,70544,2,0,L|431:249,1,100,2|8,0:0|0:1,0:0:0:0:
483,71,70957,2,0,B|462:57|462:57|438:65,1,50,2|0,0:0|0:0,0:0:0:0:
163,125,71164,38,0,B|218:174|218:174|309:147,1,150.000005722046,2|0,0:0|0:0,0:0:0:0:
249,28,71578,2,0,L|238:93,1,50,8|0,0:1|0:0,0:0:0:0:
202,253,71785,1,2,0:0:0:0:
240,77,71992,5,2,0:0:0:0:
197,306,72199,2,0,L|208:241,1,50,0|0,3:1|0:0,0:0:0:0:
281,214,72406,2,0,B|225:164|225:164|134:191,1,150.000005722046,8|0,0:1|0:0,0:0:0:0:
79,213,72819,5,2,0:0:0:0:
89,220,72923,1,2,0:0:0:0:
95,232,73026,1,2,0:0:0:0:
93,248,73130,1,2,0:0:0:0:
84,257,73233,6,0,L|95:339,1,75.0000028610231,2|2,0:3|0:3,0:0:0:0:
174,242,73647,6,0,L|177:261,1,18.7500007152558,2|0,3:2|0:0,0:0:0:0:
255,304,73854,6,0,L|241:382,1,75.0000028610231,2|0,3:1|0:0,0:0:0:0:
343,247,74061,6,0,L|336:289,1,37.5000014305115,2|0,3:1|0:0,0:0:0:0:
415,316,74268,6,0,L|421:342,1,18.7500007152558,2|0,3:1|0:0,0:0:0:0:
495,268,74475,6,0,L|505:151,1,112.500004291535,0|0,3:0|0:0,0:0:0:0:
504,155,74888,2,0,B|465:171|465:171|426:148,1,75.0000028610231,8|8,0:0|0:0,0:0:0:0:
336,84,75302,5,2,0:0:0:0:
298,180,75509,1,2,0:0:0:0:
372,154,75716,1,8,0:0:0:0:
261,112,75923,1,2,0:0:0:0:
393,15,76130,38,0,B|341:-7|341:-7|259:27,1,112.500004291535,0|0,3:0|0:0,0:0:0:0:
289,14,76544,2,0,L|207:2,1,75.0000028610231,8|8,0:0|0:0,0:0:0:0:
146,95,76957,6,0,L|240:79,1,75.0000028610231,2|0,0:0|3:0,0:0:0:0:
239,94,77268,2,0,L|165:106,1,75.0000028610231
93,157,77578,2,0,L|25:145,1,37.5000014305115,2|0,0:0|0:0,0:0:0:0:
122,275,77785,37,0,3:0:0:0:
81,345,77992,1,2,0:0:0:0:
199,304,78199,2,0,B|225:321|225:321|214:381,1,75.0000028610231,8|8,0:0|0:0,0:0:0:0:
264,216,78613,6,0,L|181:225,2,75.0000028610231,2|2|8,0:0|0:0|0:0,0:0:0:0:
171,211,79233,1,2,0:0:0:0:
320,296,79440,2,0,L|393:308,1,75.0000028610231,0|2,3:0|0:0,0:0:0:0:
499,164,79854,37,8,0:0:0:0:
407,225,80061,1,8,0:0:0:0:
482,242,80268,1,2,0:0:0:0:
424,148,80475,1,0,3:0:0:0:
320,296,80681,6,0,B|309:262|309:262|322:215|322:215|305:169,1,112.500004291535,8|0,0:0|0:0,0:0:0:0:
312,188,81095,38,0,L|215:173,1,75.0000028610231,0|0,3:0|0:0,0:0:0:0:
337,17,81509,2,0,L|347:78,1,37.5000014305115,8|0,0:0|0:0,0:0:0:0:
355,124,81716,1,8,0:0:0:0:
173,43,81923,5,2,0:0:0:0:
248,26,82130,1,2,0:0:0:0:
265,104,82337,1,8,0:0:0:0:
190,121,82544,1,2,0:0:0:0:
16,11,82750,38,0,B|54:51|54:51|26:133,1,112.500004291535,0|0,3:0|0:0,0:0:0:0:
35,105,83164,2,0,L|115:88,1,75.0000028610231,8|8,0:0|0:0,0:0:0:0:
176,222,83578,5,2,0:0:0:0:
70,173,83785,2,0,L|129:194,1,37.5000014305115,0|0,3:0|0:0,0:0:0:0:
248,261,83992,2,0,L|353:246,1,75.0000028610231,8|2,0:0|0:0,0:0:0:0:
200,375,84406,38,0,L|112:357,1,75.0000028610231,0|2,3:0|0:0,0:0:0:0:
19,235,84819,2,0,L|30:302,1,37.5000014305115,8|0,0:0|0:0,0:0:0:0:
36,341,85026,1,8,0:0:0:0:
175,228,85233,6,0,L|189:137,2,75.0000028610231,2|2|8,0:0|0:0|0:0,0:0:0:0:
174,135,85854,1,2,0:0:0:0:
268,308,86061,38,0,B|309:314|309:314|373:270|373:270|432:282,1,150.000005722046,0|0,3:0|0:0,0:0:0:0:
403,277,87302,6,0,L|391:348,1,50,0|0,0:0|0:0,0:0:0:0:
190,369,87716,38,0,B|231:339|231:339|304:354,2,100,0|2|2,3:0|0:0|0:0,0:0:0:0:
288,359,88337,1,2,0:0:0:0:
155,189,88544,5,8,0:0:0:0:
175,264,88750,1,0,0:0:0:0:
232,172,88957,1,0,0:0:0:0:
252,248,89163,1,0,0:0:0:0:
71,242,89371,37,2,0:0:0:0:
71,242,89578,2,0,L|53:141,1,100,8|0,0:0|3:0,0:0:0:0:
246,52,89992,6,0,B|196:63|196:63|147:23,1,100,2|8,0:0|0:0,0:0:0:0:
118,105,90406,2,0,B|173:149|173:149|258:132,1,150,2|0,0:0|0:0,0:0:0:0:
251,133,90819,1,2,0:0:0:0:
426,13,91026,38,0,L|417:66,1,50,0|0,3:0|0:0,0:0:0:0:
385,216,91233,1,0,3:0:0:0:
356,145,91440,2,0,B|402:135|402:135|446:163,1,100,2|2,0:0|0:0,0:0:0:0:
482,359,91854,5,8,0:0:0:0:
356,310,92061,1,2,0:0:0:0:
509,289,92268,1,2,0:0:0:0:
404,371,92475,1,2,0:0:0:0:
413,174,92681,37,2,0:0:0:0:
413,174,92888,2,0,L|431:275,1,100,8|0,0:0|3:0,0:0:0:0:
230,216,93302,6,0,B|280:204|280:204|317:242,1,100,2|8,0:0|0:0,0:0:0:0:
291,321,93716,2,0,B|241:333|241:333|204:295,1,100,2|2,0:0|0:0,0:0:0:0:
34,9,94337,38,0,L|92:16,1,50,0|0,3:0|0:0,0:0:0:0:
184,72,94544,2,0,L|20:104,1,150,2|0,0:0|0:0,0:0:0:0:
37,101,94957,1,2,0:0:0:0:
99,270,95164,5,8,0:0:0:0:
50,208,95371,1,0,0:0:0:0:
115,163,95578,1,2,0:0:0:0:
164,225,95785,1,2,0:0:0:0:
91,350,95992,37,2,0:0:0:0:
91,350,96199,2,0,L|209:359,1,100,8|0,0:0|3:0,0:0:0:0:
345,280,96613,6,0,B|295:289|295:289|267:340,1,100,2|8,0:0|0:0,0:0:0:0:
212,289,97026,2,0,B|246:223|246:223|329:207,1,150,2|0,0:0|0:0,0:0:0:0:
320,208,97440,1,2,0:0:0:0:
428,384,97647,38,0,L|433:326,1,50,0|0,3:0|0:0,0:0:0:0:
456,174,97854,1,0,3:0:0:0:
490,247,98061,2,0,B|444:257|444:257|400:229,1,100,2|2,0:0|0:0,0:0:0:0:
268,64,98475,5,8,0:0:0:0:
409,94,98681,1,2,0:0:0:0:
343,43,98888,1,2,0:0:0:0:
243,134,99095,1,2,0:0:0:0:
46,55,100957,6,0,B|161:9|103:196|257:122,1,225.000008583069,0|0,3:1|0:0,0:0:0:0:
294,185,101371,2,0,P|316:121|278:83,1,100,8|0,0:1|0:0,0:0:0:0:
203,0,101785,6,0,P|188:23|189:51,1,50,2|0,0:0|0:0,0:0:0:0:
345,102,101992,2,0,P|360:79|359:51,1,50,2|0,0:0|0:0,0:0:0:0:
264,48,102199,1,8,0:1:0:0:
428,109,102406,1,2,0:0:0:0:
482,259,102613,38,0,P|364:261|311:349,1,225.000008583069,2|0,0:0|0:0,0:0:0:0:
378,365,103026,2,0,P|404:365|444:333,1,50,8|0,0:1|0:0,0:0:0:0:
431,341,103234,1,2,0:0:0:0:
336,196,103440,6,0,L|342:251,1,50,2|0,0:0|0:0,0:0:0:0:
243,378,103647,2,0,L|249:323,1,50,2|0,0:0|0:0,0:0:0:0:
264,171,103854,1,8,0:1:0:0:
322,317,104061,1,2,0:0:0:0:
231,104,104268,38,0,P|117:123|111:260,1,225.000008583069,0|0,3:1|0:0,0:0:0:0:
44,279,104681,1,8,0:1:0:0:
47,293,104785,2,0,P|59:320|64:379,1,50,2|0,0:0|0:0,0:0:0:0:
184,190,105095,6,0,P|172:217|167:276,1,50,2|0,0:0|0:0,0:0:0:0:
150,366,105302,2,0,P|143:341|133:319,1,50,2|0,0:0|0:0,0:0:0:0:
20,226,105509,1,8,0:1:0:0:
210,301,105716,1,2,0:0:0:0:
149,78,105923,38,0,P|59:87|1:166,1,150.000005722046,2|0,0:0|0:0,0:0:0:0:
261,179,106337,2,0,L|270:100,1,50,8|0,0:1|0:0,0:0:0:0:
285,31,106544,1,2,0:0:0:0:
257,200,106751,5,2,0:0:0:0:
408,177,106957,2,0,L|333:156,1,50,0|0,3:1|0:0,0:0:0:0:
185,299,107164,2,0,P|257:279|327:269,1,112.500004291535,8|0,0:1|0:0,0:0:0:0:
343,327,107578,6,0,B|389:343|389:343|470:240|470:240|540:269,1,225.000008583069,0|0,3:1|0:0,0:0:0:0:
500,328,107992,2,0,L|381:274,1,100,8|0,0:1|0:0,0:0:0:0:
289,156,108406,6,0,L|228:173,1,50,2|0,0:0|0:0,0:0:0:0:
427,170,108613,2,0,L|499:152,1,50,2|0,0:0|0:0,0:0:0:0:
263,237,108820,1,8,0:1:0:0:
368,112,109027,1,2,0:0:0:0:
400,316,109233,38,0,B|323:293|323:293|259:317|259:317|148:282,1,225.000008583069,2|0,0:0|0:0,0:0:0:0:
110,327,109647,2,0,L|101:254,1,50,8|0,0:1|0:0,0:0:0:0:
101,254,109855,1,2,0:0:0:0:
32,96,110061,6,0,B|17:119|17:119|26:146,1,50,2|0,0:0|0:0,0:0:0:0:
136,112,110268,2,0,B|143:133|143:133|128:156,1,50,2|0,0:0|0:0,0:0:0:0:
8,23,110475,1,8,0:1:0:0:
185,51,110682,1,2,0:0:0:0:
4,235,110889,38,0,B|77:210|147:186|147:186|224:242,1,225.000008583069,0|0,3:1|0:0,0:0:0:0:
234,300,111302,1,8,0:1:0:0:
229,309,111406,2,0,B|201:315|201:315|162:293,1,50,2|0,0:0|0:0,0:0:0:0:
307,131,111716,6,0,L|297:212,1,50,2|0,0:0|0:0,0:0:0:0:
353,353,111923,2,0,L|346:303,1,50,2|0,0:0|0:0,0:0:0:0:
385,169,112129,1,8,0:1:0:0:
206,229,112336,1,2,0:0:0:0:
445,232,112544,38,0,B|484:180|484:180|443:85,1,150.000005722046,2|0,0:0|0:0,0:0:0:0:
253,0,112957,2,0,B|237:25|237:25|254:76,1,50,8|0,0:1|0:0,0:0:0:0:
339,44,113165,1,2,0:0:0:0:
160,173,113371,5,2,0:0:0:0:
309,151,113578,2,0,B|315:131|315:131|299:106,1,50,0|0,3:1|0:0,0:0:0:0:
135,32,113785,2,0,B|102:39|102:39|74:72|74:72|16:85,1,112.500004291535,8|0,0:1|0:0,0:0:0:0:
31,5,114199,6,0,B|133:79|8:138|88:214,1,225.000008583069,0|0,3:1|0:0,0:0:0:0:
3,216,114613,2,0,P|11:169|64:137,1,100,8|0,0:1|0:0,0:0:0:0:
250,272,115026,6,0,P|229:287|196:285,1,50,2|0,0:0|0:0,0:0:0:0:
232,163,115233,2,0,P|255:173|270:203,1,50,2|0,0:0|0:0,0:0:0:0:
284,355,115440,1,8,0:1:0:0:
161,213,115647,1,2,0:0:0:0:
370,69,115854,38,0,B|452:58|444:205|348:224,1,225.000008583069,2|0,0:0|0:0,0:0:0:0:
293,172,116268,2,0,P|316:149|353:144,1,50,8|0,0:1|0:0,0:0:0:0:
342,148,116475,1,2,0:0:0:0:
457,318,116681,6,0,L|403:309,1,50,2|0,0:0|0:0,0:0:0:0:
286,353,116888,2,0,L|327:324,1,50,2|0,0:0|0:0,0:0:0:0:
450,239,117095,1,8,0:1:0:0:
262,276,117302,1,2,0:0:0:0:
263,48,117509,38,0,P|165:70|138:185,1,225.000008583069,0|0,3:1|0:0,0:0:0:0:
207,212,117923,2,0,P|220:182|215:155,1,50,8|0,0:1|0:0,0:0:0:0:
207,157,118130,1,2,0:0:0:0:
28,291,118337,6,0,P|14:327|22:360,1,50,2|0,0:0|0:0,0:0:0:0:
168,310,118544,2,0,P|151:275|122:257,1,50,2|0,0:0|0:0,0:0:0:0:
58,171,118750,1,8,0:1:0:0:
95,338,118957,1,2,0:0:0:0:
299,131,119164,38,0,B|229:112|243:198|155:177,1,150.000005722046,2|0,0:0|0:0,0:0:0:0:
338,68,119578,2,0,P|367:101|370:119,1,50,8|0,0:1|0:0,0:0:0:0:
316,280,119785,1,2,0:0:0:0:
302,134,119992,5,2,0:0:0:0:
241,293,120199,2,0,P|247:249|259:235,1,50,0|0,3:1|0:0,0:0:0:0:
302,134,120406,2,0,B|363:120|343:183|412:175,1,112.500004291535,8|0,0:1|0:0,0:0:0:0:
410,96,120819,6,0,B|362:145|362:145|402:318,1,225.000008583069,0|0,3:1|0:0,0:0:0:0:
370,367,121233,2,0,B|419:379|419:379|460:340,1,100,8|0,0:1|0:0,0:0:0:0:
299,176,121647,6,0,L|261:223,1,50,2|0,0:0|0:0,0:0:0:0:
254,334,121854,2,0,L|240:275,1,50,2|0,0:0|0:0,0:0:0:0:
229,140,122061,1,8,0:1:0:0:
175,327,122268,1,2,0:0:0:0:
8,180,122475,38,0,B|66:167|66:167|142:243|142:243|200:227,1,225.000008583069,2|0,0:0|0:0,0:0:0:0:
229,140,122888,2,0,L|181:156,1,50,8|0,0:1|0:0,0:0:0:0:
166,163,123095,1,2,0:0:0:0:
69,9,123302,6,0,B|96:10|96:10|120:40,1,50,2|0,0:0|0:0,0:0:0:0:
44,160,123509,2,0,B|17:159|17:159|-7:129,1,50,2|0,0:0|0:0,0:0:0:0:
56,87,123716,1,8,0:1:0:0:
217,155,123923,1,2,0:0:0:0:
91,337,124130,38,0,B|151:294|151:294|239:307,1,150.000005722046,0|2,3:1|0:0,0:0:0:0:
365,363,124544,2,0,B|336:375|336:375|302:365,1,50,8|0,0:1|0:0,0:0:0:0:
304,364,124750,1,2,0:0:0:0:
512,199,124957,6,0,B|517:225|517:225|499:252,1,50,2|0,0:0|0:0,0:0:0:0:
342,196,125164,2,0,L|445:210,1,100,2|8,0:0|0:1,0:0:0:0:
269,208,125578,2,0,B|263:181|263:181|281:154,1,50,2|0,0:0|0:0,0:0:0:0:
420,20,125785,38,0,L|254:42,1,150.000005722046,2|0,0:0|0:0,0:0:0:0:
93,96,126199,2,0,B|78:118|78:118|84:150,1,50,8|0,0:1|0:0,0:0:0:0:
181,82,126406,1,2,0:0:0:0:
0,64,126613,5,2,0:0:0:0:
181,82,126819,2,0,B|196:104|196:104|190:136,1,50,0|0,3:1|0:0,0:0:0:0:
159,306,127026,2,0,L|144:194,1,112.500004291535,8|0,0:1|0:0,0:0:0:0:
144,194,127440,6,0,L|208:208,1,50,0|0,3:0|0:0,0:0:0:0:
241,259,127854,2,0,L|305:273,1,50,8|8,0:1|0:1,0:0:0:0:
354,318,128268,5,0,0:0:0:0:
383,313,128475,1,0,0:0:0:0:
438,263,128681,1,8,0:1:0:0:
467,268,128888,1,0,0:0:0:0:
512,200,129095,6,0,L|501:136,1,50,0|0,3:0|0:0,0:0:0:0:
431,101,129509,2,0,L|444:6,1,75,8|0,0:1|0:0,0:0:0:0:
441,26,129923,6,0,L|382:37,1,50,0|0,0:0|3:0,0:0:0:0:
334,96,130337,2,0,L|253:82,1,75,8|0,0:1|0:0,0:0:0:0:
260,83,130750,6,0,L|272:141,1,50,0|0,3:0|0:0,0:0:0:0:
324,181,131164,2,0,L|335:238,1,50,8|8,0:1|0:1,0:0:0:0:
291,296,131578,5,0,0:0:0:0:
262,291,131785,1,0,0:0:0:0:
207,241,131991,1,8,0:1:0:0:
178,246,132198,1,0,0:0:0:0:
114,286,132406,6,0,L|102:350,1,50,0|0,3:0|0:0,0:0:0:0:
35,295,132819,2,0,L|21:197,1,75,8|0,0:1|0:0,0:0:0:0:
24,220,133233,6,0,L|36:153,1,50,0|0,0:0|3:0,0:0:0:0:
89,120,133647,2,0,L|73:41,1,75,8|0,0:1|0:0,0:0:0:0:
74,46,134061,6,0,L|138:57,1,50,0|0,3:0|0:0,0:0:0:0:
178,108,134475,2,0,L|241:118,1,50,8|8,0:1|0:1,0:0:0:0:
303,86,134888,5,0,0:0:0:0:
293,55,135095,1,0,0:0:0:0:
376,16,135302,1,8,0:1:0:0:
366,47,135509,1,0,0:0:0:0:
423,116,135716,6,0,L|483:104,1,50,0|0,3:0|0:0,0:0:0:0:
451,195,136130,2,0,L|363:182,1,75,8|0,0:1|0:0,0:0:0:0:
376,184,136544,6,0,L|387:243,1,50,0|0,3:0|3:0,0:0:0:0:
292,285,136957,2,0,L|302:210,1,75,8|0,0:1|0:0,0:0:0:0:
302,210,137371,6,0,L|294:148,1,50,0|0,3:0|0:0,0:0:0:0:
336,98,137785,2,0,L|328:36,1,50,8|8,0:1|0:1,0:0:0:0:
247,6,138199,2,0,L|187:16,2,50,0|0|8,0:0|0:0|0:1,0:0:0:0:
265,13,138819,1,0,0:0:0:0:
