osu file format v14

[General]
AudioFilename: audio.mp3
AudioLeadIn: 0
PreviewTime: 44475
Countdown: 0
SampleSet: Soft
StackLeniency: 0.7
Mode: 0
LetterboxInBreaks: 0
WidescreenStoryboard: 1

[Editor]
Bookmarks: 6722,19964,33205,46447,74585,87826,101067,127550,138723
DistanceSpacing: 1
BeatDivisor: 4
GridSize: 4
TimelineZoom: 1

[Metadata]
Title:Sick and Tired feat. Machine Gun Kelly & Travis Barker
TitleUnicode:Sick and Tired feat. Machine Gun Kelly & Travis Barker
Artist:iann dior
ArtistUnicode:iann dior
Creator:Mimari
Version:mimari & james' hard
Source:
Tags:english hip hop emo rap pop jamesjan3 i'm im gone ft. collab
BeatmapID:2577455
BeatmapSetID:1239705

[Difficulty]
HPDrainRate:4
CircleSize:4
OverallDifficulty:6
ApproachRate:7.8
SliderMultiplier:2
SliderTickRate:1

[Events]
//Background and Video events
0,0,"anime-girl-night-moon-digital-art-ar-1920x1080.jpg",0,0
//Break Periods
//Storyboard Layer 0 (Background)
//Storyboard Layer 1 (Fail)
//Storyboard Layer 2 (Pass)
//Storyboard Layer 3 (Foreground)
//Storyboard Layer 4 (Overlay)
//Storyboard Sound Samples

[TimingPoints]
6613,413.793103448276,4,2,0,40,1,0
6613,-200,4,2,0,40,0,0
19854,-142.857142857143,4,2,0,50,0,0
33095,-111.111111111111,4,2,0,50,0,0
44681,-111.111111111111,4,2,0,50,0,0
46337,-100,4,2,0,75,0,1
52544,-133.333333333333,4,2,0,75,0,0
52854,-133.333333333333,4,2,0,75,0,0
52957,-100,4,2,0,75,0,1
59164,-133.333333333333,4,2,0,75,0,0
59475,-133.333333333333,4,2,0,75,0,0
59578,-100,4,2,0,75,0,1
65785,-133.333333333333,4,2,0,75,0,0
66095,-133.333333333333,4,2,0,75,0,0
66199,-100,4,2,0,75,0,1
72406,-133.333333333333,4,2,0,75,0,0
72819,-133.333333333333,4,2,0,75,0,0
73647,-133.333333333333,4,2,0,65,0,0
74061,-133.333333333333,4,2,0,60,0,0
74475,-133.333333333333,4,2,0,45,0,0
87302,-200,4,2,0,45,0,0
87716,-133.333333333333,4,2,0,55,0,0
100957,-100,4,2,0,75,0,1
107164,-133.333333333333,4,2,0,75,0,0
107475,-133.333333333333,4,2,0,75,0,0
107578,-100,4,2,0,75,0,1
113785,-133.333333333333,4,2,0,75,0,0
114095,-133.333333333333,4,2,0,75,0,0
114199,-100,4,2,0,75,0,1
120406,-133.333333333333,4,2,0,75,0,0
120716,-133.333333333333,4,2,0,75,0,0
120819,-100,4,2,0,75,0,1
127337,-100,4,2,0,75,0,1
127440,-166.666666666667,4,2,0,35,0,0
137371,-166.666666666667,4,2,0,35,0,0
138819,-166.666666666667,4,2,0,35,0,0

[Colours]
Combo1 : 0,0,255
Combo2 : 198,180,203
Combo3 : 139,123,159
Combo4 : 13,173,242

[HitObjects]
44,0,6613,6,0,P|101:5|139:40,1,100,2|0,0:0|0:0,0:0:0:0:
77,139,7440,2,0,L|73:85,1,50,0|0,0:0|0:0,0:0:0:0:
174,101,7854,2,0,L|160:150,1,50,0|0,0:0|0:0,0:0:0:0:
84,246,8268,6,0,L|198:254,1,100,2|0,0:0|0:0,0:0:0:0:
247,306,8888,1,0,0:0:0:0:
247,306,9095,2,0,P|276:297|291:278,1,50,0|0,0:0|0:0,0:0:0:0:
360,240,9509,2,0,P|389:249|404:268,1,50,0|0,0:0|0:0,0:0:0:0:
484,220,9923,38,0,L|472:116,1,100,2|0,0:0|0:0,0:0:0:0:
389,84,10544,1,0,0:0:0:0:
389,84,10750,2,0,L|379:144,2,50,0|0|0,0:0|0:0|0:0,0:0:0:0:
405,2,11371,1,0,0:0:0:0:
302,91,11578,6,0,P|270:88|216:41,1,100,2|0,0:0|0:0,0:0:0:0:
138,22,12199,1,0,0:0:0:0:
138,22,12406,2,0,L|129:73,1,50,0|0,0:0|0:0,0:0:0:0:
111,150,12819,1,0,0:0:0:0:
75,313,13233,6,0,B|117:289|117:289|182:302,1,100,2|0,0:0|0:0,0:0:0:0:
281,361,14061,2,0,L|224:354,1,50,0|0,0:0|0:0,0:0:0:0:
247,275,14475,2,0,L|296:268,1,50,0|0,0:0|0:0,0:0:0:0:
341,174,14888,6,0,B|366:201|366:201|438:198,1,100,2|0,0:0|0:0,0:0:0:0:
498,139,15509,1,0,0:0:0:0:
498,139,15716,2,0,L|505:88,2,50,0|0|0,0:0|0:0|0:0,0:0:0:0:
481,221,16337,1,0,0:0:0:0:
413,136,16544,38,0,B|369:157|369:157|316:141,1,100,2|0,0:0|0:0,0:0:0:0:
279,70,17164,1,0,0:0:0:0:
279,70,17371,2,0,L|338:63,1,50,0|0,0:0|0:0,0:0:0:0:
393,8,17785,1,0,0:0:0:0:
410,20,17992,1,0,0:0:0:0:
491,306,19854,22,0,P|426:276|348:289,1,139.999995727539,0|2,3:0|0:0,0:0:0:0:
300,340,20475,1,0,0:0:0:0:
224,300,20681,1,8,0:0:0:0:
224,300,20888,1,2,0:0:0:0:
140,346,21095,2,0,P|103:335|46:329,1,69.9999978637696,2|2,0:0|0:0,0:0:0:0:
24,226,21509,6,0,B|101:200|69:291|172:254,1,139.999995727539,2|0,0:0|3:0,0:0:0:0:
214,204,22130,1,0,0:0:0:0:
300,229,22337,2,0,P|327:255|339:300,1,69.9999978637696,8|2,0:0|0:0,0:0:0:0:
411,238,22750,2,0,P|427:203|421:157,1,69.9999978637696,2|0,0:0|0:0,0:0:0:0:
380,88,23164,37,0,3:0:0:0:
296,135,23371,1,0,3:0:0:0:
228,69,23578,2,0,L|216:-16,1,69.9999978637696,2|0,0:0|0:0,0:0:0:0:
118,47,23992,2,0,L|42:73,2,69.9999978637696,8|2|2,0:0|0:0|0:0,0:0:0:0:
160,115,24613,1,2,0:0:0:0:
112,184,24819,6,0,P|98:217|97:270,1,69.9999978637696,2|0,0:0|0:0,0:0:0:0:
75,334,25233,2,0,L|164:320,1,69.9999978637696,0|0,3:0|0:0,0:0:0:0:
214,364,25647,2,0,L|303:378,1,69.9999978637696,8|2,0:0|0:0,0:0:0:0:
390,348,26061,2,0,P|407:298|385:231,1,104.999996795654,2|0,0:0|0:0,0:0:0:0:
396,248,26475,38,0,P|363:258|255:215,1,139.999995727539,0|2,3:0|0:0,0:0:0:0:
227,145,27095,1,0,0:0:0:0:
270,73,27302,1,8,0:0:0:0:
270,73,27509,1,2,0:0:0:0:
197,10,27716,2,0,L|107:30,1,69.9999978637696,2|2,0:0|0:0,0:0:0:0:
34,47,28130,6,0,P|25:82|31:124,1,69.9999978637696,2|8,0:0|0:0,0:0:0:0:
83,168,28544,2,0,P|94:211|71:300,1,104.999996795654,2|0,3:1|0:0,0:0:0:0:
84,275,28957,2,0,L|164:257,2,69.9999978637696,8|0|2,0:0|0:0|0:0,0:0:0:0:
29,339,29578,1,2,0:0:0:0:
108,365,29785,38,0,L|180:381,1,69.9999978637696,0|0,3:0|3:0,0:0:0:0:
249,333,30199,2,0,P|302:320|375:310,1,104.999996795654,2|0,0:1|0:0,0:0:0:0:
351,312,30613,2,0,L|339:383,2,69.9999978637696,8|2|2,0:0|0:0|0:0,0:0:0:0:
403,244,31233,1,2,0:0:0:0:
330,187,31440,6,0,L|320:96,1,69.9999978637696,2|8,0:0|0:0,0:0:0:0:
253,51,31854,2,0,P|217:45|166:32,2,69.9999978637696,0|2|8,3:0|0:0|0:0,0:0:0:0:
325,7,32475,1,0,3:0:0:0:
415,30,32681,2,0,P|440:68|441:141,1,104.999996795654,2|0,0:0|0:0,0:0:0:0:
445,126,33095,38,0,P|410:127|344:162,2,89.9999972534181,0|2|2,3:0|0:0|0:0,0:0:0:0:
485,199,33716,2,0,P|438:248|407:367,1,179.999994506836,2|0,0:0|0:0,0:0:0:0:
321,374,34337,1,0,0:0:0:0:
251,318,34544,1,0,0:0:0:0:
251,318,34750,6,0,P|295:287|342:293,2,89.9999972534181,2|8|0,0:0|0:0|3:0,0:0:0:0:
166,363,35371,2,0,P|172:308|91:216,1,179.999994506836,2|0,0:0|0:0,0:0:0:0:
17,242,35992,1,0,0:0:0:0:
78,21,36406,37,0,3:0:0:0:
78,21,36613,2,0,P|104:63|103:111,1,89.9999972534181,0|2,3:0|0:0,0:0:0:0:
21,124,37026,2,0,P|89:132|146:197,1,134.999995880127,2|0,0:0|0:0,0:0:0:0:
136,176,37440,1,2,0:0:0:0:
222,6,37854,1,2,0:0:0:0:
217,92,38061,6,0,P|258:86|299:42,1,89.9999972534181,2|8,0:0|0:0,0:0:0:0:
405,15,38475,2,0,P|375:53|375:101,1,89.9999972534181,0|2,3:0|0:0,0:0:0:0:
430,164,38888,1,8,0:0:0:0:
449,80,39095,1,2,0:0:0:0:
436,170,39302,2,0,L|426:274,1,89.9999972534181,2|0,0:0|0:0,0:0:0:0:
426,363,39716,38,0,P|488:346|510:316,2,89.9999972534181,0|2|2,3:0|0:0|0:0,0:0:0:0:
334,380,40337,2,0,P|300:345|298:214,1,179.999994506836,2|0,0:0|0:0,0:0:0:0:
375,179,40957,1,2,0:0:0:0:
375,179,41164,1,2,0:0:0:0:
258,141,41371,6,0,P|213:162|154:247,1,134.999995880127,2|0,0:0|0:0,0:0:0:0:
160,227,41785,1,0,3:0:0:0:
119,308,41992,2,0,P|85:273|83:142,1,179.999994506836,2|0,0:0|0:0,0:0:0:0:
145,99,42613,1,0,0:0:0:0:
339,1,43026,37,0,3:0:0:0:
389,67,43233,1,0,3:0:0:0:
389,67,43440,1,2,0:0:0:0:
466,9,43647,2,0,L|472:195,2,179.999994506836,2|2|2,0:0|0:0|0:0,0:0:0:0:
448,40,46337,6,0,P|396:23|321:39,1,100,0|0,3:1|0:0,0:0:0:0:
300,158,46750,2,0,P|333:121|378:100,1,100,8|0,0:1|0:0,0:0:0:0:
510,196,47164,37,2,0:0:0:0:
436,154,47371,1,2,0:0:0:0:
498,204,47578,1,8,0:1:0:0:
437,255,47785,1,2,0:0:0:0:
502,348,47992,6,0,B|411:322|448:408|325:365,1,150,2|0,0:0|0:0,0:0:0:0:
361,375,48406,2,0,P|347:327|355:273,1,100,8|2,0:1|0:0,0:0:0:0:
252,303,48819,2,0,P|256:253|284:206,2,100,2|2|8,0:0|0:0|0:1,0:0:0:0:
275,382,49440,1,2,0:0:0:0:
172,274,49647,38,0,P|102:281|70:368,1,150,0|0,3:1|0:0,0:0:0:0:
66,345,50061,1,8,0:1:0:0:
66,345,50164,1,2,0:0:0:0:
31,197,50475,5,2,0:0:0:0:
107,146,50681,2,0,P|63:120|15:114,1,100,2|8,0:0|0:1,0:0:0:0:
100,48,51095,1,2,0:0:0:0:
190,98,51302,38,0,P|239:91|281:65,1,100,2|0,0:0|0:0,0:0:0:0:
320,162,51716,2,0,P|277:135|228:128,1,100,8|2,0:1|0:0,0:0:0:0:
246,249,52130,1,2,0:0:0:0:
166,208,52337,1,0,3:1:0:0:
246,280,52544,6,0,P|189:230|142:223,1,112.500004291535,8|0,0:1|0:0,0:0:0:0:
154,222,52957,6,0,B|135:273|135:273|151:326,1,100,0|0,3:1|0:0,0:0:0:0:
312,319,53371,2,0,B|325:274|325:274|305:224,1,100,8|0,0:1|0:0,0:0:0:0:
220,94,53785,5,2,0:0:0:0:
242,179,53992,1,2,0:0:0:0:
234,105,54199,1,8,0:1:0:0:
269,17,54406,1,2,0:0:0:0:
362,90,54613,38,0,B|405:117|405:117|510:80,1,150,2|0,0:0|0:0,0:0:0:0:
498,84,55026,2,0,L|484:204,1,100,8|2,0:1|0:0,0:0:0:0:
401,274,55440,2,0,L|414:394,2,100,2|2|8,0:0|0:0|0:1,0:0:0:0:
410,197,56061,1,2,0:0:0:0:
307,312,56268,6,0,L|331:153,1,150,0|0,3:1|0:0,0:0:0:0:
329,163,56681,1,8,0:1:0:0:
329,163,56785,1,2,0:0:0:0:
211,47,57095,37,2,0:0:0:0:
133,81,57302,2,0,B|81:87|81:87|18:61,1,100,2|8,0:0|0:1,0:0:0:0:
93,3,57716,1,2,0:0:0:0:
63,162,57923,6,0,B|115:156|115:156|178:182,1,100,2|0,0:0|0:0,0:0:0:0:
240,256,58337,2,0,B|188:250|188:250|125:276,1,100,8|2,0:1|0:0,0:0:0:0:
40,360,58750,1,2,0:0:0:0:
119,351,58957,1,0,3:1:0:0:
20,348,59164,38,0,B|12:311|12:311|17:280|17:280|10:235,1,112.500004291535,8|0,0:1|0:0,0:0:0:0:
10,237,59578,22,0,P|62:220|137:236,1,100,0|0,3:1|0:0,0:0:0:0:
100,103,59992,2,0,P|145:123|178:161,1,100,8|0,0:1|0:0,0:0:0:0:
193,323,60406,5,2,0:0:0:0:
118,302,60613,1,2,0:0:0:0:
187,336,60819,1,8,0:1:0:0:
275,298,61026,1,2,0:0:0:0:
394,350,61233,38,0,P|436:309|416:212,1,150,2|0,0:0|0:0,0:0:0:0:
426,223,61647,2,0,P|381:240|324:246,1,100,8|2,0:1|0:0,0:0:0:0:
453,143,62061,2,0,P|403:137|356:120,2,100,2|2|8,0:0|0:0|0:1,0:0:0:0:
461,69,62681,1,2,0:0:0:0:
348,110,62888,6,0,B|265:102|308:171|201:164,1,150,0|0,3:1|0:0,0:0:0:0:
216,164,63302,2,0,P|278:180|340:212,1,100,8|2,0:1|0:0,0:0:0:0:
353,299,63716,1,2,0:0:0:0:
245,277,63923,2,0,P|197:288|151:308,1,100,2|8,0:0|0:1,0:0:0:0:
106,381,64336,1,2,0:0:0:0:
101,253,64543,38,0,P|52:246|10:220,1,100,2|0,0:0|0:0,0:0:0:0:
172,135,64957,2,0,P|122:143|81:170,1,100,8|2,0:1|0:0,0:0:0:0:
257,172,65371,1,2,0:0:0:0:
335,142,65578,1,0,3:1:0:0:
243,183,65785,2,0,P|236:245|232:328,1,112.500004291535,8|0,0:1|0:0,0:0:0:0:
232,294,66199,22,0,B|281:308|281:308|338:267,1,100,0|0,3:1|0:0,0:0:0:0:
377,344,66613,2,0,B|416:311|416:311|415:241,1,100,8|0,0:1|0:0,0:0:0:0:
340,141,67027,5,2,0:0:0:0:
364,214,67234,1,2,0:0:0:0:
323,150,67441,1,8,0:1:0:0:
340,55,67648,1,2,0:0:0:0:
245,28,67854,38,0,B|192:21|192:21|157:30|157:30|87:17,1,150,2|0,0:0|0:0,0:0:0:0:
97,18,68268,2,0,L|118:140,1,100,8|2,0:1|0:0,0:0:0:0:
121,211,68681,2,0,B|81:203|81:203|58:206|58:206|0:189,2,100,2|2|8,0:0|0:0|0:1,0:0:0:0:
203,185,69303,1,2,0:0:0:0:
95,288,69509,6,0,B|141:293|141:293|193:271|193:271|246:282,1,150,0|0,3:1|0:0,0:0:0:0:
239,280,69923,2,0,L|342:307,1,100,8|2,0:1|0:0,0:0:0:0:
424,214,70337,1,2,0:0:0:0:
312,225,70544,2,0,L|414:198,1,100,2|8,0:0|0:1,0:0:0:0:
460,98,70958,1,2,0:0:0:0:
392,37,71164,38,0,B|367:81|367:81|381:140,1,100,2|0,0:0|0:0,0:0:0:0:
269,1,71578,2,0,B|293:45|293:45|280:104,1,100,8|2,0:1|0:0,0:0:0:0:
172,157,71992,1,2,0:0:0:0:
88,128,72199,1,0,3:1:0:0:
184,177,72406,6,0,B|192:222|192:222|188:249|188:249|198:272|198:272|205:331,1,150.000005722046,8|2,0:1|0:0,0:0:0:0:
299,128,73233,6,0,B|291:173|291:173|295:200|295:200|285:223|285:223|278:282,1,150.000005722046,2|2,0:3|3:2,0:0:0:0:
351,308,73854,2,0,L|362:395,1,75.0000028610231,2|2,3:1|3:1,0:0:0:0:
268,363,74268,1,2,3:1:0:0:
278,274,74475,38,0,B|321:219|321:219|414:247,1,150.000005722046,0|8,3:0|0:0,0:0:0:0:
417,346,75095,1,8,0:0:0:0:
501,296,75302,2,0,L|509:212,1,75.0000028610231,2|2,0:0|0:0,0:0:0:0:
397,242,75716,2,0,L|383:168,1,75.0000028610231,8|2,0:0|0:0,0:0:0:0:
497,35,76130,38,0,B|445:87|445:87|351:68,1,150.000005722046,0|8,3:0|0:0,0:0:0:0:
295,22,76750,1,8,0:0:0:0:
233,86,76957,2,0,L|251:206,2,112.500004291535,2|0|2,0:0|0:0|0:0,0:0:0:0:
152,32,77785,5,0,3:0:0:0:
77,89,77992,1,2,0:0:0:0:
77,89,78199,2,0,B|112:106|112:106|126:151,1,75.0000028610231,8|8,0:0|0:0,0:0:0:0:
41,240,78613,2,0,L|47:158,2,75.0000028610231,2|2|8,0:0|0:0|0:0,0:0:0:0:
31,327,79233,1,2,0:0:0:0:
124,260,79440,38,0,L|218:287,1,75.0000028610231,0|2,3:0|0:0,0:0:0:0:
242,374,79854,1,8,0:0:0:0:
149,362,80061,1,8,0:0:0:0:
246,355,80268,1,2,0:0:0:0:
304,286,80475,1,0,3:0:0:0:
381,337,80681,1,8,0:0:0:0:
489,109,81095,6,0,L|465:224,1,112.500004291535,0|0,3:0|0:0,0:0:0:0:
456,229,81509,2,0,B|386:221|386:221|337:132,1,150.000005722046,8|2,0:0|0:0,0:0:0:0:
336,61,82130,1,2,0:0:0:0:
428,97,82337,1,8,0:0:0:0:
355,47,82544,1,2,0:0:0:0:
242,58,82750,38,0,L|250:213,1,150.000005722046,0|8,3:0|0:0,0:0:0:0:
189,290,83371,1,8,0:0:0:0:
110,250,83578,2,0,B|128:215|128:215|170:206,2,75.0000028610231,2|0|8,0:0|3:0|0:0,0:0:0:0:
77,331,84199,1,2,0:0:0:0:
37,203,84406,6,0,B|44:148|44:148|25:112|25:112|35:32,1,150.000005722046,0|8,3:0|0:0,0:0:0:0:
110,21,85026,1,8,0:0:0:0:
165,93,85233,2,0,L|245:83,1,75.0000028610231,2|2,0:0|0:0,0:0:0:0:
326,18,85647,1,8,0:0:0:0:
395,63,85854,1,2,0:0:0:0:
315,32,86061,37,0,3:0:0:0:
315,32,87302,6,0,L|308:92,1,50,0|0,0:0|0:0,0:0:0:0:
352,157,87716,38,0,B|390:164|390:164|441:138,1,75.0000028610231,0|2,3:0|0:0,0:0:0:0:
511,214,88130,2,0,B|475:206|475:206|440:223,1,75.0000028610231,2|2,0:0|0:0,0:0:0:0:
379,333,88544,5,8,0:0:0:0:
451,306,88750,1,0,0:0:0:0:
381,319,88957,1,0,0:0:0:0:
323,265,89164,1,0,0:0:0:0:
246,294,89371,37,2,0:0:0:0:
185,255,89578,2,0,L|196:145,1,75.0000028610231,8|0,0:0|3:0,0:0:0:0:
106,102,89992,2,0,L|98:27,1,75.0000028610231,2|8,0:0|0:0,0:0:0:0:
182,61,90406,2,0,B|243:70|243:70|270:61|270:61|348:75,1,150.000005722046,2|2,0:0|0:0,0:0:0:0:
396,33,91026,6,0,B|412:66|412:66|398:122,1,75.0000028610231,0|0,3:0|3:0,0:0:0:0:
308,147,91440,2,0,B|292:180|292:180|301:217,1,75.0000028610231,2|2,0:0|0:0,0:0:0:0:
363,288,91854,1,8,0:0:0:0:
435,267,92061,1,2,0:0:0:0:
346,305,92268,2,0,L|271:288,1,75.0000028610231,2|2,0:0|0:0,0:0:0:0:
180,243,92681,38,0,L|197:367,1,112.500004291535,2|0,0:0|0:0,0:0:0:0:
195,354,93095,2,0,L|291:373,1,75.0000028610231,0|2,3:0|0:0,0:0:0:0:
346,305,93509,6,0,L|470:288,1,112.500004291535,8|0,0:0|0:0,0:0:0:0:
457,289,93923,2,0,L|475:193,1,75.0000028610231,2|0,0:0|0:0,0:0:0:0:
414,143,94337,37,0,3:0:0:0:
488,202,94544,2,0,B|496:151|496:151|490:112|490:112|510:27,1,150.000005722046,2|2,0:0|0:0,0:0:0:0:
439,8,95164,1,8,0:0:0:0:
362,40,95371,1,0,0:0:0:0:
427,0,95578,1,2,0:0:0:0:
351,30,95785,1,2,0:0:0:0:
271,0,95992,5,2,0:0:0:0:
244,86,96199,2,0,L|261:188,1,75.0000028610231,8|0,0:0|3:0,0:0:0:0:
200,216,96613,2,0,B|155:227|155:227|110:220|110:220|25:239,1,150.000005722046,2|2,0:0|0:0,0:0:0:0:
16,36,97440,1,2,0:0:0:0:
90,56,97647,38,0,L|75:138,1,75.0000028610231,0|0,3:0|3:0,0:0:0:0:
179,73,98061,2,0,L|166:0,1,75.0000028610231,2|2,0:0|0:0,0:0:0:0:
266,38,98475,1,8,0:0:0:0:
340,17,98681,1,2,0:0:0:0:
261,53,98888,2,0,B|261:103|261:103|277:132|277:132|276:211,1,150.000005722046,2|0,0:0|0:0,0:0:0:0:
63,308,100957,22,0,P|115:325|180:311,1,100,0|0,3:1|0:0,0:0:0:0:
247,238,101371,2,0,P|191:238|152:208,1,100,8|0,0:1|0:0,0:0:0:0:
127,102,101785,5,2,0:0:0:0:
211,143,101992,1,2,0:0:0:0:
283,83,102199,1,8,0:1:0:0:
210,124,102406,1,2,0:0:0:0:
255,12,102613,38,0,B|346:-13|317:66|432:29,1,150,2|0,0:0|0:0,0:0:0:0:
397,37,103026,2,0,P|411:85|403:139,1,100,8|2,0:1|0:0,0:0:0:0:
331,199,103440,2,0,P|335:249|363:296,2,100,2|2|8,0:0|0:0|0:1,0:0:0:0:
387,129,104061,1,2,0:0:0:0:
250,170,104268,6,0,P|181:146|140:83,1,150,0|0,3:1|0:0,0:0:0:0:
140,83,104681,1,8,0:1:0:0:
140,83,104785,2,0,L|157:239,1,150,2|2,0:0|0:0,0:0:0:0:
56,295,105302,2,0,P|100:321|148:327,1,100,2|8,0:0|0:1,0:0:0:0:
232,288,105716,1,2,0:0:0:0:
349,202,105923,38,0,P|322:244|315:293,1,100,2|0,0:0|0:0,0:0:0:0:
384,356,106337,2,0,P|433:348|475:321,1,100,8|2,0:1|0:0,0:0:0:0:
371,208,106750,1,2,0:0:0:0:
467,293,106957,1,0,3:1:0:0:
390,205,107164,6,0,P|427:253|491:280,1,112.500004291535,8|0,0:1|0:0,0:0:0:0:
472,276,107578,6,0,B|496:225|496:225|485:169,1,100,0|0,3:1|0:0,0:0:0:0:
409,118,107992,2,0,B|396:73|396:73|416:23,1,100,8|0,0:1|0:0,0:0:0:0:
257,22,108405,5,2,0:0:0:0:
317,83,108612,1,2,0:0:0:0:
230,104,108819,1,8,0:1:0:0:
242,17,109026,1,2,0:0:0:0:
123,58,109233,38,0,B|96:101|96:101|133:206,1,150,2|0,0:0|0:0,0:0:0:0:
128,194,109647,2,0,L|114:314,1,100,8|2,0:1|0:0,0:0:0:0:
29,362,110061,2,0,L|18:262,2,100,2|2|8,0:0|0:0|0:1,0:0:0:0:
122,328,110681,1,2,0:0:0:0:
199,224,110888,6,0,L|221:372,1,150,0|0,3:1|0:0,0:0:0:0:
222,373,111302,1,8,0:1:0:0:
222,373,111406,2,0,B|295:362|295:362|341:274,1,150,2|2,0:0|0:0,0:0:0:0:
269,230,111923,2,0,B|314:208|314:208|362:220,1,100,2|8,0:0|0:1,0:0:0:0:
410,296,112336,1,2,0:0:0:0:
512,210,112544,38,0,B|454:224|454:224|422:133,1,150,2|0,0:0|0:0,0:0:0:0:
424,138,112957,2,0,B|441:33,1,100,8|2,0:1|0:0,0:0:0:0:
254,19,113370,1,2,0:0:0:0:
333,11,113577,1,0,3:1:0:0:
244,34,113785,6,0,B|236:71|236:71|241:102|241:102|234:147,1,112.500004291535,8|0,0:1|0:0,0:0:0:0:
234,144,114199,6,0,P|192:182|129:182,1,100,0|0,3:1|0:0,0:0:0:0:
75,122,114613,2,0,P|125:135|160:184,1,100,8|0,0:1|0:0,0:0:0:0:
155,288,115026,5,2,0:0:0:0:
67,268,115233,1,2,0:0:0:0:
149,301,115440,1,8,0:1:0:0:
81,353,115647,1,2,0:0:0:0:
232,366,115854,38,0,P|287:346|310:250,1,150,2|0,0:0|0:0,0:0:0:0:
315,265,116268,2,0,P|265:259|223:229,1,100,8|2,0:1|0:0,0:0:0:0:
150,152,116681,2,0,P|199:153|244:133,2,100,2|2|8,0:0|0:0|0:1,0:0:0:0:
91,75,117302,1,2,0:0:0:0:
232,59,117508,6,0,B|312:41|291:129|381:108,1,150,0|0,3:1|0:0,0:0:0:0:
363,110,117923,2,0,P|423:98|470:51,1,100,8|2,0:1|0:0,0:0:0:0:
369,18,118337,37,2,0:0:0:0:
455,57,118544,1,2,0:0:0:0:
359,34,118750,1,8,0:1:0:0:
455,41,118957,1,2,0:0:0:0:
370,117,119164,6,0,P|321:110|284:75,1,100,2|0,0:0|0:0,0:0:0:0:
196,46,119578,2,0,P|146:54|111:92,1,100,8|2,0:1|0:0,0:0:0:0:
31,156,119992,1,2,0:0:0:0:
122,185,120199,1,0,3:1:0:0:
15,183,120406,2,0,P|7:258|15:309,1,112.500004291535,8|0,0:1|0:0,0:0:0:0:
11,294,120819,6,0,B|60:308|60:308|117:267,1,100,0|0,3:1|0:0,0:0:0:0:
128,175,121233,2,0,B|178:178|178:178|219:235,1,100,8|0,0:1|0:0,0:0:0:0:
267,362,121647,5,2,0:0:0:0:
289,283,121854,1,2,0:0:0:0:
371,315,122061,1,8,0:1:0:0:
298,265,122268,1,2,0:0:0:0:
428,252,122474,38,0,B|435:199|435:199|426:164|426:164|439:94,1,150,2|0,0:0|0:0,0:0:0:0:
437,104,122888,2,0,L|315:125,1,100,8|2,0:1|0:0,0:0:0:0:
249,167,123302,2,0,B|209:159|209:159|186:162|186:162|128:145,2,100,2|2|8,0:0|0:0|0:1,0:0:0:0:
322,111,123923,1,2,0:0:0:0:
244,25,124130,6,0,B|425:39,1,150,0|0,3:1|0:0,0:0:0:0:
393,36,124544,2,0,L|411:144,2,100,8|2|2,0:1|0:0|0:0,0:0:0:0:
503,111,125164,2,0,L|479:227,1,100,2|8,0:0|0:1,0:0:0:0:
459,298,125578,1,2,0:0:0:0:
403,179,125785,38,0,B|332:183|332:183|285:253,1,150,2|0,0:0|0:0,0:0:0:0:
288,248,126199,2,0,L|304:355,1,100,8|2,0:1|0:0,0:0:0:0:
163,384,126613,5,2,0:0:0:0:
194,278,126819,1,0,3:1:0:0:
180,379,127026,1,8,0:1:0:0:
27,176,127440,6,0,L|41:42,1,119.999996337891,0|8,3:0|0:1,0:0:0:0:
39,56,128061,1,8,0:1:0:0:
113,94,128268,2,0,L|177:81,1,59.9999981689454,0|0,0:0|0:0,0:0:0:0:
246,123,128681,2,0,L|310:110,1,59.9999981689454,8|0,0:1|0:0,0:0:0:0:
379,45,129095,22,0,L|507:61,1,119.999996337891,0|8,3:0|0:1,0:0:0:0:
369,183,129923,2,0,L|244:209,1,119.999996337891,0|8,0:0|0:1,0:0:0:0:
109,245,130750,38,0,L|93:380,1,119.999996337891,0|8,3:0|0:1,0:0:0:0:
94,364,131371,1,8,0:1:0:0:
177,342,131578,2,0,L|247:331,1,59.9999981689454,0|0,0:0|0:0,0:0:0:0:
290,276,131992,2,0,L|360:265,1,59.9999981689454,8|0,0:1|0:0,0:0:0:0:
475,234,132406,22,0,L|453:367,1,119.999996337891,0|8,3:0|0:1,0:0:0:0:
378,364,133026,1,8,0:1:0:0:
378,364,133233,2,0,L|397:245,1,119.999996337891,0|8,0:0|0:1,0:0:0:0:
498,132,134061,6,0,L|484:-2,1,119.999996337891,0|8,3:0|0:1,0:0:0:0:
485,12,134682,1,8,0:1:0:0:
412,50,134889,2,0,L|348:37,1,59.9999981689454,0|0,0:0|0:0,0:0:0:0:
280,69,135302,2,0,L|216:56,1,59.9999981689454,8|0,0:1|0:0,0:0:0:0:
136,5,135716,22,0,L|8:21,1,119.999996337891,0|8,3:0|0:1,0:0:0:0:
147,174,136544,2,0,L|275:190,1,119.999996337891,0|8,0:0|0:1,0:0:0:0:
158,330,137371,38,0,L|17:361,1,119.999996337891,0|8,3:0|0:1,0:0:0:0:
40,355,137992,1,8,0:1:0:0:
53,274,138199,2,0,L|121:260,1,59.9999981689454,0|0,0:0|0:0,0:0:0:0:
111,261,138613,21,8,0:1:0:0:
70,193,138819,1,0,0:0:0:0:
