osu file format v14

[General]
AudioFilename: beyond the winding road.mp3
AudioLeadIn: 0
PreviewTime: 4025
Countdown: 0
SampleSet: Soft
StackLeniency: 0.2
Mode: 0
LetterboxInBreaks: 0
WidescreenStoryboard: 1

[Editor]
Bookmarks: 4036,49212,58035,71800,83094,94388,105683,116977,128271,150506,150859,173447,196035,229918
DistanceSpacing: 1.1
BeatDivisor: 4
GridSize: 4
TimelineZoom: 2.899999

[Metadata]
Title:beyond the winding road
TitleUnicode:beyond the winding road
Artist:iamsleepless
ArtistUnicode:iamsleepless
Creator:SnivehNDraegonz
Version:Normal
Source:
Tags:secrets dylan hewbz bpl bananapielord the old tunes
BeatmapID:1324456
BeatmapSetID:442439

[Difficulty]
HPDrainRate:3
CircleSize:3
OverallDifficulty:3.5
ApproachRate:5.5
SliderMultiplier:1.1
SliderTickRate:1

[Events]
//Background and Video events
0,0,"maxresdefault (1).jpg",0,0
//Break Periods
//Storyboard Layer 0 (Background)
//Storyboard Layer 1 (Fail)
//Storyboard Layer 2 (Pass)
//Storyboard Layer 3 (Foreground)
//Storyboard Sound Samples

[TimingPoints]
4036,352.941176470588,4,2,1,90,1,0
49212,-100,4,2,1,90,0,0
50624,-111.111111111111,4,2,1,90,0,0
52035,-125,4,2,1,70,0,0
53447,-133.333333333333,4,2,1,50,0,0
54859,-133.333333333333,4,2,1,40,0,0
150506,-100,4,2,1,50,0,1
150683,-100,4,2,1,50,0,0
150859,-100,4,2,1,90,0,0
173447,-90.9090909090909,4,2,1,90,0,1
196035,-100,4,2,1,90,0,0
197447,-100,4,2,1,70,0,0
198859,-125,4,2,1,50,0,0
200271,-125,4,2,1,40,0,0
201683,-142.857142857143,4,2,1,40,0,0
203094,-142.857142857143,4,2,1,40,0,0
212977,-142.857142857143,4,2,1,45,0,0
218624,-142.857142857143,4,2,1,55,0,0
228506,-142.857142857143,4,2,1,60,0,0
229918,-142.857142857143,4,2,1,65,0,0
230624,-142.857142857143,4,2,1,55,0,0
231330,-142.857142857143,4,2,1,45,0,0
232035,-142.857142857143,4,2,1,35,0,0
232741,-142.857142857143,4,2,1,25,0,0
233447,-142.857142857143,4,2,1,15,0,0
234153,-142.857142857143,4,2,1,5,0,0

[Colours]
Combo1 : 6,6,255
Combo2 : 255,28,28
Combo3 : 234,77,0
Combo4 : 230,230,0
Combo5 : 121,255,255
Combo6 : 100,100,255
SliderTrackOverride : 0,0,0
SliderBorder : 255,255,255

[HitObjects]
180,226,4036,6,0,B|176:108|176:108|137:51,2,165,4|4|8,0:0|0:0|0:0,0:0:0:0:
246,313,5447,2,0,P|313:317|353:300,1,110,4|8,0:0|0:0,0:0:0:0:
408,206,6153,2,0,P|412:139|395:99,1,110,4|8,0:0|0:0,0:0:0:0:
298,48,6859,6,0,B|184:58|184:58|120:38,2,165,4|4|8,0:0|0:0|0:0,0:0:0:0:
353,43,8094,1,0,0:0:0:0:
408,39,8271,2,0,L|398:158,1,110,4|8,0:0|0:0,0:0:0:0:
302,203,8977,6,0,L|310:281,1,55,4|8,0:0|0:0,0:0:0:0:
358,278,9330,2,8,L|350:356,1,55
307,364,9683,6,0,L|130:343,2,165,4|4|8,0:0|0:0|0:0,0:0:0:0:
347,261,11094,2,0,L|524:240,2,165,4|4|8,0:0|0:0|0:0,0:0:0:0:
237,247,12506,6,0,P|203:180|208:126,1,110,4|8,0:0|0:0,0:0:0:0:
231,98,13035,1,4,0:0:0:0:
281,74,13212,2,0,L|410:67,1,110,0|8,0:0|0:0,0:0:0:0:
445,78,13741,1,0,0:0:0:0:
494,103,13918,6,0,P|507:165|494:217,1,110,4|8,0:0|0:0,0:0:0:0:
471,258,14447,1,4,0:0:0:0:
427,291,14624,2,0,L|317:302,1,110,4|8,0:0|0:0,0:0:0:0:
214,342,15330,6,0,B|161:325|161:325|47:335,2,165,4|4|8,0:0|0:0|0:0,0:0:0:0:
283,256,16741,2,0,P|293:184|267:133,1,110,4|8,0:0|0:0,0:0:0:0:
181,101,17447,2,0,P|171:173|197:224,1,110,4|8,0:0|0:0,0:0:0:0:
283,256,18153,6,0,B|392:249|392:249|454:281,2,165,4|4|8,0:0|0:0|0:0,0:0:0:0:
237,287,19388,1,0,0:0:0:0:
191,317,19565,6,0,L|64:321,1,110
43,216,20271,2,0,L|170:212,1,110
204,193,20800,1,0,0:0:0:0:
256,176,20977,6,0,B|247:74|247:74|188:34,2,165
357,217,22388,2,0,B|366:319|366:319|425:359,2,165
453,162,23800,6,0,P|456:103|431:52,1,110
385,33,24330,1,0,0:0:0:0:
332,47,24506,2,0,L|207:44,1,110
167,39,25035,1,0,0:0:0:0:
117,63,25212,6,0,L|122:135,1,55
156,160,25565,2,0,L|151:232,1,55
137,267,25918,1,0,0:0:0:0:
244,288,26271,1,0,0:0:0:0:
351,309,26624,6,0,B|461:323|461:323|492:258,2,165
296,213,28035,2,0,L|312:94,1,110
216,46,28741,2,0,L|200:165,1,110
130,239,29447,6,0,B|23:216|23:216|0:156,2,165
163,283,30683,1,0,0:0:0:0:
188,331,30859,2,0,P|270:338|306:328,1,110
378,257,31565,6,0,L|366:191,1,55
316,183,31918,2,0,L|325:128,1,55
363,88,32271,6,0,B|470:72|470:72|513:33,2,165
258,124,33683,2,0,B|151:108|151:108|108:69,2,165
345,190,35094,6,0,P|355:244|336:310,1,110
311,342,35624,1,0,0:0:0:0:
256,350,35800,2,0,L|140:341,1,110
94,322,36330,1,0,0:0:0:0:
57,281,36506,6,0,P|47:227|66:161,1,110
98,135,37035,1,0,0:0:0:0:
147,110,37212,2,0,L|223:104,1,55
254,123,37565,2,0,L|308:127,1,55
363,124,37918,6,0,B|357:234|357:234|396:298,2,165
284,46,39330,2,0,L|154:51,1,110
93,124,40035,2,0,L|98:254,1,110
166,319,40741,6,0,B|278:313|278:313|332:344,2,165
110,324,41977,1,0,0:0:0:0:
55,326,42153,6,0,L|61:191,1,110
92,171,42683,1,0,0:0:0:0:
138,141,42859,2,0,L|204:137,1,55
240,165,43212,2,0,L|306:169,1,55
347,151,43565,6,0,B|339:262|339:262|363:324,2,165
269,71,44977,2,0,B|158:63|158:63|96:87,2,165
323,61,46212,1,0,0:0:0:0:
377,51,46388,6,0,L|374:181,1,110
354,212,46918,1,0,0:0:0:0:
324,257,47094,2,0,L|256:250,1,55
223,281,47447,2,0,L|155:288,1,55
131,245,47800,6,0,P|127:206|133:177,1,55
174,159,48153,2,0,P|178:120|172:91,1,55
149,55,48506,2,0,L|22:70,1,110
0,184,49212,6,0,B|8:293|8:293|52:350,2,165
41,93,50624,1,0,0:0:0:0:
139,99,50977,1,0,0:0:0:0:
237,104,51330,2,0,L|351:111,1,98.9999969787599
432,119,52035,6,0,B|429:209|429:209|452:244,2,132
376,46,53447,1,0,0:0:0:0:
291,79,53800,2,0,P|255:58|224:28,2,82.5000031471254
283,169,54859,6,0,L|273:301,2,123.750004720688
192,176,56271,2,0,L|182:308,2,123.750004720688
144,98,57683,6,0,P|105:80|57:82,1,82.5000031471254
8,150,58388,2,0,P|47:168|95:166,1,82.5000031471254
176,177,59094,6,0,L|168:277,1,82.5000031471254
231,326,59800,1,0,0:0:0:0:
307,277,60153,1,0,0:0:0:0:
388,316,60506,6,0,P|397:268|348:194,2,123.750004720688
282,167,62271,1,0,0:0:0:0:
354,111,62624,1,0,0:0:0:0:
269,76,62977,1,0,0:0:0:0:
198,133,63330,6,0,L|68:124,2,123.750004720688,2|2|2,0:0|0:0|0:0,0:0:0:0:
300,283,65094,1,2,0:0:0:0:
383,319,65447,2,0,P|390:268|372:227,1,82.5000031471254,2|0,0:0|0:0,0:0:0:0:
299,197,66153,6,0,B|219:187|219:187|174:213,2,123.750004720688,2|2|2,0:0|0:0|0:0,0:0:0:0:
382,161,67565,2,0,B|462:171|462:171|507:145,2,123.750004720688,2|2|2,0:0|0:0|0:0,0:0:0:0:
308,107,68977,5,2,0:0:0:0:
239,46,69330,1,0,0:0:0:0:
157,85,69683,2,0,L|143:185,1,82.5000031471254,2|0,0:0|0:0,0:0:0:0:
215,224,70388,6,0,L|229:324,1,82.5000031471254,2|0,0:0|0:0,0:0:0:0:
303,353,71094,1,2,0:0:0:0:
379,303,71447,1,0,0:0:0:0:
459,345,71800,6,0,B|474:310|473:275|453:235|406:213|406:213|442:181|442:181|393:123|425:52,1,330.000012588501,2|0,0:0|0:0,0:0:0:0:
419,66,74624,6,0,P|342:82|301:66,1,123.750004720688,2|2,0:0|0:0,0:0:0:0:
301,66,77094,5,2,0:0:0:0:
221,109,77447,2,0,L|94:103,1,123.750004720688,2|2,0:0|0:0,0:0:0:0:
97,103,80271,5,0,0:0:0:0:
256,192,80359,12,2,81683,0:0:0:0:
145,136,83094,6,0,B|139:216|139:216|161:260,2,123.750004720688,2|2|2,0:0|0:0|0:0,0:0:0:0:
216,79,84506,1,2,0:0:0:0:
421,257,85565,5,2,0:0:0:0:
357,321,85918,2,0,B|273:308|273:308|223:324,2,123.750004720688,2|2|2,0:0|0:0|0:0,0:0:0:0:
444,346,87330,1,2,0:0:0:0:
350,90,88388,5,2,0:0:0:0:
275,141,88741,2,0,B|193:150|193:150|146:136,2,123.750004720688,2|2|2,0:0|0:0|0:0,0:0:0:0:
358,177,90153,2,0,B|367:259|367:259|353:306,2,123.750004720688,2|2|2,0:0|0:0|0:0,0:0:0:0:
296,109,91565,6,0,P|258:101|204:112,1,82.5000031471254,2|0,0:0|0:0,0:0:0:0:
154,175,92271,2,0,P|146:213|157:267,1,82.5000031471254,2|0,0:0|0:0,0:0:0:0:
222,313,92977,5,2,0:0:0:0:
303,273,93330,1,0,0:0:0:0:
385,311,93683,1,2,0:0:0:0:
463,265,94035,1,2,0:0:0:0:
459,174,94388,6,0,L|442:88,1,82.5000031471254,10|8,0:0|0:0,0:0:0:0:
352,84,95094,2,0,L|369:170,1,82.5000031471254,10|8,0:0|0:0,0:0:0:0:
382,254,95800,5,10,0:0:0:0:
306,304,96153,1,8,0:0:0:0:
215,307,96506,1,10,0:0:0:0:
134,265,96859,1,8,0:0:0:0:
88,186,97212,6,8,P|93:138|116:97,1,82.5000031471254,10|8,0:0|0:0,0:0:0:0:
194,79,97918,2,8,P|233:107|257:147,1,82.5000031471254,10|8,0:0|0:0,0:0:0:0:
247,226,98624,5,10,0:0:0:0:
197,302,98977,1,8,0:0:0:0:
287,313,99330,2,8,L|381:295,1,82.5000031471254,10|8,0:0|0:0,0:0:0:0:
428,229,100035,6,0,B|409:143|409:143|431:101,2,123.750004720688,2|2|2,0:0|0:0|0:0,0:0:0:0:
339,251,101447,2,0,B|321:164|321:164|284:135,2,123.750004720688,2|2|2,0:0|0:0|0:0,0:0:0:0:
281,321,102859,6,0,P|243:329|190:323,1,82.5000031471254
147,250,103565,1,0,0:0:0:0:
71,300,103918,1,0,0:0:0:0:
10,231,104271,6,0,L|15:129,1,82.5000031471254
73,79,104977,2,0,L|175:84,1,82.5000031471254
227,138,105683,6,0,P|302:165|353:154,1,123.750004720688,4|0,0:0|0:0,0:0:0:0:
371,122,106388,2,0,L|385:253,1,123.750004720688,8|4,0:0|0:0,0:0:0:0:
284,338,107447,5,4,0:0:0:0:
195,316,107800,2,0,L|141:323,2,41.2500015735627,8|4|0,0:0|0:0|0:0,0:0:0:0:
256,249,108506,6,0,L|244:109,1,123.750004720688,4|0,0:0|0:0,0:0:0:0:
226,84,109212,2,0,P|155:56|98:66,1,123.750004720688,8|4,0:0|0:0,0:0:0:0:
41,179,110271,5,0,0:0:0:0:
59,267,110624,1,0,0:0:0:0:
139,309,110977,1,0,0:0:0:0:
225,280,111330,6,0,L|356:272,1,123.750004720688,4|4,0:0|0:0,0:0:0:0:
388,250,112035,2,0,P|410:207|413:128,1,123.750004720688,8|4,0:0|0:0,0:0:0:0:
385,96,112741,6,0,L|294:100,1,82.5000031471254,4|4,0:0|0:0,0:0:0:0:
258,111,113271,1,0,0:0:0:0:
213,121,113447,2,0,L|159:118,2,41.2500015735627,8|4|0,0:0|0:0|0:0,0:0:0:0:
201,211,114153,6,0,L|106:205,2,82.5000031471254
282,251,115212,1,0,0:0:0:0:
361,296,115565,6,0,P|410:302|451:294,1,82.5000031471254
491,220,116271,2,0,L|480:167,1,41.2500015735627,8|4,0:0|0:0,0:0:0:0:
444,154,116624,2,0,L|455:101,1,41.2500015735627,4|8,0:0|0:0,0:0:0:0:
439,69,116977,6,0,P|394:42|318:38,1,123.750004720688,4|4,0:0|0:0,0:0:0:0:
283,57,117683,2,0,P|253:110|250:171,1,123.750004720688,8|4,0:0|0:0,0:0:0:0:
330,282,118741,5,0,0:0:0:0:
411,321,119094,2,0,L|410:372,2,41.2500015735627
480,262,119800,6,0,L|473:137,1,123.750004720688
457,95,120506,2,0,P|408:55|337:44,1,123.750004720688
228,105,121565,6,0,L|133:93,1,82.5000031471254
55,84,122271,1,0,0:0:0:0:
93,166,122624,6,0,P|97:221|74:297,1,123.750004720688
60,327,123330,2,0,L|199:322,1,123.750004720688
227,333,124035,6,0,L|326:331,1,82.5000031471254
350,311,124565,1,0,0:0:0:0:
392,295,124741,2,0,L|434:294,2,41.2500015735627
346,216,125447,6,0,L|341:127,1,82.5000031471254,4|0,0:0|0:0,0:0:0:0:
322,91,125977,1,4,0:0:0:0:
283,67,126153,2,0,P|227:54|189:60,1,82.5000031471254,8|0,0:0|0:0,0:0:0:0:
161,75,126683,1,4,0:0:0:0:
130,108,126859,6,0,L|130:202,1,82.5000031471254,4|4,0:0|0:0,0:0:0:0:
185,262,127565,2,0,L|233:272,1,41.2500015735627,8|4,0:0|0:0,0:0:0:0:
266,251,127918,2,0,L|314:241,1,41.2500015735627,4|8,0:0|0:0,0:0:0:0:
351,236,128271,6,0,B|358:158|358:158|406:120,2,123.750004720688
175,284,130035,2,0,L|181:195,2,82.5000031471254
88,254,131094,6,0,B|96:167|96:167|119:132,2,123.750004720688
259,313,132859,1,0,0:0:0:0:
339,271,133212,2,0,P|344:226|333:187,1,82.5000031471254
262,135,133918,6,0,B|183:138|183:138|142:121,2,123.750004720688
346,100,135330,2,0,B|425:97|425:97|466:114,2,123.750004720688
334,190,136741,6,0,L|342:276,1,82.5000031471254
255,301,137447,2,0,L|247:215,1,82.5000031471254
242,127,138153,5,0,0:0:0:0:
152,111,138506,1,0,0:0:0:0:
84,172,138859,2,0,L|92:260,1,82.5000031471254
159,314,139565,6,0,B|235:305|235:305|285:313,2,123.750004720688
19,197,141330,2,0,L|34:113,2,82.5000031471254
109,189,142388,6,0,B|122:105|122:105|108:64,2,123.750004720688
227,327,144153,1,0,0:0:0:0:
316,340,144506,2,0,P|361:342|402:331,1,82.5000031471254
439,252,145212,6,0,B|431:176|431:176|399:130,2,123.750004720688
348,242,146624,2,0,B|356:318|356:318|388:364,2,123.750004720688
290,171,148035,6,0,P|236:168|209:179,1,82.5000031471254
155,250,148741,2,0,P|115:262|75:257,1,82.5000031471254
27,179,149447,6,0,L|38:97,1,82.5000031471254
94,26,150153,1,0,0:0:0:0:
181,71,150506,5,0,1:0:0:0:
275,40,150859,2,0,B|385:40|385:40|418:94,2,165,4|4|8,0:0|0:0|0:0,0:0:0:0:
181,73,152271,2,0,P|180:150|199:196,1,110,4|8,0:0|0:0,0:0:0:0:
230,209,152800,1,4,0:0:0:0:
269,239,152977,2,0,P|270:316|251:362,1,110,0|8,0:0|0:0,0:0:0:0:
150,365,153683,6,0,B|30:361|30:361|8:316,2,165,4|4|8,0:0|0:0|0:0,0:0:0:0:
202,347,154918,1,0,0:0:0:0:
253,327,155094,6,0,P|263:257|253:214,1,110,4|8,0:0|0:0,0:0:0:0:
195,126,155800,2,0,L|138:123,1,55,0|8,0:0|0:0,0:0:0:0:
114,171,156153,2,0,L|57:174,1,55,8|8,0:0|0:0,0:0:0:0:
26,218,156506,6,0,B|31:318|31:318|0:385,2,165,4|4|8,0:0|0:0|0:0,0:0:0:0:
123,166,157918,2,0,B|118:66|118:66|149:-1,2,165,4|4|8,0:0|0:0|0:0,0:0:0:0:
198,246,159330,6,0,P|258:261|322:245,1,110,4|8,0:0|0:0,0:0:0:0:
348,218,159859,1,4,0:0:0:0:
383,176,160035,2,0,P|398:116|382:52,1,110,0|8,0:0|0:0,0:0:0:0:
349,31,160565,1,0,0:0:0:0:
295,19,160741,6,0,L|159:23,1,110,4|8,0:0|0:0,0:0:0:0:
130,33,161271,1,4,0:0:0:0:
90,70,161447,2,0,P|76:129|100:194,1,110,0|8,0:0|0:0,0:0:0:0:
179,237,162153,6,0,B|182:347|182:347|137:378,2,165,6|6|10,0:0|0:0|0:0,0:0:0:0:
205,130,163565,2,0,P|292:111|329:122,1,110,4|8,0:0|0:0,0:0:0:0:
354,148,164094,1,4,0:0:0:0:
385,193,164271,2,0,P|388:247|370:298,1,110,0|8,0:0|0:0,0:0:0:0:
272,350,164977,6,4,B|157:356|157:356|117:313,2,165,4|4|8,0:0|0:0|0:0,0:0:0:0:
346,268,166388,2,0,L|337:137,1,110,4|8,0:0|0:0,0:0:0:0:
256,84,167094,2,0,L|125:93,1,110,4|8,0:0|0:0,0:0:0:0:
93,107,167624,1,0,0:0:0:0:
52,143,167800,6,0,B|59:257|59:257|108:312,2,165,4|4|8,0:0|0:0|0:0,0:0:0:0:
158,170,169212,2,0,B|151:56|151:56|102:1,2,165,4|4|8,0:0|0:0|0:0,0:0:0:0:
214,264,170624,6,0,P|283:287|330:279,1,110
367,256,171153,1,0,0:0:0:0:
401,213,171330,2,0,L|391:86,1,110
359,59,171859,1,0,0:0:0:0:
313,28,172035,6,0,L|258:25,1,55
230,72,172388,2,0,L|175:75,1,55
121,63,172741,2,0,P|127:115|104:173,1,110
32,263,173447,6,0,B|162:264|162:264|203:216,2,181.500005538941
86,371,174859,2,0,L|222:371,1,121.000003692627
282,275,175565,2,0,L|403:275,1,121.000003692627
490,190,176271,6,0,B|491:60|491:60|443:19,2,181.500005538941
404,275,177683,2,0,P|348:289|286:275,1,121.000003692627
199,191,178388,2,0,L|205:109,1,60.5000018463135
263,138,178741,2,0,L|257:56,1,60.5000018463135
216,33,179094,6,0,B|350:29|350:29|401:67,2,181.500005538941
171,145,180506,2,0,B|37:149|37:149|-14:111,2,181.500005538941
279,200,181918,6,0,P|304:261|298:321,1,121.000003692627
255,356,182447,1,0,0:0:0:0:
195,369,182624,2,0,L|51:355,1,121.000003692627
18,249,183330,2,0,P|14:189|38:134,1,121.000003692627
88,99,183859,1,0,0:0:0:0:
147,87,184035,2,0,L|282:85,1,121.000003692627
370,149,184741,6,0,B|375:277|375:277|349:331,2,181.500005538941
274,74,186153,6,0,P|217:69|146:92,1,121.000003692627
79,180,186859,2,0,P|74:237|97:308,1,121.000003692627
202,347,187565,6,0,B|329:338|329:338|386:366,2,181.500005538941
105,274,188977,2,0,L|110:146,1,121.000003692627
136,98,189506,1,0,0:0:0:0:
182,58,189683,2,0,P|243:59|300:76,1,121.000003692627
375,170,190388,6,0,B|371:294|371:294|411:343,2,181.500005538941
460,84,191800,2,0,B|496:128|496:128|492:252,2,181.500005538941
346,39,193212,6,0,P|277:38|217:69,1,121.000003692627
200,111,193741,1,0,0:0:0:0:
177,167,193918,2,0,L|183:311,1,121.000003692627
214,339,194447,1,0,0:0:0:0:
267,366,194624,6,0,L|345:361,1,60.5000018463135
342,303,194977,2,0,L|420:308,1,60.5000018463135
456,334,195330,6,0,L|438:203,1,121.000003692627
375,125,196035,6,0,B|265:132|265:132|218:170,2,165
479,89,197447,2,0,P|432:25|390:11,1,110
295,6,198153,2,0,L|175:12,1,110
130,80,198859,6,0,B|39:73|39:73|0:99,2,132
186,147,200271,2,0,P|188:199|169:246,1,88
91,256,200977,2,0,P|78:297|81:341,1,88
159,375,201683,6,0,B|242:380|242:380|278:360,2,115.49999647522
112,305,203094,2,0,B|29:300|29:300|-6:320,2,115.49999647522
175,248,204506,6,0,P|192:203|188:161,1,76.9999976501466
136,109,205212,2,0,P|136:70|152:35,1,76.9999976501466
233,10,205918,6,0,L|314:16,1,76.9999976501466
338,95,206624,2,0,L|419:89,1,76.9999976501466
470,153,207330,6,0,B|470:234|470:234|491:274,2,115.49999647522
350,33,209094,2,0,P|312:24|268:34,2,76.9999976501466
312,109,210153,6,0,B|254:120|254:120|199:84,2,115.49999647522
412,245,211918,2,0,L|418:328,2,76.9999976501466
327,256,212977,6,0,B|334:335|334:335|324:369,2,115.49999647522
270,193,214388,2,0,B|262:113|262:113|273:80,2,115.49999647522
244,274,215800,6,0,P|203:281|161:274,1,76.9999976501466
102,222,216506,2,0,P|97:183|104:146,1,76.9999976501466
164,86,217212,6,0,P|202:81|239:88,1,76.9999976501466
295,152,217918,2,0,P|299:190|292:227,1,76.9999976501466
234,290,218624,6,0,B|156:297|156:297|113:276,2,115.49999647522
346,163,220388,2,0,L|343:82,2,76.9999976501466
387,237,221447,6,0,B|465:244|465:244|508:223,2,115.49999647522
275,110,223211,2,0,L|278:29,2,76.9999976501466
210,165,224271,6,0,B|132:172|132:172|89:151,2,115.49999647522
275,110,225683,2,0,B|353:103|353:103|396:124,2,115.49999647522
211,166,227094,6,0,P|207:208|217:252,1,76.9999976501466
283,289,227800,2,0,P|321:293|358:286,1,76.9999976501466
418,226,228506,6,0,L|425:144,1,76.9999976501466
339,147,229212,2,0,L|332:70,1,76.9999976501466
256,32,229918,5,0,0:0:0:0:
256,192,230094,12,0,234153,0:0:0:0:
