osu file format v14

[General]
AudioFilename: audio.mp3
AudioLeadIn: 0
PreviewTime: 170372
Countdown: 0
SampleSet: Normal
StackLeniency: 0.7
Mode: 3
LetterboxInBreaks: 0
SpecialStyle: 0
WidescreenStoryboard: 0

[Editor]
DistanceSpacing: 0.8
BeatDivisor: 16
GridSize: 16
TimelineZoom: 2.799999

[Metadata]
Title:Possession
TitleUnicode:Possession
Artist:i_o
ArtistUnicode:i_o
Creator:Abraxos
Version:/I SAID COME ON\
Source:
Tags:house of god ep mau5trap techno electronic instrumental english
BeatmapID:2145124
BeatmapSetID:1025679

[Difficulty]
HPDrainRate:9.1
CircleSize:4
OverallDifficulty:8.4
ApproachRate:5
SliderMultiplier:1.4
SliderTickRate:1

[Events]
//Background and Video events
0,0,"IOLA-6PNG_preview.jpg",0,0
//Break Periods
//Storyboard Layer 0 (Background)
//Storyboard Layer 1 (Fail)
//Storyboard Layer 2 (Pass)
//Storyboard Layer 3 (Foreground)
//Storyboard Layer 4 (Overlay)
//Storyboard Sound Samples

[TimingPoints]
65,461.538461538462,4,1,1,25,1,0
96295,-100,4,1,1,35,0,0
103449,-100,4,1,1,25,0,0
111065,-100,4,1,1,35,0,0
118680,-100,4,1,1,25,0,0
125834,-100,4,1,1,35,0,0
133218,-100,4,1,1,25,0,0
140603,-100,4,1,1,35,0,0
147988,-100,4,1,1,25,0,0
155141,-100,4,1,1,35,0,1
169911,-100,4,1,1,25,0,0
221603,-100,4,1,1,30,0,0
228988,-100,4,1,1,35,0,0
236603,-100,4,1,1,25,0,0
243988,-100,4,1,1,35,0,0
251372,-100,4,1,1,25,0,0
258757,-100,4,1,1,35,0,0
265911,-100,4,1,1,25,0,0
273526,-100,4,1,1,35,0,0
280680,-100,4,1,1,25,0,0
288065,-100,4,1,1,30,0,0

[HitObjects]
64,192,65,5,0,0:0:0:0:
448,192,209,128,0,295:0:0:0:0:
320,192,295,128,0,411:0:0:0:0:
64,192,526,1,0,0:0:0:0:
320,192,757,128,0,872:0:0:0:0:
64,192,988,1,0,0:0:0:0:
448,192,1132,128,0,1218:0:0:0:0:
320,192,1218,128,0,1334:0:0:0:0:
64,192,1449,1,0,0:0:0:0:
320,192,1680,128,0,1795:0:0:0:0:
64,192,1911,1,0,0:0:0:0:
448,192,2055,128,0,2141:0:0:0:0:
320,192,2141,128,0,2257:0:0:0:0:
64,192,2372,1,0,0:0:0:0:
320,192,2603,128,0,2718:0:0:0:0:
64,192,2834,1,0,0:0:0:0:
448,192,2978,128,0,3065:0:0:0:0:
320,192,3065,128,0,3180:0:0:0:0:
64,192,3295,1,0,0:0:0:0:
320,192,3526,128,0,3641:0:0:0:0:
64,192,3757,1,0,0:0:0:0:
448,192,3901,128,0,3988:0:0:0:0:
320,192,3988,128,0,4103:0:0:0:0:
64,192,4218,1,0,0:0:0:0:
320,192,4449,128,0,4565:0:0:0:0:
64,192,4680,1,0,0:0:0:0:
448,192,4824,128,0,4911:0:0:0:0:
320,192,4911,128,0,5026:0:0:0:0:
64,192,5141,1,0,0:0:0:0:
320,192,5372,128,0,5488:0:0:0:0:
64,192,5603,1,0,0:0:0:0:
448,192,5747,128,0,5834:0:0:0:0:
320,192,5834,128,0,5949:0:0:0:0:
64,192,6065,1,0,0:0:0:0:
320,192,6295,128,0,6411:0:0:0:0:
64,192,6526,1,0,0:0:0:0:
448,192,6670,128,0,6757:0:0:0:0:
320,192,6757,128,0,6872:0:0:0:0:
64,192,6988,1,0,0:0:0:0:
320,192,7218,128,0,7334:0:0:0:0:
64,192,7449,1,0,0:0:0:0:
448,192,7593,128,0,7680:0:0:0:0:
320,192,7680,128,0,7795:0:0:0:0:
64,192,7911,1,0,0:0:0:0:
320,192,8141,128,0,8257:0:0:0:0:
64,192,8372,1,0,0:0:0:0:
448,192,8516,128,0,8603:0:0:0:0:
320,192,8603,128,0,8718:0:0:0:0:
64,192,8834,1,0,0:0:0:0:
320,192,9065,128,0,9180:0:0:0:0:
64,192,9295,1,0,0:0:0:0:
448,192,9440,128,0,9526:0:0:0:0:
320,192,9526,128,0,9641:0:0:0:0:
64,192,9757,1,0,0:0:0:0:
320,192,9988,128,0,10103:0:0:0:0:
64,192,10218,1,0,0:0:0:0:
448,192,10363,128,0,10449:0:0:0:0:
320,192,10449,128,0,10565:0:0:0:0:
64,192,10680,1,0,0:0:0:0:
320,192,10911,128,0,11026:0:0:0:0:
64,192,11141,1,0,0:0:0:0:
448,192,11286,128,0,11372:0:0:0:0:
320,192,11372,128,0,11488:0:0:0:0:
64,192,11603,1,0,0:0:0:0:
320,192,11834,128,0,11949:0:0:0:0:
64,192,12065,1,0,0:0:0:0:
448,192,12209,128,0,12295:0:0:0:0:
320,192,12295,128,0,12411:0:0:0:0:
64,192,12526,1,0,0:0:0:0:
320,192,12757,128,0,12872:0:0:0:0:
64,192,12988,1,0,0:0:0:0:
448,192,13132,128,0,13218:0:0:0:0:
320,192,13218,128,0,13334:0:0:0:0:
64,192,13449,1,0,0:0:0:0:
320,192,13680,128,0,13795:0:0:0:0:
64,192,13911,1,0,0:0:0:0:
448,192,14055,128,0,14141:0:0:0:0:
320,192,14141,128,0,14257:0:0:0:0:
64,192,14372,1,0,0:0:0:0:
320,192,14603,128,0,14718:0:0:0:0:
64,192,14834,1,0,0:0:0:0:
192,192,14949,1,0,0:0:0:0:
448,192,14978,128,0,15065:0:0:0:0:
320,192,15065,128,0,15180:0:0:0:0:
448,192,15180,1,0,0:0:0:0:
64,192,15295,1,0,0:0:0:0:
448,192,15411,1,0,0:0:0:0:
320,192,15526,128,0,15641:0:0:0:0:
192,192,15641,1,0,0:0:0:0:
64,192,15757,1,0,0:0:0:0:
192,192,15872,1,0,0:0:0:0:
448,192,15901,128,0,15988:0:0:0:0:
320,192,15988,128,0,16103:0:0:0:0:
448,192,16103,1,0,0:0:0:0:
64,192,16218,1,0,0:0:0:0:
448,192,16334,1,0,0:0:0:0:
320,192,16449,128,0,16565:0:0:0:0:
192,192,16565,1,0,0:0:0:0:
64,192,16680,1,0,0:0:0:0:
192,192,16795,1,0,0:0:0:0:
448,192,16824,128,0,16911:0:0:0:0:
320,192,16911,128,0,17026:0:0:0:0:
448,192,17026,1,0,0:0:0:0:
64,192,17141,1,0,0:0:0:0:
448,192,17257,1,0,0:0:0:0:
320,192,17372,128,0,17488:0:0:0:0:
192,192,17488,1,0,0:0:0:0:
64,192,17603,1,0,0:0:0:0:
192,192,17718,1,0,0:0:0:0:
448,192,17747,128,0,17834:0:0:0:0:
320,192,17834,128,0,17949:0:0:0:0:
448,192,17949,1,0,0:0:0:0:
64,192,18065,1,0,0:0:0:0:
448,192,18180,1,0,0:0:0:0:
320,192,18295,128,0,18411:0:0:0:0:
192,192,18411,1,0,0:0:0:0:
64,192,18526,128,0,18565:0:0:0:0:
192,192,18641,1,0,0:0:0:0:
448,192,18670,128,0,18757:0:0:0:0:
320,192,18757,128,0,18872:0:0:0:0:
448,192,18872,1,0,0:0:0:0:
64,192,18988,1,0,0:0:0:0:
448,192,19103,1,0,0:0:0:0:
320,192,19218,128,0,19334:0:0:0:0:
192,192,19334,1,0,0:0:0:0:
64,192,19449,128,0,19507:0:0:0:0:
192,192,19565,1,0,0:0:0:0:
448,192,19593,128,0,19680:0:0:0:0:
320,192,19680,128,0,19795:0:0:0:0:
448,192,19795,1,0,0:0:0:0:
64,192,19911,1,0,0:0:0:0:
448,192,20026,1,0,0:0:0:0:
320,192,20141,128,0,20257:0:0:0:0:
192,192,20257,1,0,0:0:0:0:
64,192,20372,128,0,20459:0:0:0:0:
192,192,20488,1,0,0:0:0:0:
448,192,20516,128,0,20603:0:0:0:0:
320,192,20603,128,0,20718:0:0:0:0:
448,192,20718,1,0,0:0:0:0:
64,192,20834,1,0,0:0:0:0:
448,192,20949,1,0,0:0:0:0:
320,192,21065,128,0,21180:0:0:0:0:
192,192,21180,1,0,0:0:0:0:
64,192,21295,128,0,21440:0:0:0:0:
192,192,21411,1,0,0:0:0:0:
448,192,21440,128,0,21526:0:0:0:0:
320,192,21526,128,0,21641:0:0:0:0:
448,192,21641,1,0,0:0:0:0:
64,192,21757,1,0,0:0:0:0:
448,192,21872,1,0,0:0:0:0:
320,192,21988,128,0,22103:0:0:0:0:
192,192,22103,1,0,0:0:0:0:
64,192,22218,128,0,22420:0:0:0:0:
192,192,22334,1,0,0:0:0:0:
448,192,22363,128,0,22449:0:0:0:0:
320,192,22449,128,0,22565:0:0:0:0:
448,192,22565,1,0,0:0:0:0:
64,192,22680,1,0,0:0:0:0:
448,192,22795,1,0,0:0:0:0:
320,192,22911,128,0,23026:0:0:0:0:
192,192,23026,1,0,0:0:0:0:
64,192,23141,128,0,23401:0:0:0:0:
192,192,23257,1,0,0:0:0:0:
448,192,23286,128,0,23372:0:0:0:0:
320,192,23372,128,0,23488:0:0:0:0:
448,192,23488,1,0,0:0:0:0:
64,192,23603,1,0,0:0:0:0:
448,192,23718,1,0,0:0:0:0:
320,192,23834,128,0,23949:0:0:0:0:
192,192,23949,1,0,0:0:0:0:
64,192,24065,128,0,24382:0:0:0:0:
192,192,24180,1,0,0:0:0:0:
448,192,24209,128,0,24295:0:0:0:0:
320,192,24295,128,0,24411:0:0:0:0:
448,192,24411,1,0,0:0:0:0:
64,192,24526,1,0,0:0:0:0:
448,192,24641,1,0,0:0:0:0:
320,192,24757,128,0,24872:0:0:0:0:
192,192,24872,1,0,0:0:0:0:
64,192,24988,128,0,25363:0:0:0:0:
192,192,25103,1,0,0:0:0:0:
448,192,25132,128,0,25218:0:0:0:0:
320,192,25218,128,0,25334:0:0:0:0:
448,192,25334,1,0,0:0:0:0:
64,192,25449,1,0,0:0:0:0:
448,192,25565,1,0,0:0:0:0:
320,192,25680,128,0,25795:0:0:0:0:
192,192,25795,1,0,0:0:0:0:
64,192,25911,128,0,26315:0:0:0:0:
192,192,26026,128,0,26084:0:0:0:0:
448,192,26055,128,0,26141:0:0:0:0:
320,192,26141,128,0,26257:0:0:0:0:
448,192,26257,1,0,0:0:0:0:
64,192,26372,1,0,0:0:0:0:
448,192,26488,1,0,0:0:0:0:
320,192,26603,128,0,26718:0:0:0:0:
192,192,26718,1,0,0:0:0:0:
64,192,26834,128,0,27238:0:0:0:0:
192,192,26949,128,0,27122:0:0:0:0:
448,192,26978,128,0,27065:0:0:0:0:
320,192,27065,128,0,27180:0:0:0:0:
448,192,27180,1,0,0:0:0:0:
64,192,27295,1,0,0:0:0:0:
448,192,27411,1,0,0:0:0:0:
320,192,27526,128,0,27641:0:0:0:0:
192,192,27641,1,0,0:0:0:0:
64,192,27757,128,0,28161:0:0:0:0:
192,192,27872,128,0,28161:0:0:0:0:
448,192,27901,128,0,27988:0:0:0:0:
320,192,27988,128,0,28103:0:0:0:0:
448,192,28103,1,0,0:0:0:0:
64,192,28218,1,0,0:0:0:0:
448,192,28334,1,0,0:0:0:0:
320,192,28449,128,0,28565:0:0:0:0:
192,192,28565,1,0,0:0:0:0:
64,192,28680,128,0,29084:0:0:0:0:
192,192,28795,128,0,29141:0:0:0:0:
448,192,28824,128,0,28911:0:0:0:0:
320,192,28911,128,0,29026:0:0:0:0:
448,192,29026,1,0,0:0:0:0:
64,192,29141,1,0,0:0:0:0:
448,192,29257,1,0,0:0:0:0:
320,192,29372,128,0,29488:0:0:0:0:
192,192,29488,1,0,0:0:0:0:
320,192,29834,128,0,29949:0:0:0:0:
320,192,30295,128,0,30411:0:0:0:0:
320,192,30757,128,0,30872:0:0:0:0:
320,192,31218,128,0,31334:0:0:0:0:
320,192,31680,128,0,31795:0:0:0:0:
320,192,32141,128,0,32257:0:0:0:0:
320,192,32603,128,0,32718:0:0:0:0:
320,192,33065,128,0,33180:0:0:0:0:
320,192,33526,128,0,33641:0:0:0:0:
320,192,33988,128,0,34103:0:0:0:0:
320,192,34449,128,0,34565:0:0:0:0:
320,192,34911,128,0,35026:0:0:0:0:
320,192,35372,128,0,35488:0:0:0:0:
320,192,35834,128,0,35949:0:0:0:0:
320,192,36295,128,0,36411:0:0:0:0:
320,192,36757,128,0,36872:0:0:0:0:
320,192,37218,128,0,37334:0:0:0:0:
64,192,37449,128,0,37622:0:0:0:0:
320,192,37680,128,0,37795:0:0:0:0:
64,192,37911,128,0,38084:0:0:0:0:
320,192,38141,128,0,38257:0:0:0:0:
64,192,38372,128,0,38545:0:0:0:0:
320,192,38603,128,0,38718:0:0:0:0:
192,192,38834,128,0,39065:0:0:0:0:
320,192,39065,128,0,39180:0:0:0:0:
64,192,39065,128,0,39411:0:0:0:0:
320,192,39526,128,0,39641:0:0:0:0:
64,192,39526,128,0,39699:0:0:0:0:
320,192,39988,128,0,40103:0:0:0:0:
64,192,39988,128,0,40161:0:0:0:0:
320,192,40449,128,0,40565:0:0:0:0:
64,192,40449,128,0,40565:0:0:0:0:
320,192,40911,128,0,41026:0:0:0:0:
64,192,40911,128,0,41141:0:0:0:0:
192,192,41141,128,0,41372:0:0:0:0:
320,192,41372,128,0,41488:0:0:0:0:
64,192,41372,128,0,41718:0:0:0:0:
320,192,41834,128,0,41949:0:0:0:0:
64,192,41834,128,0,42065:0:0:0:0:
192,192,42065,128,0,42295:0:0:0:0:
320,192,42295,128,0,42411:0:0:0:0:
64,192,42295,128,0,42468:0:0:0:0:
64,192,42526,128,0,42699:0:0:0:0:
320,192,42757,128,0,42872:0:0:0:0:
192,192,42757,128,0,43103:0:0:0:0:
64,192,43218,128,0,43622:0:0:0:0:
320,192,43218,128,0,43334:0:0:0:0:
320,192,43680,128,0,43795:0:0:0:0:
64,192,43680,128,0,43795:0:0:0:0:
64,192,43911,128,0,44315:0:0:0:0:
320,192,44141,128,0,44257:0:0:0:0:
192,192,44141,128,0,44315:0:0:0:0:
64,192,44372,128,0,44430:0:0:0:0:
192,192,44372,128,0,44430:0:0:0:0:
320,192,44603,128,0,44718:0:0:0:0:
64,192,44834,128,0,45007:0:0:0:0:
320,192,45065,128,0,45180:0:0:0:0:
64,192,45295,128,0,45468:0:0:0:0:
320,192,45526,128,0,45641:0:0:0:0:
64,192,45757,128,0,45930:0:0:0:0:
320,192,45988,128,0,46103:0:0:0:0:
192,192,46218,128,0,46449:0:0:0:0:
320,192,46449,128,0,46565:0:0:0:0:
64,192,46449,128,0,46795:0:0:0:0:
320,192,46911,128,0,47026:0:0:0:0:
64,192,46911,128,0,47084:0:0:0:0:
320,192,47372,128,0,47488:0:0:0:0:
64,192,47372,128,0,47545:0:0:0:0:
320,192,47834,128,0,47949:0:0:0:0:
64,192,47834,128,0,47949:0:0:0:0:
320,192,48295,128,0,48411:0:0:0:0:
192,192,48295,128,0,48526:0:0:0:0:
64,192,48526,128,0,48757:0:0:0:0:
192,192,48757,128,0,48988:0:0:0:0:
320,192,48757,128,0,48872:0:0:0:0:
320,192,49218,128,0,49334:0:0:0:0:
64,192,49218,128,0,49449:0:0:0:0:
192,192,49449,128,0,49680:0:0:0:0:
320,192,49680,128,0,49795:0:0:0:0:
64,192,49680,128,0,49853:0:0:0:0:
64,192,49911,128,0,50084:0:0:0:0:
320,192,50141,128,0,50257:0:0:0:0:
192,192,50141,128,0,50488:0:0:0:0:
320,192,50603,128,0,50718:0:0:0:0:
64,192,50603,128,0,51007:0:0:0:0:
320,192,51065,128,0,51180:0:0:0:0:
64,192,51065,128,0,51180:0:0:0:0:
64,192,51295,128,0,51699:0:0:0:0:
320,192,51526,128,0,51641:0:0:0:0:
192,192,51526,128,0,51699:0:0:0:0:
192,192,51757,128,0,51815:0:0:0:0:
64,192,51757,1,0,0:0:0:0:
448,192,51872,1,0,0:0:0:0:
320,192,51988,128,0,52103:0:0:0:0:
192,192,52103,1,0,0:0:0:0:
64,192,52218,128,0,52391:0:0:0:0:
192,192,52334,1,0,0:0:0:0:
320,192,52449,128,0,52565:0:0:0:0:
448,192,52565,1,0,0:0:0:0:
64,192,52680,128,0,52853:0:0:0:0:
448,192,52795,1,0,0:0:0:0:
320,192,52911,128,0,53026:0:0:0:0:
192,192,53026,1,0,0:0:0:0:
64,192,53141,128,0,53315:0:0:0:0:
192,192,53257,1,0,0:0:0:0:
320,192,53372,128,0,53488:0:0:0:0:
448,192,53488,1,0,0:0:0:0:
64,192,53603,128,0,53834:0:0:0:0:
448,192,53718,1,0,0:0:0:0:
320,192,53834,128,0,54180:0:0:0:0:
192,192,53949,1,0,0:0:0:0:
64,192,54065,1,0,0:0:0:0:
192,192,54180,1,0,0:0:0:0:
320,192,54295,128,0,54468:0:0:0:0:
448,192,54411,1,0,0:0:0:0:
64,192,54526,1,0,0:0:0:0:
448,192,54641,1,0,0:0:0:0:
320,192,54757,128,0,54930:0:0:0:0:
192,192,54872,1,0,0:0:0:0:
64,192,54988,1,0,0:0:0:0:
192,192,55103,1,0,0:0:0:0:
320,192,55218,128,0,55334:0:0:0:0:
448,192,55334,1,0,0:0:0:0:
64,192,55449,1,0,0:0:0:0:
448,192,55565,1,0,0:0:0:0:
320,192,55680,128,0,55911:0:0:0:0:
192,192,55795,1,0,0:0:0:0:
64,192,55911,128,0,56141:0:0:0:0:
192,192,56026,1,0,0:0:0:0:
320,192,56141,128,0,56488:0:0:0:0:
448,192,56257,1,0,0:0:0:0:
64,192,56372,1,0,0:0:0:0:
448,192,56488,1,0,0:0:0:0:
320,192,56603,128,0,56834:0:0:0:0:
192,192,56718,1,0,0:0:0:0:
64,192,56834,128,0,57065:0:0:0:0:
192,192,56949,1,0,0:0:0:0:
320,192,57065,128,0,57238:0:0:0:0:
448,192,57180,1,0,0:0:0:0:
64,192,57295,128,0,57468:0:0:0:0:
448,192,57411,1,0,0:0:0:0:
320,192,57526,128,0,57872:0:0:0:0:
192,192,57641,1,0,0:0:0:0:
64,192,57757,1,0,0:0:0:0:
192,192,57872,1,0,0:0:0:0:
320,192,57988,128,0,58391:0:0:0:0:
448,192,58103,1,0,0:0:0:0:
64,192,58218,1,0,0:0:0:0:
448,192,58334,1,0,0:0:0:0:
320,192,58449,128,0,58565:0:0:0:0:
192,192,58565,1,0,0:0:0:0:
64,192,58680,128,0,59084:0:0:0:0:
192,192,58795,1,0,0:0:0:0:
320,192,58911,128,0,59084:0:0:0:0:
448,192,59026,1,0,0:0:0:0:
64,192,59141,128,0,59199:0:0:0:0:
448,192,59257,1,0,0:0:0:0:
320,192,59372,128,0,59488:0:0:0:0:
192,192,59488,1,0,0:0:0:0:
64,192,59603,128,0,59776:0:0:0:0:
192,192,59718,1,0,0:0:0:0:
320,192,59834,128,0,59949:0:0:0:0:
448,192,59949,1,0,0:0:0:0:
64,192,60065,128,0,60238:0:0:0:0:
448,192,60180,1,0,0:0:0:0:
320,192,60295,128,0,60411:0:0:0:0:
192,192,60411,1,0,0:0:0:0:
64,192,60526,128,0,60699:0:0:0:0:
192,192,60641,1,0,0:0:0:0:
320,192,60757,128,0,60872:0:0:0:0:
448,192,60872,1,0,0:0:0:0:
64,192,60988,128,0,61218:0:0:0:0:
448,192,61103,1,0,0:0:0:0:
320,192,61218,128,0,61565:0:0:0:0:
192,192,61334,1,0,0:0:0:0:
64,192,61449,1,0,0:0:0:0:
192,192,61565,1,0,0:0:0:0:
320,192,61680,128,0,61853:0:0:0:0:
448,192,61795,1,0,0:0:0:0:
64,192,61911,1,0,0:0:0:0:
448,192,62026,1,0,0:0:0:0:
320,192,62141,128,0,62315:0:0:0:0:
192,192,62257,1,0,0:0:0:0:
64,192,62372,1,0,0:0:0:0:
192,192,62488,1,0,0:0:0:0:
320,192,62603,128,0,62718:0:0:0:0:
448,192,62718,1,0,0:0:0:0:
64,192,62834,1,0,0:0:0:0:
448,192,62949,1,0,0:0:0:0:
320,192,63065,128,0,63295:0:0:0:0:
192,192,63180,1,0,0:0:0:0:
64,192,63295,128,0,63526:0:0:0:0:
192,192,63411,1,0,0:0:0:0:
320,192,63526,128,0,63757:0:0:0:0:
448,192,63641,1,0,0:0:0:0:
64,192,63757,1,0,0:0:0:0:
448,192,63872,1,0,0:0:0:0:
320,192,63988,128,0,64218:0:0:0:0:
192,192,64103,1,0,0:0:0:0:
64,192,64218,128,0,64449:0:0:0:0:
192,192,64334,1,0,0:0:0:0:
320,192,64449,128,0,64622:0:0:0:0:
448,192,64565,1,0,0:0:0:0:
64,192,64680,128,0,64853:0:0:0:0:
448,192,64795,1,0,0:0:0:0:
320,192,64911,128,0,65257:0:0:0:0:
192,192,65026,1,0,0:0:0:0:
64,192,65141,1,0,0:0:0:0:
192,192,65257,1,0,0:0:0:0:
320,192,65372,128,0,65776:0:0:0:0:
448,192,65488,1,0,0:0:0:0:
64,192,65603,1,0,0:0:0:0:
448,192,65718,1,0,0:0:0:0:
320,192,65834,128,0,65949:0:0:0:0:
192,192,65949,1,0,0:0:0:0:
64,192,66065,128,0,66468:0:0:0:0:
192,192,66180,1,0,0:0:0:0:
320,192,66295,128,0,66468:0:0:0:0:
448,192,66411,1,0,0:0:0:0:
64,192,66526,128,0,66584:0:0:0:0:
192,192,66526,1,0,0:0:0:0:
448,192,66641,1,0,0:0:0:0:
320,192,66757,128,0,66872:0:0:0:0:
64,192,66988,1,0,0:0:0:0:
320,192,67218,128,0,67334:0:0:0:0:
448,192,67334,128,0,67391:0:0:0:0:
64,192,67449,1,0,0:0:0:0:
448,192,67565,1,0,0:0:0:0:
320,192,67680,128,0,67795:0:0:0:0:
64,192,67911,1,0,0:0:0:0:
320,192,68141,128,0,68257:0:0:0:0:
448,192,68257,128,0,68315:0:0:0:0:
64,192,68372,1,0,0:0:0:0:
448,192,68488,1,0,0:0:0:0:
320,192,68603,128,0,68718:0:0:0:0:
64,192,68834,1,0,0:0:0:0:
320,192,69065,128,0,69180:0:0:0:0:
448,192,69180,128,0,69238:0:0:0:0:
64,192,69295,1,0,0:0:0:0:
448,192,69411,1,0,0:0:0:0:
64,192,69526,128,0,69641:0:0:0:0:
320,192,69526,128,0,69641:0:0:0:0:
64,192,69757,128,0,70161:0:0:0:0:
320,192,69988,128,0,70103:0:0:0:0:
192,192,69988,128,0,70161:0:0:0:0:
192,192,70218,128,0,70276:0:0:0:0:
64,192,70218,1,0,0:0:0:0:
448,192,70334,1,0,0:0:0:0:
320,192,70449,128,0,70565:0:0:0:0:
64,192,70680,1,0,0:0:0:0:
320,192,70911,128,0,71026:0:0:0:0:
448,192,71026,128,0,71084:0:0:0:0:
64,192,71141,1,0,0:0:0:0:
448,192,71257,1,0,0:0:0:0:
320,192,71372,128,0,71488:0:0:0:0:
64,192,71603,1,0,0:0:0:0:
320,192,71834,128,0,71949:0:0:0:0:
448,192,71949,128,0,72007:0:0:0:0:
64,192,72065,1,0,0:0:0:0:
448,192,72180,1,0,0:0:0:0:
320,192,72295,128,0,72411:0:0:0:0:
64,192,72526,1,0,0:0:0:0:
320,192,72757,128,0,72872:0:0:0:0:
448,192,72872,128,0,72930:0:0:0:0:
64,192,72988,1,0,0:0:0:0:
448,192,73103,1,0,0:0:0:0:
64,192,73218,128,0,73334:0:0:0:0:
320,192,73218,128,0,73334:0:0:0:0:
64,192,73449,128,0,73853:0:0:0:0:
320,192,73680,128,0,73795:0:0:0:0:
192,192,73680,128,0,73853:0:0:0:0:
64,192,73911,1,0,0:0:0:0:
192,192,73911,128,0,73968:0:0:0:0:
448,192,74026,1,0,0:0:0:0:
320,192,74141,128,0,74257:0:0:0:0:
64,192,74372,1,0,0:0:0:0:
320,192,74603,128,0,74718:0:0:0:0:
448,192,74718,128,0,74776:0:0:0:0:
64,192,74834,1,0,0:0:0:0:
448,192,74949,1,0,0:0:0:0:
320,192,75065,128,0,75180:0:0:0:0:
64,192,75295,1,0,0:0:0:0:
320,192,75526,128,0,75641:0:0:0:0:
448,192,75641,128,0,75699:0:0:0:0:
64,192,75757,1,0,0:0:0:0:
448,192,75872,1,0,0:0:0:0:
320,192,75988,128,0,76103:0:0:0:0:
64,192,76218,1,0,0:0:0:0:
320,192,76449,128,0,76565:0:0:0:0:
448,192,76565,128,0,76622:0:0:0:0:
64,192,76680,1,0,0:0:0:0:
448,192,76795,1,0,0:0:0:0:
64,192,76911,128,0,77026:0:0:0:0:
320,192,76911,128,0,77026:0:0:0:0:
64,192,77141,128,0,77545:0:0:0:0:
320,192,77372,128,0,77488:0:0:0:0:
192,192,77372,128,0,77545:0:0:0:0:
192,192,77603,128,0,77661:0:0:0:0:
64,192,77603,1,0,0:0:0:0:
448,192,77718,1,0,0:0:0:0:
320,192,77834,128,0,77949:0:0:0:0:
64,192,78065,1,0,0:0:0:0:
320,192,78295,128,0,78411:0:0:0:0:
448,192,78411,128,0,78468:0:0:0:0:
64,192,78526,1,0,0:0:0:0:
448,192,78641,1,0,0:0:0:0:
320,192,78757,128,0,78872:0:0:0:0:
64,192,78988,1,0,0:0:0:0:
320,192,79218,128,0,79334:0:0:0:0:
448,192,79334,128,0,79391:0:0:0:0:
64,192,79449,1,0,0:0:0:0:
448,192,79565,1,0,0:0:0:0:
320,192,79680,128,0,79795:0:0:0:0:
64,192,79911,1,0,0:0:0:0:
320,192,80141,128,0,80257:0:0:0:0:
448,192,80257,128,0,80315:0:0:0:0:
64,192,80372,1,0,0:0:0:0:
448,192,80488,1,0,0:0:0:0:
64,192,80603,128,0,80718:0:0:0:0:
320,192,80603,128,0,80718:0:0:0:0:
64,192,80834,128,0,81238:0:0:0:0:
320,192,81065,128,0,81180:0:0:0:0:
192,192,81065,128,0,81238:0:0:0:0:
192,192,81295,128,0,81353:0:0:0:0:
64,192,81411,1,0,0:0:0:0:
320,192,81526,128,0,81565:0:0:0:0:
192,192,81757,1,0,0:0:0:0:
320,192,81988,128,0,82026:0:0:0:0:
448,192,82103,128,0,82161:0:0:0:0:
192,192,82218,1,0,0:0:0:0:
64,192,82334,1,0,0:0:0:0:
320,192,82449,128,0,82488:0:0:0:0:
192,192,82680,1,0,0:0:0:0:
320,192,82911,128,0,82949:0:0:0:0:
448,192,83026,128,0,83084:0:0:0:0:
192,192,83141,1,0,0:0:0:0:
64,192,83257,1,0,0:0:0:0:
320,192,83372,128,0,83411:0:0:0:0:
192,192,83603,1,0,0:0:0:0:
320,192,83834,128,0,83872:0:0:0:0:
448,192,83949,128,0,84007:0:0:0:0:
192,192,84065,1,0,0:0:0:0:
64,192,84180,1,0,0:0:0:0:
320,192,84295,128,0,84334:0:0:0:0:
64,192,84295,128,0,84411:0:0:0:0:
64,192,84526,128,0,84930:0:0:0:0:
320,192,84757,128,0,84795:0:0:0:0:
192,192,84757,128,0,84930:0:0:0:0:
192,192,84988,128,0,85045:0:0:0:0:
64,192,85103,1,0,0:0:0:0:
320,192,85218,128,0,85257:0:0:0:0:
192,192,85449,128,0,85507:0:0:0:0:
320,192,85680,128,0,85718:0:0:0:0:
448,192,85795,128,0,85853:0:0:0:0:
192,192,85911,128,0,85997:0:0:0:0:
64,192,86026,1,0,0:0:0:0:
320,192,86141,128,0,86180:0:0:0:0:
192,192,86372,128,0,86459:0:0:0:0:
320,192,86603,128,0,86641:0:0:0:0:
448,192,86718,128,0,86776:0:0:0:0:
192,192,86834,128,0,86978:0:0:0:0:
64,192,86949,1,0,0:0:0:0:
320,192,87065,128,0,87103:0:0:0:0:
192,192,87295,128,0,87440:0:0:0:0:
320,192,87526,128,0,87565:0:0:0:0:
448,192,87641,128,0,87699:0:0:0:0:
192,192,87757,128,0,87930:0:0:0:0:
64,192,87872,1,0,0:0:0:0:
320,192,87988,128,0,88026:0:0:0:0:
64,192,87988,128,0,88103:0:0:0:0:
64,192,88218,128,0,88622:0:0:0:0:
320,192,88449,128,0,88488:0:0:0:0:
192,192,88449,128,0,88622:0:0:0:0:
192,192,88680,128,0,88997:0:0:0:0:
64,192,88795,1,0,0:0:0:0:
320,192,88911,128,0,88949:0:0:0:0:
192,192,89141,128,0,89459:0:0:0:0:
320,192,89372,128,0,89411:0:0:0:0:
448,192,89488,128,0,89545:0:0:0:0:
192,192,89603,128,0,89949:0:0:0:0:
64,192,89718,1,0,0:0:0:0:
320,192,89834,128,0,89872:0:0:0:0:
192,192,90065,128,0,90411:0:0:0:0:
320,192,90295,128,0,90334:0:0:0:0:
448,192,90411,128,0,90468:0:0:0:0:
192,192,90526,128,0,90901:0:0:0:0:
64,192,90641,1,0,0:0:0:0:
320,192,90757,128,0,90795:0:0:0:0:
192,192,90988,128,0,91363:0:0:0:0:
320,192,91218,128,0,91257:0:0:0:0:
448,192,91334,128,0,91391:0:0:0:0:
192,192,91449,128,0,91940:0:0:0:0:
64,192,91565,1,0,0:0:0:0:
320,192,91680,128,0,91718:0:0:0:0:
64,192,91680,128,0,91795:0:0:0:0:
64,192,91911,128,0,92315:0:0:0:0:
320,192,92141,128,0,92180:0:0:0:0:
192,192,92141,128,0,92315:0:0:0:0:
192,192,92372,128,0,92747:0:0:0:0:
64,192,92488,1,0,0:0:0:0:
320,192,92603,128,0,92641:0:0:0:0:
192,192,92834,128,0,93209:0:0:0:0:
320,192,93065,128,0,93103:0:0:0:0:
448,192,93180,128,0,93238:0:0:0:0:
192,192,93295,128,0,93699:0:0:0:0:
64,192,93411,1,0,0:0:0:0:
320,192,93526,128,0,93565:0:0:0:0:
192,192,93757,128,0,94161:0:0:0:0:
320,192,93988,128,0,94026:0:0:0:0:
448,192,94103,128,0,94161:0:0:0:0:
192,192,94218,128,0,94622:0:0:0:0:
64,192,94334,1,0,0:0:0:0:
320,192,94449,128,0,94488:0:0:0:0:
192,192,94680,128,0,95084:0:0:0:0:
320,192,94911,128,0,94949:0:0:0:0:
448,192,95026,128,0,95084:0:0:0:0:
192,192,95141,128,0,95603:0:0:0:0:
64,192,95257,1,0,0:0:0:0:
64,192,95372,128,0,95488:0:0:0:0:
64,192,95603,128,0,96007:0:0:0:0:
192,192,95834,128,0,96007:0:0:0:0:
192,192,96065,128,0,96122:0:0:0:0:
64,192,96065,1,0,0:0:0:0:
448,192,96295,128,0,96526:0:0:0:0:
320,192,96411,128,0,96641:0:0:0:0:
192,192,96526,128,0,96757:0:0:0:0:
64,192,96526,128,0,96988:0:0:0:0:
448,192,96641,128,0,96872:0:0:0:0:
320,192,96757,128,0,96872:0:0:0:0:
192,192,96872,128,0,97103:0:0:0:0:
320,192,96988,128,0,97218:0:0:0:0:
448,192,96988,128,0,97449:0:0:0:0:
64,192,97103,128,0,97334:0:0:0:0:
192,192,97218,128,0,97334:0:0:0:0:
320,192,97334,128,0,97565:0:0:0:0:
192,192,97449,128,0,97680:0:0:0:0:
64,192,97449,128,0,97911:0:0:0:0:
448,192,97565,128,0,97795:0:0:0:0:
320,192,97680,128,0,97795:0:0:0:0:
192,192,97795,128,0,98026:0:0:0:0:
320,192,97911,128,0,98180:0:0:0:0:
448,192,97911,128,0,98411:0:0:0:0:
64,192,98026,128,0,98295:0:0:0:0:
192,192,98141,128,0,98295:0:0:0:0:
320,192,98257,128,0,98526:0:0:0:0:
192,192,98372,128,0,98641:0:0:0:0:
64,192,98372,128,0,98872:0:0:0:0:
448,192,98488,128,0,98757:0:0:0:0:
320,192,98603,128,0,98757:0:0:0:0:
192,192,98718,128,0,98988:0:0:0:0:
448,192,98834,128,0,99334:0:0:0:0:
320,192,98834,128,0,99103:0:0:0:0:
64,192,98949,128,0,99218:0:0:0:0:
192,192,99065,128,0,99218:0:0:0:0:
320,192,99180,128,0,99449:0:0:0:0:
64,192,99295,128,0,99795:0:0:0:0:
192,192,99295,128,0,99565:0:0:0:0:
448,192,99411,128,0,99680:0:0:0:0:
320,192,99526,128,0,99680:0:0:0:0:
192,192,99641,128,0,99930:0:0:0:0:
320,192,99757,128,0,100045:0:0:0:0:
448,192,99757,128,0,100276:0:0:0:0:
64,192,99872,128,0,100161:0:0:0:0:
192,192,99988,128,0,100161:0:0:0:0:
320,192,100103,128,0,100391:0:0:0:0:
192,192,100218,128,0,100507:0:0:0:0:
64,192,100218,128,0,100738:0:0:0:0:
448,192,100334,128,0,100622:0:0:0:0:
320,192,100449,128,0,100622:0:0:0:0:
192,192,100565,128,0,100853:0:0:0:0:
320,192,100680,128,0,100968:0:0:0:0:
448,192,100680,128,0,101199:0:0:0:0:
64,192,100795,128,0,101084:0:0:0:0:
192,192,100911,128,0,101084:0:0:0:0:
320,192,101026,128,0,101315:0:0:0:0:
192,192,101141,128,0,101430:0:0:0:0:
64,192,101141,128,0,101661:0:0:0:0:
448,192,101257,128,0,101545:0:0:0:0:
320,192,101372,128,0,101545:0:0:0:0:
192,192,101488,128,0,101776:0:0:0:0:
320,192,101603,128,0,101891:0:0:0:0:
448,192,101603,128,0,102122:0:0:0:0:
64,192,101718,128,0,102007:0:0:0:0:
192,192,101834,128,0,102007:0:0:0:0:
320,192,101949,128,0,102238:0:0:0:0:
192,192,102065,128,0,102353:0:0:0:0:
64,192,102065,128,0,102584:0:0:0:0:
448,192,102180,128,0,102468:0:0:0:0:
320,192,102295,128,0,102468:0:0:0:0:
192,192,102411,128,0,102699:0:0:0:0:
320,192,102526,128,0,102815:0:0:0:0:
448,192,102526,128,0,103103:0:0:0:0:
64,192,102641,128,0,102930:0:0:0:0:
192,192,102757,128,0,102930:0:0:0:0:
320,192,102872,128,0,103218:0:0:0:0:
192,192,102988,128,0,103334:0:0:0:0:
64,192,102988,128,0,103449:0:0:0:0:
320,192,103449,1,0,0:0:0:0:
448,192,103449,1,0,0:0:0:0:
64,192,103911,1,0,0:0:0:0:
192,192,103911,1,0,0:0:0:0:
448,192,104372,1,0,0:0:0:0:
320,192,104372,1,0,0:0:0:0:
192,192,104834,1,0,0:0:0:0:
64,192,104834,1,0,0:0:0:0:
448,192,105295,1,0,0:0:0:0:
320,192,105295,1,0,0:0:0:0:
64,192,105757,1,0,0:0:0:0:
192,192,105757,1,0,0:0:0:0:
320,192,106218,1,0,0:0:0:0:
448,192,106218,1,0,0:0:0:0:
64,192,106680,1,0,0:0:0:0:
192,192,106680,1,0,0:0:0:0:
320,192,107141,1,0,0:0:0:0:
448,192,107141,1,0,0:0:0:0:
192,192,107603,1,0,0:0:0:0:
64,192,107603,1,0,0:0:0:0:
448,192,108065,1,0,0:0:0:0:
320,192,108065,1,0,0:0:0:0:
192,192,108526,1,0,0:0:0:0:
64,192,108526,1,0,0:0:0:0:
448,192,108988,1,0,0:0:0:0:
320,192,108988,1,0,0:0:0:0:
64,192,109449,1,0,0:0:0:0:
192,192,109449,1,0,0:0:0:0:
320,192,109911,1,0,0:0:0:0:
448,192,109911,1,0,0:0:0:0:
64,192,110141,128,0,110257:0:0:0:0:
64,192,110372,128,0,110776:0:0:0:0:
192,192,110372,1,0,0:0:0:0:
192,192,110603,128,0,110776:0:0:0:0:
192,192,110834,128,0,110891:0:0:0:0:
64,192,110834,1,0,0:0:0:0:
192,192,110949,1,0,0:0:0:0:
320,192,111065,128,0,111180:0:0:0:0:
448,192,111180,128,0,111526:0:0:0:0:
64,192,111295,1,0,0:0:0:0:
192,192,111295,128,0,111641:0:0:0:0:
64,192,111411,128,0,111641:0:0:0:0:
320,192,111526,128,0,111641:0:0:0:0:
448,192,111641,128,0,111988:0:0:0:0:
64,192,111757,1,0,0:0:0:0:
192,192,111757,128,0,112103:0:0:0:0:
64,192,111872,128,0,112103:0:0:0:0:
320,192,111988,128,0,112103:0:0:0:0:
448,192,112103,128,0,112449:0:0:0:0:
64,192,112218,1,0,0:0:0:0:
192,192,112218,128,0,112565:0:0:0:0:
64,192,112334,128,0,112565:0:0:0:0:
320,192,112449,128,0,112565:0:0:0:0:
448,192,112565,128,0,112949:0:0:0:0:
64,192,112680,128,0,112718:0:0:0:0:
192,192,112680,128,0,113065:0:0:0:0:
64,192,112795,128,0,113065:0:0:0:0:
320,192,112911,128,0,113026:0:0:0:0:
448,192,113026,128,0,113411:0:0:0:0:
64,192,113141,128,0,113180:0:0:0:0:
192,192,113141,128,0,113526:0:0:0:0:
64,192,113257,128,0,113526:0:0:0:0:
320,192,113372,128,0,113488:0:0:0:0:
448,192,113488,128,0,113872:0:0:0:0:
64,192,113603,128,0,113641:0:0:0:0:
192,192,113603,128,0,113988:0:0:0:0:
64,192,113718,128,0,113988:0:0:0:0:
320,192,113834,128,0,113949:0:0:0:0:
448,192,113949,128,0,114334:0:0:0:0:
192,192,114065,128,0,114334:0:0:0:0:
64,192,114065,128,0,114103:0:0:0:0:
64,192,114180,128,0,114449:0:0:0:0:
320,192,114295,128,0,114411:0:0:0:0:
448,192,114411,128,0,114584:0:0:0:0:
64,192,114526,128,0,114930:0:0:0:0:
192,192,114526,128,0,114815:0:0:0:0:
448,192,114641,128,0,115045:0:0:0:0:
320,192,114757,128,0,114872:0:0:0:0:
192,192,114872,128,0,114930:0:0:0:0:
64,192,114988,128,0,115391:0:0:0:0:
192,192,114988,128,0,115276:0:0:0:0:
448,192,115103,128,0,115507:0:0:0:0:
320,192,115218,128,0,115334:0:0:0:0:
192,192,115334,128,0,115391:0:0:0:0:
64,192,115449,128,0,115853:0:0:0:0:
192,192,115449,128,0,115738:0:0:0:0:
448,192,115565,128,0,115968:0:0:0:0:
320,192,115680,128,0,115795:0:0:0:0:
192,192,115795,128,0,115853:0:0:0:0:
64,192,115911,128,0,116315:0:0:0:0:
192,192,115911,128,0,116199:0:0:0:0:
448,192,116026,128,0,116430:0:0:0:0:
320,192,116141,128,0,116257:0:0:0:0:
192,192,116257,128,0,116315:0:0:0:0:
64,192,116372,128,0,116776:0:0:0:0:
192,192,116372,128,0,116661:0:0:0:0:
448,192,116488,128,0,116891:0:0:0:0:
320,192,116603,128,0,116718:0:0:0:0:
192,192,116718,128,0,116776:0:0:0:0:
64,192,116834,128,0,117238:0:0:0:0:
192,192,116834,128,0,117122:0:0:0:0:
448,192,116949,128,0,117353:0:0:0:0:
320,192,117065,128,0,117180:0:0:0:0:
192,192,117180,128,0,117238:0:0:0:0:
64,192,117295,128,0,117699:0:0:0:0:
192,192,117295,128,0,117584:0:0:0:0:
448,192,117411,128,0,117815:0:0:0:0:
320,192,117526,128,0,117641:0:0:0:0:
192,192,117641,128,0,117699:0:0:0:0:
64,192,117757,128,0,118161:0:0:0:0:
192,192,117757,128,0,118045:0:0:0:0:
448,192,117872,128,0,118449:0:0:0:0:
320,192,117988,128,0,118103:0:0:0:0:
192,192,118103,128,0,118161:0:0:0:0:
64,192,118218,128,0,118622:0:0:0:0:
192,192,118218,128,0,118507:0:0:0:0:
320,192,118449,128,0,118565:0:0:0:0:
64,192,118680,1,0,0:0:0:0:
192,192,118680,1,0,0:0:0:0:
320,192,118911,128,0,119026:0:0:0:0:
64,192,119141,1,0,0:0:0:0:
192,192,119141,1,0,0:0:0:0:
320,192,119372,128,0,119488:0:0:0:0:
64,192,119603,1,0,0:0:0:0:
192,192,119603,1,0,0:0:0:0:
320,192,119834,128,0,119949:0:0:0:0:
64,192,120065,1,0,0:0:0:0:
192,192,120065,1,0,0:0:0:0:
320,192,120295,128,0,120411:0:0:0:0:
64,192,120526,1,0,0:0:0:0:
192,192,120526,1,0,0:0:0:0:
320,192,120757,128,0,120872:0:0:0:0:
64,192,120988,1,0,0:0:0:0:
192,192,120988,1,0,0:0:0:0:
320,192,121218,128,0,121334:0:0:0:0:
64,192,121449,1,0,0:0:0:0:
192,192,121449,1,0,0:0:0:0:
320,192,121680,128,0,121795:0:0:0:0:
64,192,121911,1,0,0:0:0:0:
192,192,121911,1,0,0:0:0:0:
320,192,122141,128,0,122257:0:0:0:0:
64,192,122372,1,0,0:0:0:0:
192,192,122372,1,0,0:0:0:0:
320,192,122603,128,0,122718:0:0:0:0:
64,192,122834,1,0,0:0:0:0:
192,192,122834,1,0,0:0:0:0:
320,192,123065,128,0,123180:0:0:0:0:
64,192,123295,1,0,0:0:0:0:
192,192,123295,1,0,0:0:0:0:
320,192,123526,128,0,123641:0:0:0:0:
64,192,123757,1,0,0:0:0:0:
192,192,123757,1,0,0:0:0:0:
320,192,123988,128,0,124103:0:0:0:0:
64,192,124218,1,0,0:0:0:0:
192,192,124218,1,0,0:0:0:0:
320,192,124449,128,0,124565:0:0:0:0:
64,192,124680,1,0,0:0:0:0:
192,192,124680,1,0,0:0:0:0:
64,192,124911,128,0,125026:0:0:0:0:
320,192,124911,128,0,125026:0:0:0:0:
192,192,125141,1,0,0:0:0:0:
64,192,125141,128,0,125545:0:0:0:0:
320,192,125372,128,0,125488:0:0:0:0:
192,192,125372,128,0,125545:0:0:0:0:
64,192,125603,1,0,0:0:0:0:
192,192,125603,128,0,125661:0:0:0:0:
448,192,125718,1,0,0:0:0:0:
320,192,125834,128,0,125949:0:0:0:0:
192,192,125949,128,0,126411:0:0:0:0:
448,192,126065,128,0,126295:0:0:0:0:
320,192,126065,128,0,126180:0:0:0:0:
64,192,126180,128,0,126411:0:0:0:0:
320,192,126295,128,0,126411:0:0:0:0:
448,192,126411,128,0,126526:0:0:0:0:
64,192,126526,128,0,126988:0:0:0:0:
192,192,126526,128,0,126757:0:0:0:0:
448,192,126641,128,0,126872:0:0:0:0:
320,192,126757,128,0,126872:0:0:0:0:
192,192,126872,128,0,127334:0:0:0:0:
448,192,126988,128,0,127218:0:0:0:0:
320,192,126988,128,0,127103:0:0:0:0:
64,192,127103,128,0,127334:0:0:0:0:
320,192,127218,128,0,127334:0:0:0:0:
448,192,127334,128,0,127449:0:0:0:0:
64,192,127449,128,0,127718:0:0:0:0:
192,192,127449,128,0,127949:0:0:0:0:
448,192,127565,128,0,127834:0:0:0:0:
320,192,127680,128,0,127795:0:0:0:0:
64,192,127795,128,0,128295:0:0:0:0:
448,192,127911,128,0,128180:0:0:0:0:
320,192,127911,128,0,128065:0:0:0:0:
192,192,128026,128,0,128295:0:0:0:0:
320,192,128141,128,0,128257:0:0:0:0:
448,192,128257,128,0,128411:0:0:0:0:
192,192,128372,128,0,128872:0:0:0:0:
64,192,128372,128,0,128641:0:0:0:0:
448,192,128488,128,0,128757:0:0:0:0:
320,192,128603,128,0,128718:0:0:0:0:
64,192,128718,128,0,129218:0:0:0:0:
448,192,128834,128,0,129103:0:0:0:0:
320,192,128834,128,0,128988:0:0:0:0:
192,192,128949,128,0,129218:0:0:0:0:
320,192,129065,128,0,129180:0:0:0:0:
448,192,129180,128,0,129353:0:0:0:0:
64,192,129295,128,0,130161:0:0:0:0:
192,192,129295,128,0,129584:0:0:0:0:
448,192,129411,128,0,129699:0:0:0:0:
320,192,129526,128,0,129641:0:0:0:0:
192,192,129641,128,0,129815:0:0:0:0:
448,192,129757,128,0,130045:0:0:0:0:
320,192,129757,128,0,129930:0:0:0:0:
192,192,129872,128,0,130161:0:0:0:0:
320,192,129988,128,0,130103:0:0:0:0:
448,192,130103,128,0,130276:0:0:0:0:
64,192,130218,128,0,131084:0:0:0:0:
192,192,130218,128,0,130507:0:0:0:0:
448,192,130334,128,0,130622:0:0:0:0:
320,192,130449,128,0,130565:0:0:0:0:
192,192,130565,128,0,130738:0:0:0:0:
448,192,130680,128,0,130968:0:0:0:0:
320,192,130680,128,0,130853:0:0:0:0:
192,192,130795,128,0,131084:0:0:0:0:
320,192,130911,128,0,131026:0:0:0:0:
448,192,131026,128,0,131199:0:0:0:0:
192,192,131141,128,0,131430:0:0:0:0:
64,192,131141,128,0,132007:0:0:0:0:
448,192,131257,128,0,131545:0:0:0:0:
320,192,131372,128,0,131488:0:0:0:0:
192,192,131488,128,0,131661:0:0:0:0:
448,192,131603,128,0,131891:0:0:0:0:
320,192,131603,128,0,131776:0:0:0:0:
192,192,131718,128,0,132007:0:0:0:0:
320,192,131834,128,0,131949:0:0:0:0:
448,192,131949,128,0,132122:0:0:0:0:
192,192,132065,128,0,132353:0:0:0:0:
64,192,132065,128,0,132930:0:0:0:0:
448,192,132180,128,0,132468:0:0:0:0:
320,192,132295,128,0,132411:0:0:0:0:
192,192,132411,128,0,132584:0:0:0:0:
448,192,132526,128,0,132815:0:0:0:0:
320,192,132526,128,0,132699:0:0:0:0:
192,192,132641,128,0,132930:0:0:0:0:
320,192,132757,128,0,132872:0:0:0:0:
448,192,132872,128,0,133045:0:0:0:0:
192,192,132988,128,0,133161:0:0:0:0:
64,192,132988,128,0,133276:0:0:0:0:
448,192,133103,1,0,0:0:0:0:
320,192,133218,128,0,133334:0:0:0:0:
64,192,133334,1,0,0:0:0:0:
320,192,133449,128,0,133622:0:0:0:0:
448,192,133449,1,0,0:0:0:0:
64,192,133565,1,0,0:0:0:0:
320,192,133680,128,0,133795:0:0:0:0:
448,192,133795,1,0,0:0:0:0:
192,192,133911,128,0,134084:0:0:0:0:
64,192,133911,1,0,0:0:0:0:
448,192,134026,1,0,0:0:0:0:
320,192,134141,128,0,134257:0:0:0:0:
64,192,134257,1,0,0:0:0:0:
320,192,134372,128,0,134545:0:0:0:0:
448,192,134372,1,0,0:0:0:0:
64,192,134488,1,0,0:0:0:0:
320,192,134603,128,0,134718:0:0:0:0:
448,192,134718,1,0,0:0:0:0:
192,192,134834,128,0,135065:0:0:0:0:
64,192,134834,1,0,0:0:0:0:
448,192,134949,1,0,0:0:0:0:
320,192,135065,128,0,135238:0:0:0:0:
64,192,135180,1,0,0:0:0:0:
448,192,135295,1,0,0:0:0:0:
320,192,135295,1,0,0:0:0:0:
64,192,135411,1,0,0:0:0:0:
320,192,135526,128,0,135699:0:0:0:0:
448,192,135641,1,0,0:0:0:0:
192,192,135757,1,0,0:0:0:0:
64,192,135757,1,0,0:0:0:0:
448,192,135872,1,0,0:0:0:0:
320,192,135988,128,0,136161:0:0:0:0:
64,192,136103,1,0,0:0:0:0:
448,192,136218,1,0,0:0:0:0:
320,192,136218,1,0,0:0:0:0:
64,192,136334,1,0,0:0:0:0:
320,192,136449,128,0,136565:0:0:0:0:
448,192,136565,1,0,0:0:0:0:
192,192,136680,1,0,0:0:0:0:
64,192,136680,1,0,0:0:0:0:
448,192,136795,1,0,0:0:0:0:
320,192,136911,128,0,137084:0:0:0:0:
64,192,137026,1,0,0:0:0:0:
448,192,137141,128,0,137372:0:0:0:0:
320,192,137141,1,0,0:0:0:0:
64,192,137257,1,0,0:0:0:0:
320,192,137372,128,0,137603:0:0:0:0:
448,192,137488,1,0,0:0:0:0:
192,192,137603,1,0,0:0:0:0:
64,192,137603,1,0,0:0:0:0:
448,192,137718,1,0,0:0:0:0:
320,192,137834,128,0,138007:0:0:0:0:
64,192,137949,1,0,0:0:0:0:
448,192,138065,128,0,138295:0:0:0:0:
320,192,138065,1,0,0:0:0:0:
64,192,138180,1,0,0:0:0:0:
320,192,138295,128,0,138468:0:0:0:0:
448,192,138411,1,0,0:0:0:0:
192,192,138526,128,0,138699:0:0:0:0:
64,192,138526,1,0,0:0:0:0:
448,192,138641,1,0,0:0:0:0:
320,192,138757,128,0,138930:0:0:0:0:
64,192,138872,1,0,0:0:0:0:
448,192,138988,1,0,0:0:0:0:
320,192,138988,1,0,0:0:0:0:
64,192,139103,1,0,0:0:0:0:
320,192,139218,128,0,139622:0:0:0:0:
448,192,139334,1,0,0:0:0:0:
64,192,139449,1,0,0:0:0:0:
192,192,139449,1,0,0:0:0:0:
448,192,139565,1,0,0:0:0:0:
64,192,139680,128,0,139795:0:0:0:0:
320,192,139680,128,0,139795:0:0:0:0:
448,192,139795,1,0,0:0:0:0:
64,192,139911,128,0,140315:0:0:0:0:
192,192,139911,1,0,0:0:0:0:
448,192,140026,1,0,0:0:0:0:
192,192,140141,128,0,140315:0:0:0:0:
320,192,140141,128,0,140257:0:0:0:0:
448,192,140257,1,0,0:0:0:0:
64,192,140372,1,0,0:0:0:0:
192,192,140372,128,0,140430:0:0:0:0:
448,192,140488,1,0,0:0:0:0:
320,192,140603,128,0,140718:0:0:0:0:
192,192,140718,128,0,141180:0:0:0:0:
448,192,140834,128,0,141065:0:0:0:0:
320,192,140834,128,0,140949:0:0:0:0:
64,192,140949,128,0,141180:0:0:0:0:
320,192,141065,128,0,141180:0:0:0:0:
448,192,141180,128,0,141295:0:0:0:0:
64,192,141295,128,0,141757:0:0:0:0:
192,192,141295,128,0,141526:0:0:0:0:
448,192,141411,128,0,141641:0:0:0:0:
320,192,141526,128,0,141641:0:0:0:0:
192,192,141641,128,0,142103:0:0:0:0:
448,192,141757,128,0,141988:0:0:0:0:
320,192,141757,128,0,141872:0:0:0:0:
64,192,141872,128,0,142103:0:0:0:0:
320,192,141988,128,0,142103:0:0:0:0:
448,192,142103,128,0,142218:0:0:0:0:
64,192,142218,128,0,142449:0:0:0:0:
192,192,142218,128,0,142680:0:0:0:0:
448,192,142334,128,0,142565:0:0:0:0:
320,192,142449,128,0,142565:0:0:0:0:
64,192,142565,128,0,143065:0:0:0:0:
448,192,142680,128,0,142911:0:0:0:0:
320,192,142680,128,0,142795:0:0:0:0:
192,192,142795,128,0,143065:0:0:0:0:
320,192,142911,128,0,143026:0:0:0:0:
448,192,143026,128,0,143180:0:0:0:0:
192,192,143141,128,0,143641:0:0:0:0:
64,192,143141,128,0,143411:0:0:0:0:
448,192,143257,128,0,143526:0:0:0:0:
320,192,143372,128,0,143488:0:0:0:0:
64,192,143488,128,0,143988:0:0:0:0:
448,192,143603,128,0,143872:0:0:0:0:
320,192,143603,128,0,143757:0:0:0:0:
192,192,143718,128,0,143988:0:0:0:0:
320,192,143834,128,0,143949:0:0:0:0:
448,192,143949,128,0,144122:0:0:0:0:
64,192,144065,128,0,144930:0:0:0:0:
192,192,144065,128,0,144353:0:0:0:0:
448,192,144180,128,0,144468:0:0:0:0:
320,192,144295,128,0,144411:0:0:0:0:
192,192,144411,128,0,144584:0:0:0:0:
448,192,144526,128,0,144815:0:0:0:0:
320,192,144526,128,0,144699:0:0:0:0:
192,192,144641,128,0,144930:0:0:0:0:
320,192,144757,128,0,144872:0:0:0:0:
448,192,144872,128,0,145045:0:0:0:0:
64,192,144988,128,0,145853:0:0:0:0:
192,192,144988,128,0,145276:0:0:0:0:
448,192,145103,128,0,145391:0:0:0:0:
320,192,145218,128,0,145334:0:0:0:0:
192,192,145334,128,0,145507:0:0:0:0:
448,192,145449,128,0,145738:0:0:0:0:
320,192,145449,128,0,145622:0:0:0:0:
192,192,145565,128,0,145853:0:0:0:0:
320,192,145680,128,0,145795:0:0:0:0:
448,192,145795,128,0,145968:0:0:0:0:
192,192,145911,128,0,146199:0:0:0:0:
64,192,145911,128,0,146776:0:0:0:0:
448,192,146026,128,0,146315:0:0:0:0:
320,192,146141,128,0,146257:0:0:0:0:
192,192,146257,128,0,146430:0:0:0:0:
448,192,146372,128,0,146661:0:0:0:0:
320,192,146372,128,0,146545:0:0:0:0:
192,192,146488,128,0,146776:0:0:0:0:
320,192,146603,128,0,146718:0:0:0:0:
448,192,146718,128,0,146891:0:0:0:0:
192,192,146834,128,0,147122:0:0:0:0:
64,192,146834,128,0,147699:0:0:0:0:
448,192,146949,128,0,147238:0:0:0:0:
320,192,147065,128,0,147180:0:0:0:0:
192,192,147180,128,0,147353:0:0:0:0:
448,192,147295,128,0,147584:0:0:0:0:
320,192,147295,128,0,147468:0:0:0:0:
192,192,147411,128,0,147699:0:0:0:0:
320,192,147526,128,0,147641:0:0:0:0:
448,192,147641,128,0,147815:0:0:0:0:
64,192,147757,128,0,148045:0:0:0:0:
192,192,147757,128,0,147930:0:0:0:0:
448,192,147872,1,0,0:0:0:0:
320,192,147988,128,0,148103:0:0:0:0:
64,192,148103,1,0,0:0:0:0:
320,192,148218,128,0,148391:0:0:0:0:
448,192,148218,1,0,0:0:0:0:
64,192,148334,1,0,0:0:0:0:
320,192,148449,128,0,148565:0:0:0:0:
448,192,148565,1,0,0:0:0:0:
192,192,148680,128,0,148853:0:0:0:0:
64,192,148680,1,0,0:0:0:0:
448,192,148795,1,0,0:0:0:0:
320,192,148911,128,0,149026:0:0:0:0:
64,192,149026,1,0,0:0:0:0:
320,192,149141,128,0,149315:0:0:0:0:
448,192,149141,1,0,0:0:0:0:
64,192,149257,1,0,0:0:0:0:
320,192,149372,128,0,149488:0:0:0:0:
448,192,149488,1,0,0:0:0:0:
192,192,149603,128,0,149834:0:0:0:0:
64,192,149603,1,0,0:0:0:0:
448,192,149718,1,0,0:0:0:0:
320,192,149834,128,0,150007:0:0:0:0:
64,192,149949,1,0,0:0:0:0:
448,192,150065,1,0,0:0:0:0:
320,192,150065,1,0,0:0:0:0:
64,192,150180,1,0,0:0:0:0:
320,192,150295,128,0,150468:0:0:0:0:
448,192,150411,1,0,0:0:0:0:
192,192,150526,1,0,0:0:0:0:
64,192,150526,1,0,0:0:0:0:
448,192,150641,1,0,0:0:0:0:
320,192,150757,128,0,150930:0:0:0:0:
64,192,150872,1,0,0:0:0:0:
448,192,150988,1,0,0:0:0:0:
320,192,150988,1,0,0:0:0:0:
64,192,151103,1,0,0:0:0:0:
320,192,151218,128,0,151334:0:0:0:0:
448,192,151334,1,0,0:0:0:0:
192,192,151449,1,0,0:0:0:0:
64,192,151449,1,0,0:0:0:0:
448,192,151565,1,0,0:0:0:0:
320,192,151680,128,0,151853:0:0:0:0:
64,192,151795,1,0,0:0:0:0:
448,192,151911,128,0,152141:0:0:0:0:
320,192,151911,1,0,0:0:0:0:
64,192,152026,1,0,0:0:0:0:
320,192,152141,128,0,152372:0:0:0:0:
448,192,152257,1,0,0:0:0:0:
192,192,152372,1,0,0:0:0:0:
64,192,152372,1,0,0:0:0:0:
448,192,152488,1,0,0:0:0:0:
320,192,152603,128,0,152776:0:0:0:0:
64,192,152718,1,0,0:0:0:0:
448,192,152834,128,0,153065:0:0:0:0:
320,192,152834,1,0,0:0:0:0:
64,192,152949,1,0,0:0:0:0:
320,192,153065,128,0,153238:0:0:0:0:
448,192,153180,1,0,0:0:0:0:
192,192,153295,128,0,153468:0:0:0:0:
64,192,153295,1,0,0:0:0:0:
448,192,153411,1,0,0:0:0:0:
320,192,153526,128,0,153699:0:0:0:0:
64,192,153641,1,0,0:0:0:0:
448,192,153757,1,0,0:0:0:0:
320,192,153757,1,0,0:0:0:0:
64,192,153872,1,0,0:0:0:0:
320,192,153988,128,0,154391:0:0:0:0:
448,192,154103,1,0,0:0:0:0:
64,192,154218,1,0,0:0:0:0:
192,192,154218,1,0,0:0:0:0:
448,192,154334,1,0,0:0:0:0:
64,192,154449,128,0,154565:0:0:0:0:
320,192,154449,128,0,154565:0:0:0:0:
448,192,154565,1,0,0:0:0:0:
64,192,154680,128,0,155084:0:0:0:0:
192,192,154680,1,0,0:0:0:0:
448,192,154795,1,0,0:0:0:0:
192,192,154911,128,0,155084:0:0:0:0:
448,192,155026,1,0,0:0:0:0:
64,192,155141,128,0,155430:0:0:0:0:
192,192,155141,128,0,155315:0:0:0:0:
320,192,155257,128,0,155545:0:0:0:0:
192,192,155372,128,0,155661:0:0:0:0:
64,192,155488,128,0,156007:0:0:0:0:
448,192,155603,128,0,155891:0:0:0:0:
320,192,155603,128,0,155776:0:0:0:0:
192,192,155718,128,0,156007:0:0:0:0:
320,192,155834,128,0,156122:0:0:0:0:
448,192,155949,128,0,156468:0:0:0:0:
64,192,156065,128,0,156353:0:0:0:0:
192,192,156065,128,0,156238:0:0:0:0:
320,192,156180,128,0,156468:0:0:0:0:
192,192,156295,128,0,156584:0:0:0:0:
64,192,156411,128,0,156930:0:0:0:0:
448,192,156526,128,0,156815:0:0:0:0:
320,192,156526,128,0,156699:0:0:0:0:
192,192,156641,128,0,156930:0:0:0:0:
320,192,156757,128,0,157045:0:0:0:0:
448,192,156872,128,0,157391:0:0:0:0:
64,192,156988,128,0,157276:0:0:0:0:
192,192,156988,128,0,157161:0:0:0:0:
320,192,157103,128,0,157391:0:0:0:0:
192,192,157218,128,0,157507:0:0:0:0:
64,192,157334,128,0,157853:0:0:0:0:
448,192,157449,128,0,157738:0:0:0:0:
320,192,157449,128,0,157622:0:0:0:0:
192,192,157565,128,0,157853:0:0:0:0:
320,192,157680,128,0,157968:0:0:0:0:
448,192,157795,128,0,158315:0:0:0:0:
192,192,157911,128,0,158084:0:0:0:0:
64,192,157911,128,0,158199:0:0:0:0:
320,192,158026,128,0,158315:0:0:0:0:
192,192,158141,128,0,158430:0:0:0:0:
64,192,158257,128,0,158776:0:0:0:0:
320,192,158372,128,0,158545:0:0:0:0:
448,192,158372,128,0,158661:0:0:0:0:
192,192,158488,128,0,158776:0:0:0:0:
320,192,158603,128,0,158891:0:0:0:0:
448,192,158718,128,0,159238:0:0:0:0:
192,192,158834,128,0,159007:0:0:0:0:
64,192,158834,128,0,159122:0:0:0:0:
320,192,158949,128,0,159238:0:0:0:0:
192,192,159065,128,0,159353:0:0:0:0:
64,192,159180,128,0,159699:0:0:0:0:
448,192,159295,128,0,159584:0:0:0:0:
320,192,159295,128,0,159468:0:0:0:0:
192,192,159411,128,0,159699:0:0:0:0:
320,192,159526,128,0,159815:0:0:0:0:
448,192,159641,128,0,160161:0:0:0:0:
64,192,159757,128,0,160045:0:0:0:0:
192,192,159757,128,0,159930:0:0:0:0:
320,192,159872,128,0,160161:0:0:0:0:
192,192,159988,128,0,160276:0:0:0:0:
64,192,160103,128,0,160622:0:0:0:0:
448,192,160218,128,0,160507:0:0:0:0:
320,192,160218,128,0,160391:0:0:0:0:
192,192,160334,128,0,160622:0:0:0:0:
320,192,160449,128,0,160738:0:0:0:0:
448,192,160565,128,0,161084:0:0:0:0:
64,192,160680,128,0,160968:0:0:0:0:
192,192,160680,128,0,160853:0:0:0:0:
320,192,160795,128,0,161084:0:0:0:0:
192,192,160911,128,0,161199:0:0:0:0:
64,192,161026,128,0,161545:0:0:0:0:
448,192,161141,128,0,161430:0:0:0:0:
320,192,161141,128,0,161315:0:0:0:0:
192,192,161257,128,0,161545:0:0:0:0:
320,192,161372,128,0,161661:0:0:0:0:
448,192,161488,128,0,162007:0:0:0:0:
64,192,161603,128,0,161891:0:0:0:0:
192,192,161603,128,0,161776:0:0:0:0:
320,192,161718,128,0,162007:0:0:0:0:
192,192,161834,128,0,162122:0:0:0:0:
64,192,161949,128,0,162468:0:0:0:0:
448,192,162065,128,0,162353:0:0:0:0:
320,192,162065,128,0,162238:0:0:0:0:
192,192,162180,128,0,162468:0:0:0:0:
320,192,162295,128,0,162699:0:0:0:0:
448,192,162411,128,0,162930:0:0:0:0:
64,192,162526,128,0,162584:0:0:0:0:
192,192,162526,128,0,162815:0:0:0:0:
64,192,162641,128,0,163161:0:0:0:0:
320,192,162757,128,0,162930:0:0:0:0:
192,192,162872,128,0,163391:0:0:0:0:
448,192,162988,128,0,163276:0:0:0:0:
320,192,162988,128,0,163045:0:0:0:0:
320,192,163103,128,0,163622:0:0:0:0:
64,192,163218,128,0,163391:0:0:0:0:
448,192,163334,128,0,163853:0:0:0:0:
192,192,163449,128,0,163738:0:0:0:0:
64,192,163449,128,0,163507:0:0:0:0:
64,192,163565,128,0,164084:0:0:0:0:
320,192,163680,128,0,163853:0:0:0:0:
192,192,163795,128,0,164315:0:0:0:0:
448,192,163911,128,0,164199:0:0:0:0:
320,192,163911,128,0,163968:0:0:0:0:
320,192,164026,128,0,164776:0:0:0:0:
64,192,164141,128,0,164315:0:0:0:0:
448,192,164257,128,0,164545:0:0:0:0:
64,192,164372,128,0,164430:0:0:0:0:
192,192,164372,128,0,164661:0:0:0:0:
64,192,164488,128,0,165238:0:0:0:0:
448,192,164603,128,0,164776:0:0:0:0:
192,192,164718,128,0,165007:0:0:0:0:
448,192,164834,128,0,165122:0:0:0:0:
320,192,164834,128,0,164891:0:0:0:0:
320,192,164949,128,0,165468:0:0:0:0:
192,192,165065,128,0,165238:0:0:0:0:
448,192,165180,128,0,165699:0:0:0:0:
64,192,165295,128,0,165584:0:0:0:0:
192,192,165295,128,0,165353:0:0:0:0:
192,192,165411,128,0,166161:0:0:0:0:
320,192,165526,128,0,165699:0:0:0:0:
64,192,165641,128,0,166161:0:0:0:0:
448,192,165757,128,0,165815:0:0:0:0:
320,192,165757,128,0,165930:0:0:0:0:
448,192,165872,128,0,166045:0:0:0:0:
320,192,165988,128,0,166391:0:0:0:0:
448,192,166103,128,0,166622:0:0:0:0:
64,192,166218,128,0,166507:0:0:0:0:
192,192,166218,128,0,166276:0:0:0:0:
192,192,166334,128,0,167084:0:0:0:0:
320,192,166449,128,0,166622:0:0:0:0:
64,192,166565,128,0,167084:0:0:0:0:
448,192,166680,128,0,166738:0:0:0:0:
320,192,166680,128,0,166853:0:0:0:0:
448,192,166795,128,0,166968:0:0:0:0:
320,192,166911,128,0,167315:0:0:0:0:
448,192,167026,128,0,167545:0:0:0:0:
64,192,167141,128,0,167430:0:0:0:0:
192,192,167141,128,0,167199:0:0:0:0:
192,192,167257,128,0,168007:0:0:0:0:
320,192,167372,128,0,167545:0:0:0:0:
64,192,167488,128,0,168007:0:0:0:0:
448,192,167603,128,0,167661:0:0:0:0:
320,192,167603,128,0,167776:0:0:0:0:
448,192,167718,128,0,167891:0:0:0:0:
320,192,167834,128,0,168468:0:0:0:0:
448,192,167949,128,0,168468:0:0:0:0:
64,192,168065,128,0,168238:0:0:0:0:
192,192,168065,128,0,168122:0:0:0:0:
192,192,168180,128,0,168353:0:0:0:0:
64,192,168295,128,0,168930:0:0:0:0:
192,192,168411,128,0,168930:0:0:0:0:
448,192,168526,128,0,168584:0:0:0:0:
320,192,168526,128,0,168699:0:0:0:0:
448,192,168641,128,0,168815:0:0:0:0:
320,192,168757,128,0,169391:0:0:0:0:
448,192,168872,128,0,169391:0:0:0:0:
64,192,168988,128,0,169161:0:0:0:0:
192,192,168988,128,0,169045:0:0:0:0:
192,192,169103,128,0,169276:0:0:0:0:
64,192,169218,128,0,169911:0:0:0:0:
192,192,169334,128,0,169911:0:0:0:0:
320,192,169449,128,0,169622:0:0:0:0:
448,192,169449,128,0,169507:0:0:0:0:
448,192,169565,128,0,169738:0:0:0:0:
320,192,169680,128,0,169911:0:0:0:0:
448,192,169795,128,0,169911:0:0:0:0:
320,192,170141,1,0,0:0:0:0:
64,192,170372,128,0,170545:0:0:0:0:
320,192,170603,1,0,0:0:0:0:
64,192,170834,128,0,171007:0:0:0:0:
320,192,171065,1,0,0:0:0:0:
64,192,171295,128,0,171468:0:0:0:0:
320,192,171526,1,0,0:0:0:0:
192,192,171757,128,0,171988:0:0:0:0:
320,192,171988,1,0,0:0:0:0:
64,192,171988,128,0,172334:0:0:0:0:
320,192,172449,1,0,0:0:0:0:
64,192,172449,128,0,172622:0:0:0:0:
320,192,172911,1,0,0:0:0:0:
64,192,172911,128,0,173084:0:0:0:0:
320,192,173372,1,0,0:0:0:0:
64,192,173372,128,0,173488:0:0:0:0:
320,192,173834,1,0,0:0:0:0:
64,192,173834,128,0,174065:0:0:0:0:
192,192,174065,128,0,174295:0:0:0:0:
320,192,174295,1,0,0:0:0:0:
64,192,174295,128,0,174641:0:0:0:0:
320,192,174757,1,0,0:0:0:0:
64,192,174757,128,0,174988:0:0:0:0:
192,192,174988,128,0,175218:0:0:0:0:
320,192,175218,1,0,0:0:0:0:
64,192,175218,128,0,175391:0:0:0:0:
64,192,175449,128,0,175622:0:0:0:0:
320,192,175680,1,0,0:0:0:0:
192,192,175680,128,0,176026:0:0:0:0:
320,192,176141,1,0,0:0:0:0:
64,192,176141,128,0,176545:0:0:0:0:
320,192,176603,1,0,0:0:0:0:
64,192,176603,128,0,176718:0:0:0:0:
64,192,176834,128,0,177238:0:0:0:0:
320,192,177065,1,0,0:0:0:0:
192,192,177065,128,0,177238:0:0:0:0:
192,192,177295,128,0,177353:0:0:0:0:
64,192,177295,128,0,177353:0:0:0:0:
320,192,177526,1,0,0:0:0:0:
64,192,177757,128,0,177930:0:0:0:0:
320,192,177988,1,0,0:0:0:0:
64,192,178218,128,0,178391:0:0:0:0:
320,192,178449,1,0,0:0:0:0:
64,192,178680,128,0,178853:0:0:0:0:
320,192,178911,1,0,0:0:0:0:
192,192,179141,128,0,179372:0:0:0:0:
320,192,179372,1,0,0:0:0:0:
64,192,179372,128,0,179718:0:0:0:0:
320,192,179834,1,0,0:0:0:0:
64,192,179834,128,0,180007:0:0:0:0:
320,192,180295,1,0,0:0:0:0:
64,192,180295,128,0,180468:0:0:0:0:
320,192,180757,1,0,0:0:0:0:
64,192,180757,128,0,180872:0:0:0:0:
320,192,181218,1,0,0:0:0:0:
192,192,181218,128,0,181449:0:0:0:0:
64,192,181449,128,0,181680:0:0:0:0:
320,192,181680,1,0,0:0:0:0:
192,192,181680,128,0,181911:0:0:0:0:
320,192,182141,1,0,0:0:0:0:
64,192,182141,128,0,182372:0:0:0:0:
192,192,182372,128,0,182603:0:0:0:0:
320,192,182603,1,0,0:0:0:0:
64,192,182603,128,0,182776:0:0:0:0:
64,192,182834,128,0,183007:0:0:0:0:
320,192,183065,1,0,0:0:0:0:
192,192,183065,128,0,183411:0:0:0:0:
320,192,183526,1,0,0:0:0:0:
64,192,183526,128,0,183930:0:0:0:0:
320,192,183988,1,0,0:0:0:0:
64,192,183988,128,0,184103:0:0:0:0:
64,192,184218,128,0,184622:0:0:0:0:
320,192,184449,1,0,0:0:0:0:
192,192,184449,128,0,184622:0:0:0:0:
64,192,184680,128,0,184738:0:0:0:0:
192,192,184680,128,0,184738:0:0:0:0:
320,192,184911,128,0,185026:0:0:0:0:
64,192,185141,128,0,185315:0:0:0:0:
320,192,185372,128,0,185488:0:0:0:0:
64,192,185603,128,0,185776:0:0:0:0:
320,192,185834,128,0,185949:0:0:0:0:
64,192,186065,128,0,186238:0:0:0:0:
320,192,186295,128,0,186411:0:0:0:0:
192,192,186526,128,0,186757:0:0:0:0:
320,192,186757,128,0,186872:0:0:0:0:
64,192,186757,128,0,187103:0:0:0:0:
320,192,187218,128,0,187334:0:0:0:0:
64,192,187218,128,0,187391:0:0:0:0:
320,192,187680,128,0,187795:0:0:0:0:
64,192,187680,128,0,187853:0:0:0:0:
320,192,188141,128,0,188257:0:0:0:0:
64,192,188141,128,0,188257:0:0:0:0:
320,192,188603,128,0,188718:0:0:0:0:
64,192,188603,128,0,188834:0:0:0:0:
192,192,188834,128,0,189065:0:0:0:0:
320,192,189065,128,0,189180:0:0:0:0:
64,192,189065,128,0,189411:0:0:0:0:
320,192,189526,128,0,189641:0:0:0:0:
64,192,189526,128,0,189757:0:0:0:0:
192,192,189757,128,0,189988:0:0:0:0:
320,192,189988,128,0,190103:0:0:0:0:
64,192,189988,128,0,190161:0:0:0:0:
64,192,190218,128,0,190391:0:0:0:0:
320,192,190449,128,0,190565:0:0:0:0:
192,192,190449,128,0,190795:0:0:0:0:
64,192,190911,128,0,191315:0:0:0:0:
320,192,190911,128,0,191026:0:0:0:0:
320,192,191372,128,0,191488:0:0:0:0:
64,192,191372,128,0,191488:0:0:0:0:
64,192,191603,128,0,192007:0:0:0:0:
320,192,191834,128,0,191949:0:0:0:0:
192,192,191834,128,0,192007:0:0:0:0:
64,192,192065,128,0,192122:0:0:0:0:
192,192,192065,128,0,192122:0:0:0:0:
320,192,192295,128,0,192411:0:0:0:0:
64,192,192526,128,0,192699:0:0:0:0:
320,192,192757,128,0,192872:0:0:0:0:
64,192,192988,128,0,193161:0:0:0:0:
320,192,193218,128,0,193334:0:0:0:0:
64,192,193449,128,0,193622:0:0:0:0:
320,192,193680,128,0,193795:0:0:0:0:
192,192,193911,128,0,194141:0:0:0:0:
320,192,194141,128,0,194257:0:0:0:0:
64,192,194141,128,0,194488:0:0:0:0:
320,192,194603,128,0,194718:0:0:0:0:
64,192,194603,128,0,194776:0:0:0:0:
320,192,195065,128,0,195180:0:0:0:0:
64,192,195065,128,0,195238:0:0:0:0:
320,192,195526,128,0,195641:0:0:0:0:
64,192,195526,128,0,195641:0:0:0:0:
320,192,195988,128,0,196103:0:0:0:0:
192,192,195988,128,0,196218:0:0:0:0:
64,192,196218,128,0,196449:0:0:0:0:
192,192,196449,128,0,196680:0:0:0:0:
320,192,196449,128,0,196565:0:0:0:0:
320,192,196911,128,0,197026:0:0:0:0:
64,192,196911,128,0,197141:0:0:0:0:
192,192,197141,128,0,197372:0:0:0:0:
320,192,197372,128,0,197488:0:0:0:0:
64,192,197372,128,0,197545:0:0:0:0:
64,192,197603,128,0,197776:0:0:0:0:
320,192,197834,128,0,197949:0:0:0:0:
192,192,197834,128,0,198180:0:0:0:0:
320,192,198295,128,0,198411:0:0:0:0:
64,192,198295,128,0,198699:0:0:0:0:
320,192,198757,128,0,198872:0:0:0:0:
64,192,198757,128,0,198872:0:0:0:0:
64,192,198988,128,0,199391:0:0:0:0:
320,192,199218,128,0,199334:0:0:0:0:
192,192,199218,128,0,199391:0:0:0:0:
192,192,199449,128,0,199507:0:0:0:0:
320,192,199449,1,0,0:0:0:0:
448,192,199565,1,0,0:0:0:0:
320,192,199680,128,0,199795:0:0:0:0:
320,192,199911,1,0,0:0:0:0:
320,192,200141,128,0,200257:0:0:0:0:
320,192,200372,1,0,0:0:0:0:
448,192,200488,1,0,0:0:0:0:
320,192,200603,128,0,200718:0:0:0:0:
320,192,200834,1,0,0:0:0:0:
320,192,201065,128,0,201180:0:0:0:0:
320,192,201295,1,0,0:0:0:0:
448,192,201411,1,0,0:0:0:0:
320,192,201526,128,0,201641:0:0:0:0:
320,192,201757,1,0,0:0:0:0:
320,192,201988,128,0,202103:0:0:0:0:
320,192,202218,1,0,0:0:0:0:
448,192,202334,1,0,0:0:0:0:
320,192,202449,128,0,202565:0:0:0:0:
64,192,202449,128,0,202565:0:0:0:0:
320,192,202680,1,0,0:0:0:0:
64,192,202680,128,0,203084:0:0:0:0:
320,192,202911,128,0,203026:0:0:0:0:
192,192,202911,128,0,203084:0:0:0:0:
320,192,203141,1,0,0:0:0:0:
192,192,203141,128,0,203199:0:0:0:0:
448,192,203257,1,0,0:0:0:0:
320,192,203372,128,0,203488:0:0:0:0:
320,192,203603,1,0,0:0:0:0:
320,192,203834,128,0,203949:0:0:0:0:
320,192,204065,1,0,0:0:0:0:
448,192,204180,1,0,0:0:0:0:
320,192,204295,128,0,204411:0:0:0:0:
320,192,204526,1,0,0:0:0:0:
320,192,204757,128,0,204872:0:0:0:0:
320,192,204988,1,0,0:0:0:0:
448,192,205103,1,0,0:0:0:0:
320,192,205218,128,0,205334:0:0:0:0:
320,192,205449,1,0,0:0:0:0:
320,192,205680,128,0,205795:0:0:0:0:
320,192,205911,1,0,0:0:0:0:
448,192,206026,1,0,0:0:0:0:
320,192,206141,128,0,206257:0:0:0:0:
64,192,206141,128,0,206257:0:0:0:0:
320,192,206372,1,0,0:0:0:0:
64,192,206372,128,0,206776:0:0:0:0:
320,192,206603,128,0,206718:0:0:0:0:
192,192,206603,128,0,206776:0:0:0:0:
320,192,206834,1,0,0:0:0:0:
192,192,206834,128,0,206891:0:0:0:0:
448,192,206949,1,0,0:0:0:0:
320,192,207065,128,0,207180:0:0:0:0:
320,192,207295,1,0,0:0:0:0:
320,192,207526,128,0,207641:0:0:0:0:
320,192,207757,1,0,0:0:0:0:
448,192,207872,1,0,0:0:0:0:
320,192,207988,128,0,208103:0:0:0:0:
320,192,208218,1,0,0:0:0:0:
320,192,208449,128,0,208565:0:0:0:0:
320,192,208680,1,0,0:0:0:0:
448,192,208795,1,0,0:0:0:0:
320,192,208911,128,0,209026:0:0:0:0:
320,192,209141,1,0,0:0:0:0:
320,192,209372,128,0,209488:0:0:0:0:
320,192,209603,1,0,0:0:0:0:
448,192,209718,1,0,0:0:0:0:
320,192,209834,128,0,209949:0:0:0:0:
64,192,209834,128,0,209949:0:0:0:0:
320,192,210065,1,0,0:0:0:0:
64,192,210065,128,0,210468:0:0:0:0:
320,192,210295,128,0,210411:0:0:0:0:
192,192,210295,128,0,210468:0:0:0:0:
320,192,210526,1,0,0:0:0:0:
192,192,210526,128,0,210584:0:0:0:0:
448,192,210641,1,0,0:0:0:0:
320,192,210757,128,0,210872:0:0:0:0:
320,192,210988,1,0,0:0:0:0:
320,192,211218,128,0,211334:0:0:0:0:
320,192,211449,1,0,0:0:0:0:
448,192,211565,1,0,0:0:0:0:
320,192,211680,128,0,211795:0:0:0:0:
320,192,211911,1,0,0:0:0:0:
320,192,212141,128,0,212257:0:0:0:0:
320,192,212372,1,0,0:0:0:0:
448,192,212488,1,0,0:0:0:0:
320,192,212603,128,0,212718:0:0:0:0:
320,192,212834,1,0,0:0:0:0:
320,192,213065,128,0,213180:0:0:0:0:
320,192,213295,1,0,0:0:0:0:
448,192,213411,1,0,0:0:0:0:
320,192,213526,128,0,213641:0:0:0:0:
64,192,213526,128,0,213641:0:0:0:0:
320,192,213757,1,0,0:0:0:0:
64,192,213757,128,0,214161:0:0:0:0:
320,192,213988,128,0,214103:0:0:0:0:
192,192,213988,128,0,214161:0:0:0:0:
192,192,214218,128,0,214276:0:0:0:0:
64,192,214218,1,0,0:0:0:0:
448,192,214334,1,0,0:0:0:0:
320,192,214449,128,0,214488:0:0:0:0:
192,192,214449,1,0,0:0:0:0:
64,192,214680,1,0,0:0:0:0:
320,192,214911,128,0,214949:0:0:0:0:
192,192,214911,1,0,0:0:0:0:
64,192,215141,1,0,0:0:0:0:
448,192,215257,1,0,0:0:0:0:
192,192,215372,1,0,0:0:0:0:
320,192,215372,128,0,215411:0:0:0:0:
192,192,215488,1,0,0:0:0:0:
64,192,215603,1,0,0:0:0:0:
192,192,215834,1,0,0:0:0:0:
320,192,215834,128,0,215872:0:0:0:0:
64,192,216065,1,0,0:0:0:0:
448,192,216180,1,0,0:0:0:0:
320,192,216295,128,0,216334:0:0:0:0:
192,192,216295,1,0,0:0:0:0:
64,192,216526,1,0,0:0:0:0:
320,192,216757,128,0,216795:0:0:0:0:
192,192,216757,1,0,0:0:0:0:
64,192,216988,1,0,0:0:0:0:
448,192,217103,1,0,0:0:0:0:
320,192,217218,128,0,217257:0:0:0:0:
192,192,217218,128,0,217276:0:0:0:0:
192,192,217334,1,0,0:0:0:0:
64,192,217449,128,0,217853:0:0:0:0:
320,192,217680,128,0,217718:0:0:0:0:
192,192,217680,128,0,217853:0:0:0:0:
192,192,217911,128,0,217968:0:0:0:0:
64,192,217911,1,0,0:0:0:0:
448,192,218026,1,0,0:0:0:0:
320,192,218141,128,0,218180:0:0:0:0:
192,192,218141,1,0,0:0:0:0:
64,192,218372,1,0,0:0:0:0:
320,192,218603,128,0,218641:0:0:0:0:
192,192,218603,1,0,0:0:0:0:
64,192,218834,1,0,0:0:0:0:
448,192,218949,1,0,0:0:0:0:
320,192,219065,128,0,219103:0:0:0:0:
192,192,219065,1,0,0:0:0:0:
192,192,219180,1,0,0:0:0:0:
64,192,219295,1,0,0:0:0:0:
320,192,219526,128,0,219565:0:0:0:0:
192,192,219526,1,0,0:0:0:0:
64,192,219757,1,0,0:0:0:0:
448,192,219872,1,0,0:0:0:0:
320,192,219988,128,0,220026:0:0:0:0:
192,192,219988,1,0,0:0:0:0:
64,192,220218,1,0,0:0:0:0:
320,192,220449,128,0,220488:0:0:0:0:
192,192,220449,1,0,0:0:0:0:
64,192,220680,1,0,0:0:0:0:
448,192,220795,1,0,0:0:0:0:
320,192,220911,128,0,220949:0:0:0:0:
192,192,220911,128,0,220968:0:0:0:0:
192,192,221026,1,0,0:0:0:0:
64,192,221141,128,0,221545:0:0:0:0:
320,192,221372,128,0,221411:0:0:0:0:
192,192,221372,128,0,221545:0:0:0:0:
64,192,221603,1,0,0:0:0:0:
192,192,221603,128,0,221661:0:0:0:0:
64,192,221718,1,0,0:0:0:0:
320,192,221834,128,0,221872:0:0:0:0:
192,192,221834,1,0,0:0:0:0:
64,192,221949,1,0,0:0:0:0:
192,192,222065,128,0,222103:0:0:0:0:
64,192,222180,128,0,222218:0:0:0:0:
320,192,222295,128,0,222334:0:0:0:0:
192,192,222295,128,0,222353:0:0:0:0:
64,192,222411,128,0,222468:0:0:0:0:
192,192,222526,128,0,222584:0:0:0:0:
64,192,222641,128,0,222699:0:0:0:0:
320,192,222757,128,0,222795:0:0:0:0:
192,192,222757,128,0,222815:0:0:0:0:
64,192,222872,128,0,222930:0:0:0:0:
192,192,222988,128,0,223065:0:0:0:0:
64,192,223103,128,0,223180:0:0:0:0:
320,192,223218,128,0,223257:0:0:0:0:
192,192,223218,128,0,223295:0:0:0:0:
64,192,223334,128,0,223411:0:0:0:0:
192,192,223449,128,0,223536:0:0:0:0:
64,192,223565,128,0,223651:0:0:0:0:
320,192,223680,128,0,223718:0:0:0:0:
192,192,223680,128,0,223766:0:0:0:0:
64,192,223795,128,0,223882:0:0:0:0:
192,192,223911,128,0,224055:0:0:0:0:
64,192,224026,128,0,224170:0:0:0:0:
320,192,224141,128,0,224180:0:0:0:0:
192,192,224141,128,0,224286:0:0:0:0:
64,192,224257,128,0,224401:0:0:0:0:
192,192,224372,128,0,224516:0:0:0:0:
64,192,224488,128,0,224632:0:0:0:0:
320,192,224603,128,0,224641:0:0:0:0:
192,192,224603,128,0,224747:0:0:0:0:
64,192,224718,128,0,224863:0:0:0:0:
192,192,224834,128,0,224978:0:0:0:0:
64,192,224949,128,0,225093:0:0:0:0:
320,192,225065,128,0,225103:0:0:0:0:
192,192,225065,128,0,225209:0:0:0:0:
64,192,225180,128,0,225334:0:0:0:0:
192,192,225295,128,0,225449:0:0:0:0:
64,192,225411,128,0,225565:0:0:0:0:
320,192,225526,128,0,225565:0:0:0:0:
192,192,225526,128,0,225680:0:0:0:0:
64,192,225641,128,0,225930:0:0:0:0:
192,192,225757,128,0,226161:0:0:0:0:
448,192,225872,128,0,226045:0:0:0:0:
320,192,225988,128,0,226026:0:0:0:0:
64,192,225988,128,0,226276:0:0:0:0:
448,192,226103,128,0,228065:0:0:0:0:
192,192,226218,128,0,226391:0:0:0:0:
64,192,226334,128,0,226507:0:0:0:0:
192,192,226449,128,0,226622:0:0:0:0:
320,192,226449,128,0,226488:0:0:0:0:
64,192,226565,128,0,228065:0:0:0:0:
192,192,226680,128,0,227084:0:0:0:0:
320,192,226911,128,0,226949:0:0:0:0:
192,192,227141,128,0,227545:0:0:0:0:
320,192,227372,128,0,227411:0:0:0:0:
192,192,227603,128,0,228065:0:0:0:0:
320,192,227834,128,0,227872:0:0:0:0:
64,192,228988,5,0,0:0:0:0:
192,192,228988,128,0,229045:0:0:0:0:
448,192,228988,1,0,0:0:0:0:
320,192,228988,128,0,229045:0:0:0:0:
320,192,229218,128,0,229334:0:0:0:0:
64,192,229334,128,0,229795:0:0:0:0:
320,192,229449,128,0,229565:0:0:0:0:
448,192,229449,128,0,229680:0:0:0:0:
192,192,229565,128,0,229795:0:0:0:0:
320,192,229680,128,0,229795:0:0:0:0:
448,192,229795,128,0,229911:0:0:0:0:
192,192,229911,128,0,230372:0:0:0:0:
64,192,229911,128,0,230141:0:0:0:0:
448,192,230026,128,0,230257:0:0:0:0:
320,192,230141,128,0,230257:0:0:0:0:
64,192,230257,128,0,230718:0:0:0:0:
320,192,230372,128,0,230488:0:0:0:0:
448,192,230372,128,0,230603:0:0:0:0:
192,192,230488,128,0,230718:0:0:0:0:
320,192,230603,128,0,230718:0:0:0:0:
448,192,230718,128,0,231218:0:0:0:0:
192,192,230834,128,0,230872:0:0:0:0:
64,192,230834,128,0,231103:0:0:0:0:
192,192,230949,128,0,231334:0:0:0:0:
320,192,231065,128,0,231180:0:0:0:0:
64,192,231180,128,0,231680:0:0:0:0:
320,192,231295,128,0,231449:0:0:0:0:
448,192,231295,128,0,231565:0:0:0:0:
192,192,231411,128,0,231680:0:0:0:0:
320,192,231526,128,0,231641:0:0:0:0:
448,192,231641,128,0,232026:0:0:0:0:
192,192,231757,128,0,231795:0:0:0:0:
64,192,231757,128,0,232603:0:0:0:0:
192,192,231872,128,0,232257:0:0:0:0:
320,192,231988,128,0,232103:0:0:0:0:
448,192,232103,128,0,232141:0:0:0:0:
448,192,232218,128,0,232488:0:0:0:0:
320,192,232218,128,0,232372:0:0:0:0:
192,192,232334,128,0,232603:0:0:0:0:
320,192,232449,128,0,232565:0:0:0:0:
448,192,232565,128,0,233084:0:0:0:0:
192,192,232680,128,0,232738:0:0:0:0:
64,192,232680,128,0,233545:0:0:0:0:
192,192,232795,128,0,232968:0:0:0:0:
320,192,232911,128,0,233026:0:0:0:0:
192,192,233026,128,0,233545:0:0:0:0:
320,192,233141,128,0,233315:0:0:0:0:
448,192,233141,128,0,233199:0:0:0:0:
448,192,233257,128,0,233430:0:0:0:0:
320,192,233372,128,0,233488:0:0:0:0:
448,192,233488,128,0,233661:0:0:0:0:
192,192,233603,128,0,234122:0:0:0:0:
64,192,233603,128,0,234468:0:0:0:0:
448,192,233718,128,0,233891:0:0:0:0:
320,192,233834,128,0,233949:0:0:0:0:
448,192,233949,128,0,234007:0:0:0:0:
320,192,234065,128,0,234238:0:0:0:0:
448,192,234065,128,0,234353:0:0:0:0:
192,192,234180,128,0,234468:0:0:0:0:
320,192,234295,128,0,234411:0:0:0:0:
448,192,234411,128,0,234584:0:0:0:0:
192,192,234526,128,0,235045:0:0:0:0:
64,192,234526,128,0,235391:0:0:0:0:
448,192,234641,128,0,234815:0:0:0:0:
320,192,234757,128,0,234872:0:0:0:0:
448,192,234872,128,0,234930:0:0:0:0:
320,192,234988,128,0,235161:0:0:0:0:
448,192,234988,128,0,235276:0:0:0:0:
192,192,235103,128,0,235391:0:0:0:0:
320,192,235218,128,0,235334:0:0:0:0:
448,192,235334,128,0,235507:0:0:0:0:
192,192,235449,128,0,235968:0:0:0:0:
64,192,235449,128,0,236315:0:0:0:0:
448,192,235565,128,0,235738:0:0:0:0:
320,192,235680,128,0,235795:0:0:0:0:
448,192,235795,128,0,235853:0:0:0:0:
320,192,235911,128,0,236084:0:0:0:0:
448,192,235911,128,0,236199:0:0:0:0:
192,192,236026,128,0,236315:0:0:0:0:
320,192,236141,128,0,236257:0:0:0:0:
448,192,236257,128,0,236430:0:0:0:0:
192,192,236372,128,0,236545:0:0:0:0:
64,192,236372,128,0,236661:0:0:0:0:
448,192,236488,1,0,0:0:0:0:
320,192,236603,128,0,236718:0:0:0:0:
448,192,236718,1,0,0:0:0:0:
448,192,236834,1,0,0:0:0:0:
320,192,236834,1,0,0:0:0:0:
192,192,236949,1,0,0:0:0:0:
320,192,237065,128,0,237180:0:0:0:0:
64,192,237180,1,0,0:0:0:0:
64,192,237295,1,0,0:0:0:0:
192,192,237295,1,0,0:0:0:0:
448,192,237411,1,0,0:0:0:0:
320,192,237526,128,0,237641:0:0:0:0:
448,192,237641,1,0,0:0:0:0:
448,192,237757,1,0,0:0:0:0:
320,192,237757,1,0,0:0:0:0:
192,192,237872,1,0,0:0:0:0:
320,192,237988,128,0,238103:0:0:0:0:
64,192,238103,1,0,0:0:0:0:
64,192,238218,1,0,0:0:0:0:
192,192,238218,1,0,0:0:0:0:
448,192,238334,1,0,0:0:0:0:
320,192,238449,128,0,238565:0:0:0:0:
448,192,238565,1,0,0:0:0:0:
448,192,238680,1,0,0:0:0:0:
320,192,238680,1,0,0:0:0:0:
192,192,238795,1,0,0:0:0:0:
320,192,238911,128,0,239026:0:0:0:0:
64,192,239026,1,0,0:0:0:0:
64,192,239141,1,0,0:0:0:0:
192,192,239141,1,0,0:0:0:0:
448,192,239257,1,0,0:0:0:0:
320,192,239372,128,0,239488:0:0:0:0:
448,192,239488,1,0,0:0:0:0:
448,192,239603,1,0,0:0:0:0:
320,192,239603,1,0,0:0:0:0:
192,192,239718,1,0,0:0:0:0:
320,192,239834,128,0,239949:0:0:0:0:
64,192,239949,1,0,0:0:0:0:
64,192,240065,1,0,0:0:0:0:
192,192,240065,1,0,0:0:0:0:
448,192,240180,1,0,0:0:0:0:
320,192,240295,128,0,240411:0:0:0:0:
448,192,240411,1,0,0:0:0:0:
320,192,240526,1,0,0:0:0:0:
448,192,240526,1,0,0:0:0:0:
192,192,240641,1,0,0:0:0:0:
320,192,240757,128,0,240872:0:0:0:0:
64,192,240872,1,0,0:0:0:0:
192,192,240988,1,0,0:0:0:0:
64,192,240988,1,0,0:0:0:0:
448,192,241103,1,0,0:0:0:0:
320,192,241218,128,0,241334:0:0:0:0:
448,192,241334,1,0,0:0:0:0:
320,192,241449,1,0,0:0:0:0:
448,192,241449,1,0,0:0:0:0:
192,192,241565,1,0,0:0:0:0:
320,192,241680,128,0,241795:0:0:0:0:
64,192,241795,1,0,0:0:0:0:
192,192,241911,128,0,241949:0:0:0:0:
64,192,241911,128,0,241949:0:0:0:0:
448,192,242026,1,0,0:0:0:0:
320,192,242141,128,0,242257:0:0:0:0:
448,192,242257,1,0,0:0:0:0:
320,192,242372,128,0,242411:0:0:0:0:
448,192,242372,128,0,242411:0:0:0:0:
192,192,242488,1,0,0:0:0:0:
320,192,242603,128,0,242718:0:0:0:0:
64,192,242718,1,0,0:0:0:0:
192,192,242834,128,0,242872:0:0:0:0:
64,192,242834,128,0,242872:0:0:0:0:
448,192,242949,1,0,0:0:0:0:
320,192,243065,128,0,243180:0:0:0:0:
64,192,243065,128,0,243180:0:0:0:0:
448,192,243180,1,0,0:0:0:0:
320,192,243295,128,0,243334:0:0:0:0:
448,192,243295,128,0,243334:0:0:0:0:
64,192,243295,128,0,243699:0:0:0:0:
192,192,243526,128,0,243699:0:0:0:0:
192,192,243757,128,0,243815:0:0:0:0:
64,192,243757,128,0,243815:0:0:0:0:
320,192,243988,128,0,244103:0:0:0:0:
64,192,244103,128,0,244565:0:0:0:0:
320,192,244218,128,0,244334:0:0:0:0:
448,192,244218,128,0,244449:0:0:0:0:
192,192,244334,128,0,244565:0:0:0:0:
320,192,244449,128,0,244565:0:0:0:0:
448,192,244565,128,0,244680:0:0:0:0:
192,192,244680,128,0,245141:0:0:0:0:
64,192,244680,128,0,244911:0:0:0:0:
448,192,244795,128,0,245026:0:0:0:0:
320,192,244911,128,0,245026:0:0:0:0:
64,192,245026,128,0,245526:0:0:0:0:
320,192,245141,128,0,245257:0:0:0:0:
448,192,245141,128,0,245372:0:0:0:0:
192,192,245257,128,0,245526:0:0:0:0:
320,192,245372,128,0,245488:0:0:0:0:
448,192,245488,128,0,245988:0:0:0:0:
192,192,245603,128,0,245641:0:0:0:0:
64,192,245603,128,0,245872:0:0:0:0:
192,192,245718,128,0,246103:0:0:0:0:
320,192,245834,128,0,245949:0:0:0:0:
64,192,245949,128,0,246449:0:0:0:0:
320,192,246065,128,0,246218:0:0:0:0:
448,192,246065,128,0,246334:0:0:0:0:
192,192,246180,128,0,246449:0:0:0:0:
320,192,246295,128,0,246411:0:0:0:0:
448,192,246411,128,0,246795:0:0:0:0:
192,192,246526,128,0,246565:0:0:0:0:
64,192,246526,128,0,247391:0:0:0:0:
192,192,246641,128,0,247026:0:0:0:0:
320,192,246757,128,0,246872:0:0:0:0:
448,192,246872,128,0,246911:0:0:0:0:
448,192,246988,128,0,247257:0:0:0:0:
320,192,246988,128,0,247141:0:0:0:0:
192,192,247103,128,0,247391:0:0:0:0:
320,192,247218,128,0,247334:0:0:0:0:
448,192,247334,128,0,247853:0:0:0:0:
192,192,247449,128,0,247507:0:0:0:0:
64,192,247449,128,0,248315:0:0:0:0:
192,192,247565,128,0,247738:0:0:0:0:
320,192,247680,128,0,247795:0:0:0:0:
192,192,247795,128,0,248315:0:0:0:0:
320,192,247911,128,0,248084:0:0:0:0:
448,192,247911,128,0,247968:0:0:0:0:
448,192,248026,128,0,248199:0:0:0:0:
320,192,248141,128,0,248257:0:0:0:0:
448,192,248257,128,0,248430:0:0:0:0:
192,192,248372,128,0,248891:0:0:0:0:
64,192,248372,128,0,249238:0:0:0:0:
448,192,248488,128,0,248661:0:0:0:0:
320,192,248603,128,0,248718:0:0:0:0:
448,192,248718,128,0,248776:0:0:0:0:
320,192,248834,128,0,249007:0:0:0:0:
448,192,248834,128,0,249122:0:0:0:0:
192,192,248949,128,0,249238:0:0:0:0:
320,192,249065,128,0,249180:0:0:0:0:
448,192,249180,128,0,249353:0:0:0:0:
192,192,249295,128,0,249815:0:0:0:0:
64,192,249295,128,0,250161:0:0:0:0:
448,192,249411,128,0,249584:0:0:0:0:
320,192,249526,128,0,249641:0:0:0:0:
448,192,249641,128,0,249699:0:0:0:0:
320,192,249757,128,0,249930:0:0:0:0:
448,192,249757,128,0,250045:0:0:0:0:
192,192,249872,128,0,250161:0:0:0:0:
320,192,249988,128,0,250103:0:0:0:0:
448,192,250103,128,0,250276:0:0:0:0:
192,192,250218,128,0,250738:0:0:0:0:
64,192,250218,128,0,251084:0:0:0:0:
448,192,250334,128,0,250507:0:0:0:0:
320,192,250449,128,0,250565:0:0:0:0:
448,192,250565,128,0,250622:0:0:0:0:
320,192,250680,128,0,250853:0:0:0:0:
448,192,250680,128,0,250968:0:0:0:0:
192,192,250795,128,0,251084:0:0:0:0:
320,192,250911,128,0,251026:0:0:0:0:
448,192,251026,128,0,251199:0:0:0:0:
192,192,251141,128,0,251315:0:0:0:0:
64,192,251141,128,0,251430:0:0:0:0:
448,192,251257,1,0,0:0:0:0:
320,192,251372,128,0,251488:0:0:0:0:
448,192,251488,1,0,0:0:0:0:
320,192,251603,1,0,0:0:0:0:
448,192,251603,1,0,0:0:0:0:
192,192,251718,1,0,0:0:0:0:
320,192,251834,128,0,251949:0:0:0:0:
64,192,251949,1,0,0:0:0:0:
192,192,252065,1,0,0:0:0:0:
64,192,252065,1,0,0:0:0:0:
448,192,252180,1,0,0:0:0:0:
320,192,252295,128,0,252411:0:0:0:0:
448,192,252411,1,0,0:0:0:0:
320,192,252526,1,0,0:0:0:0:
448,192,252526,1,0,0:0:0:0:
192,192,252641,1,0,0:0:0:0:
320,192,252757,128,0,252872:0:0:0:0:
64,192,252872,1,0,0:0:0:0:
192,192,252988,1,0,0:0:0:0:
64,192,252988,1,0,0:0:0:0:
448,192,253103,1,0,0:0:0:0:
320,192,253218,128,0,253334:0:0:0:0:
448,192,253334,1,0,0:0:0:0:
320,192,253449,1,0,0:0:0:0:
448,192,253449,1,0,0:0:0:0:
192,192,253565,1,0,0:0:0:0:
320,192,253680,128,0,253795:0:0:0:0:
64,192,253795,1,0,0:0:0:0:
192,192,253911,1,0,0:0:0:0:
64,192,253911,1,0,0:0:0:0:
448,192,254026,1,0,0:0:0:0:
320,192,254141,128,0,254257:0:0:0:0:
448,192,254257,1,0,0:0:0:0:
320,192,254372,1,0,0:0:0:0:
448,192,254372,1,0,0:0:0:0:
192,192,254488,1,0,0:0:0:0:
320,192,254603,128,0,254718:0:0:0:0:
64,192,254718,1,0,0:0:0:0:
192,192,254834,1,0,0:0:0:0:
64,192,254834,1,0,0:0:0:0:
448,192,254949,1,0,0:0:0:0:
320,192,255065,128,0,255180:0:0:0:0:
448,192,255180,1,0,0:0:0:0:
448,192,255295,1,0,0:0:0:0:
320,192,255295,1,0,0:0:0:0:
192,192,255411,1,0,0:0:0:0:
320,192,255526,128,0,255641:0:0:0:0:
64,192,255641,1,0,0:0:0:0:
64,192,255757,1,0,0:0:0:0:
192,192,255757,1,0,0:0:0:0:
448,192,255872,1,0,0:0:0:0:
320,192,255988,128,0,256103:0:0:0:0:
448,192,256103,1,0,0:0:0:0:
448,192,256218,1,0,0:0:0:0:
320,192,256218,1,0,0:0:0:0:
192,192,256334,1,0,0:0:0:0:
320,192,256449,128,0,256565:0:0:0:0:
64,192,256565,1,0,0:0:0:0:
64,192,256680,128,0,256718:0:0:0:0:
448,192,256795,1,0,0:0:0:0:
320,192,256911,128,0,257026:0:0:0:0:
448,192,257026,1,0,0:0:0:0:
448,192,257141,128,0,257180:0:0:0:0:
64,192,257257,1,0,0:0:0:0:
320,192,257372,128,0,257488:0:0:0:0:
64,192,257488,1,0,0:0:0:0:
448,192,257978,128,0,258141:0:0:0:0:
320,192,258065,128,0,258141:0:0:0:0:
192,192,258093,128,0,258141:0:0:0:0:
64,192,258526,5,0,0:0:0:0:
448,192,258526,1,0,0:0:0:0:
192,192,258526,128,0,258584:0:0:0:0:
320,192,258526,128,0,258584:0:0:0:0:
320,192,258757,128,0,258872:0:0:0:0:
192,192,258872,128,0,258988:0:0:0:0:
64,192,258988,128,0,259103:0:0:0:0:
448,192,258988,128,0,259218:0:0:0:0:
192,192,259103,128,0,259334:0:0:0:0:
320,192,259218,128,0,259334:0:0:0:0:
448,192,259334,128,0,259449:0:0:0:0:
64,192,259449,128,0,259565:0:0:0:0:
192,192,259449,128,0,259680:0:0:0:0:
448,192,259565,128,0,259795:0:0:0:0:
320,192,259680,128,0,259795:0:0:0:0:
192,192,259795,128,0,259911:0:0:0:0:
64,192,259911,128,0,260026:0:0:0:0:
448,192,259911,128,0,260141:0:0:0:0:
192,192,260026,128,0,260295:0:0:0:0:
320,192,260141,128,0,260257:0:0:0:0:
448,192,260257,128,0,260411:0:0:0:0:
64,192,260372,128,0,260603:0:0:0:0:
192,192,260372,128,0,260641:0:0:0:0:
448,192,260488,128,0,260757:0:0:0:0:
320,192,260603,128,0,260949:0:0:0:0:
192,192,260718,128,0,260872:0:0:0:0:
64,192,260834,128,0,261218:0:0:0:0:
448,192,260834,128,0,261103:0:0:0:0:
192,192,260949,128,0,261218:0:0:0:0:
320,192,261065,128,0,261238:0:0:0:0:
448,192,261180,128,0,261334:0:0:0:0:
192,192,261295,128,0,261565:0:0:0:0:
64,192,261295,128,0,261680:0:0:0:0:
448,192,261411,128,0,261680:0:0:0:0:
320,192,261526,128,0,261699:0:0:0:0:
192,192,261641,128,0,261795:0:0:0:0:
64,192,261757,128,0,262161:0:0:0:0:
448,192,261757,128,0,262026:0:0:0:0:
192,192,261872,128,0,262161:0:0:0:0:
320,192,261988,128,0,262103:0:0:0:0:
448,192,262103,128,0,262276:0:0:0:0:
64,192,262218,128,0,262622:0:0:0:0:
192,192,262218,128,0,262507:0:0:0:0:
448,192,262334,128,0,262622:0:0:0:0:
320,192,262449,128,0,262680:0:0:0:0:
192,192,262565,128,0,262738:0:0:0:0:
64,192,262680,128,0,262911:0:0:0:0:
448,192,262680,128,0,262968:0:0:0:0:
192,192,262795,128,0,263084:0:0:0:0:
320,192,262911,128,0,263257:0:0:0:0:
448,192,263026,128,0,263199:0:0:0:0:
64,192,263141,128,0,263545:0:0:0:0:
192,192,263141,128,0,263430:0:0:0:0:
448,192,263257,128,0,263545:0:0:0:0:
320,192,263372,128,0,263603:0:0:0:0:
192,192,263488,128,0,263661:0:0:0:0:
64,192,263603,128,0,263834:0:0:0:0:
448,192,263603,128,0,263891:0:0:0:0:
192,192,263718,128,0,264007:0:0:0:0:
320,192,263834,128,0,264007:0:0:0:0:
448,192,263949,128,0,264122:0:0:0:0:
64,192,264065,128,0,264238:0:0:0:0:
192,192,264065,128,0,264353:0:0:0:0:
448,192,264180,128,0,264468:0:0:0:0:
320,192,264295,128,0,264641:0:0:0:0:
192,192,264411,128,0,264584:0:0:0:0:
64,192,264526,128,0,264930:0:0:0:0:
448,192,264526,128,0,264815:0:0:0:0:
192,192,264641,128,0,264930:0:0:0:0:
320,192,264757,128,0,265161:0:0:0:0:
448,192,264872,128,0,265045:0:0:0:0:
192,192,264988,128,0,265276:0:0:0:0:
64,192,264988,128,0,265391:0:0:0:0:
448,192,265103,128,0,265391:0:0:0:0:
320,192,265218,128,0,265334:0:0:0:0:
192,192,265334,128,0,265507:0:0:0:0:
64,192,265449,128,0,265853:0:0:0:0:
448,192,265449,128,0,265738:0:0:0:0:
192,192,265565,128,0,265853:0:0:0:0:
320,192,265680,128,0,265911:0:0:0:0:
448,192,265795,1,0,0:0:0:0:
64,192,265911,128,0,265968:0:0:0:0:
192,192,265911,1,0,0:0:0:0:
448,192,266026,1,0,0:0:0:0:
320,192,266141,128,0,266257:0:0:0:0:
192,192,266257,1,0,0:0:0:0:
64,192,266372,128,0,266545:0:0:0:0:
448,192,266372,1,0,0:0:0:0:
192,192,266488,1,0,0:0:0:0:
320,192,266603,128,0,266718:0:0:0:0:
448,192,266718,1,0,0:0:0:0:
64,192,266834,128,0,267007:0:0:0:0:
192,192,266834,1,0,0:0:0:0:
448,192,266949,1,0,0:0:0:0:
320,192,267065,128,0,267180:0:0:0:0:
192,192,267180,1,0,0:0:0:0:
64,192,267295,128,0,267468:0:0:0:0:
448,192,267295,1,0,0:0:0:0:
192,192,267411,1,0,0:0:0:0:
320,192,267526,128,0,267641:0:0:0:0:
448,192,267641,1,0,0:0:0:0:
64,192,267757,128,0,267988:0:0:0:0:
192,192,267757,1,0,0:0:0:0:
448,192,267872,1,0,0:0:0:0:
320,192,267988,128,0,268334:0:0:0:0:
192,192,268103,1,0,0:0:0:0:
64,192,268218,1,0,0:0:0:0:
448,192,268218,1,0,0:0:0:0:
192,192,268334,1,0,0:0:0:0:
320,192,268449,128,0,268622:0:0:0:0:
448,192,268565,1,0,0:0:0:0:
64,192,268680,1,0,0:0:0:0:
192,192,268680,1,0,0:0:0:0:
448,192,268795,1,0,0:0:0:0:
320,192,268911,128,0,269084:0:0:0:0:
192,192,269026,1,0,0:0:0:0:
64,192,269141,1,0,0:0:0:0:
448,192,269141,1,0,0:0:0:0:
192,192,269257,1,0,0:0:0:0:
320,192,269372,128,0,269488:0:0:0:0:
448,192,269488,1,0,0:0:0:0:
64,192,269603,1,0,0:0:0:0:
192,192,269603,1,0,0:0:0:0:
448,192,269718,1,0,0:0:0:0:
320,192,269834,128,0,270065:0:0:0:0:
192,192,269949,1,0,0:0:0:0:
64,192,270065,128,0,270295:0:0:0:0:
448,192,270065,1,0,0:0:0:0:
192,192,270180,1,0,0:0:0:0:
320,192,270295,128,0,270526:0:0:0:0:
448,192,270411,1,0,0:0:0:0:
64,192,270526,1,0,0:0:0:0:
192,192,270526,1,0,0:0:0:0:
448,192,270641,1,0,0:0:0:0:
320,192,270757,128,0,270988:0:0:0:0:
192,192,270872,1,0,0:0:0:0:
64,192,270988,128,0,271218:0:0:0:0:
448,192,270988,1,0,0:0:0:0:
192,192,271103,1,0,0:0:0:0:
320,192,271218,128,0,271391:0:0:0:0:
448,192,271334,1,0,0:0:0:0:
64,192,271449,128,0,271622:0:0:0:0:
192,192,271449,1,0,0:0:0:0:
448,192,271565,1,0,0:0:0:0:
320,192,271680,128,0,272026:0:0:0:0:
192,192,271795,1,0,0:0:0:0:
64,192,271911,1,0,0:0:0:0:
448,192,271911,1,0,0:0:0:0:
192,192,272026,1,0,0:0:0:0:
320,192,272141,128,0,272545:0:0:0:0:
448,192,272257,1,0,0:0:0:0:
64,192,272372,1,0,0:0:0:0:
192,192,272372,1,0,0:0:0:0:
448,192,272488,1,0,0:0:0:0:
320,192,272603,128,0,272718:0:0:0:0:
192,192,272718,1,0,0:0:0:0:
64,192,272834,128,0,273238:0:0:0:0:
448,192,272834,1,0,0:0:0:0:
192,192,272949,1,0,0:0:0:0:
320,192,273065,128,0,273238:0:0:0:0:
448,192,273180,1,0,0:0:0:0:
64,192,273295,128,0,273353:0:0:0:0:
192,192,273295,1,0,0:0:0:0:
192,192,273411,1,0,0:0:0:0:
320,192,273526,128,0,273641:0:0:0:0:
192,192,273641,128,0,273757:0:0:0:0:
448,192,273757,128,0,273988:0:0:0:0:
64,192,273757,128,0,273930:0:0:0:0:
192,192,273872,128,0,274103:0:0:0:0:
320,192,273988,128,0,274103:0:0:0:0:
448,192,274103,128,0,274565:0:0:0:0:
192,192,274218,128,0,274276:0:0:0:0:
64,192,274218,128,0,274334:0:0:0:0:
192,192,274334,128,0,274449:0:0:0:0:
320,192,274449,128,0,274565:0:0:0:0:
192,192,274565,128,0,274680:0:0:0:0:
448,192,274680,128,0,274911:0:0:0:0:
64,192,274680,128,0,274795:0:0:0:0:
192,192,274795,128,0,275065:0:0:0:0:
320,192,274911,128,0,275026:0:0:0:0:
448,192,275026,128,0,275526:0:0:0:0:
192,192,275141,128,0,275411:0:0:0:0:
64,192,275141,128,0,275372:0:0:0:0:
320,192,275257,128,0,275295:0:0:0:0:
320,192,275372,128,0,275718:0:0:0:0:
192,192,275488,128,0,275641:0:0:0:0:
448,192,275603,128,0,275872:0:0:0:0:
64,192,275603,128,0,276449:0:0:0:0:
192,192,275718,128,0,275988:0:0:0:0:
320,192,275834,128,0,276007:0:0:0:0:
448,192,275949,128,0,276449:0:0:0:0:
192,192,276065,128,0,276103:0:0:0:0:
320,192,276065,128,0,276218:0:0:0:0:
192,192,276180,128,0,276334:0:0:0:0:
320,192,276295,128,0,276449:0:0:0:0:
192,192,276411,128,0,276565:0:0:0:0:
448,192,276526,128,0,276795:0:0:0:0:
64,192,276526,128,0,277391:0:0:0:0:
192,192,276641,128,0,276911:0:0:0:0:
320,192,276757,128,0,276872:0:0:0:0:
448,192,276872,128,0,277391:0:0:0:0:
192,192,276988,128,0,277045:0:0:0:0:
320,192,276988,128,0,277161:0:0:0:0:
192,192,277103,128,0,277276:0:0:0:0:
320,192,277218,128,0,277449:0:0:0:0:
192,192,277334,128,0,277507:0:0:0:0:
448,192,277449,128,0,277853:0:0:0:0:
64,192,277449,128,0,277680:0:0:0:0:
192,192,277565,128,0,277853:0:0:0:0:
320,192,277680,128,0,278026:0:0:0:0:
64,192,277795,128,0,278315:0:0:0:0:
448,192,277911,128,0,277968:0:0:0:0:
192,192,277911,128,0,278199:0:0:0:0:
448,192,278026,128,0,278315:0:0:0:0:
320,192,278141,128,0,278372:0:0:0:0:
192,192,278257,128,0,278430:0:0:0:0:
448,192,278372,128,0,278776:0:0:0:0:
64,192,278372,128,0,278603:0:0:0:0:
192,192,278488,128,0,278661:0:0:0:0:
320,192,278603,128,0,278776:0:0:0:0:
192,192,278718,128,0,279122:0:0:0:0:
448,192,278834,128,0,278891:0:0:0:0:
64,192,278834,128,0,279007:0:0:0:0:
448,192,278949,128,0,279238:0:0:0:0:
320,192,279065,128,0,279411:0:0:0:0:
192,192,279180,128,0,279353:0:0:0:0:
448,192,279295,128,0,279699:0:0:0:0:
64,192,279295,128,0,279584:0:0:0:0:
192,192,279411,128,0,279699:0:0:0:0:
320,192,279526,128,0,279930:0:0:0:0:
64,192,279641,128,0,280161:0:0:0:0:
448,192,279757,128,0,279815:0:0:0:0:
192,192,279757,128,0,280045:0:0:0:0:
448,192,279872,128,0,280161:0:0:0:0:
320,192,279988,128,0,280103:0:0:0:0:
192,192,280103,128,0,280276:0:0:0:0:
448,192,280218,128,0,280507:0:0:0:0:
64,192,280218,128,0,280622:0:0:0:0:
192,192,280334,128,0,280622:0:0:0:0:
320,192,280449,128,0,280680:0:0:0:0:
448,192,280565,1,0,0:0:0:0:
64,192,280680,128,0,280738:0:0:0:0:
192,192,280680,1,0,0:0:0:0:
192,192,280795,1,0,0:0:0:0:
320,192,280911,128,0,281026:0:0:0:0:
192,192,281026,1,0,0:0:0:0:
448,192,281141,1,0,0:0:0:0:
64,192,281141,128,0,281315:0:0:0:0:
192,192,281257,1,0,0:0:0:0:
320,192,281372,128,0,281488:0:0:0:0:
448,192,281488,1,0,0:0:0:0:
192,192,281603,1,0,0:0:0:0:
64,192,281603,128,0,281776:0:0:0:0:
192,192,281718,1,0,0:0:0:0:
320,192,281834,128,0,281949:0:0:0:0:
192,192,281949,1,0,0:0:0:0:
448,192,282065,1,0,0:0:0:0:
64,192,282065,128,0,282238:0:0:0:0:
192,192,282180,1,0,0:0:0:0:
320,192,282295,128,0,282411:0:0:0:0:
448,192,282411,1,0,0:0:0:0:
192,192,282526,1,0,0:0:0:0:
64,192,282526,128,0,282757:0:0:0:0:
192,192,282641,1,0,0:0:0:0:
320,192,282757,128,0,283103:0:0:0:0:
192,192,282872,1,0,0:0:0:0:
448,192,282988,1,0,0:0:0:0:
64,192,282988,1,0,0:0:0:0:
192,192,283103,1,0,0:0:0:0:
320,192,283218,128,0,283391:0:0:0:0:
448,192,283334,1,0,0:0:0:0:
192,192,283449,1,0,0:0:0:0:
64,192,283449,1,0,0:0:0:0:
192,192,283565,1,0,0:0:0:0:
320,192,283680,128,0,283853:0:0:0:0:
192,192,283795,1,0,0:0:0:0:
448,192,283911,1,0,0:0:0:0:
64,192,283911,1,0,0:0:0:0:
192,192,284026,1,0,0:0:0:0:
320,192,284141,128,0,284257:0:0:0:0:
448,192,284257,1,0,0:0:0:0:
192,192,284372,1,0,0:0:0:0:
64,192,284372,1,0,0:0:0:0:
192,192,284488,1,0,0:0:0:0:
320,192,284603,128,0,284834:0:0:0:0:
192,192,284718,1,0,0:0:0:0:
448,192,284834,1,0,0:0:0:0:
64,192,284834,128,0,285065:0:0:0:0:
192,192,284949,1,0,0:0:0:0:
320,192,285065,128,0,285295:0:0:0:0:
448,192,285180,1,0,0:0:0:0:
192,192,285295,1,0,0:0:0:0:
64,192,285295,1,0,0:0:0:0:
192,192,285411,1,0,0:0:0:0:
320,192,285526,128,0,285757:0:0:0:0:
192,192,285641,1,0,0:0:0:0:
448,192,285757,1,0,0:0:0:0:
64,192,285757,128,0,285988:0:0:0:0:
192,192,285872,1,0,0:0:0:0:
320,192,285988,128,0,286161:0:0:0:0:
448,192,286103,1,0,0:0:0:0:
192,192,286218,1,0,0:0:0:0:
64,192,286218,128,0,286391:0:0:0:0:
192,192,286334,1,0,0:0:0:0:
320,192,286449,128,0,286795:0:0:0:0:
192,192,286565,1,0,0:0:0:0:
448,192,286680,1,0,0:0:0:0:
64,192,286680,1,0,0:0:0:0:
192,192,286795,1,0,0:0:0:0:
320,192,286911,128,0,287315:0:0:0:0:
448,192,287026,1,0,0:0:0:0:
64,192,287141,1,0,0:0:0:0:
192,192,287141,1,0,0:0:0:0:
192,192,287257,1,0,0:0:0:0:
320,192,287372,128,0,287488:0:0:0:0:
192,192,287488,1,0,0:0:0:0:
448,192,287603,1,0,0:0:0:0:
64,192,287603,128,0,288007:0:0:0:0:
192,192,287718,1,0,0:0:0:0:
320,192,287834,128,0,288007:0:0:0:0:
448,192,287949,1,0,0:0:0:0:
192,192,288065,128,0,288468:0:0:0:0:
64,192,288065,128,0,288122:0:0:0:0:
320,192,288295,128,0,288411:0:0:0:0:
192,192,288526,128,0,288930:0:0:0:0:
64,192,288526,1,0,0:0:0:0:
320,192,288757,128,0,288872:0:0:0:0:
448,192,288872,128,0,288930:0:0:0:0:
192,192,288988,128,0,289391:0:0:0:0:
64,192,288988,1,0,0:0:0:0:
320,192,289218,128,0,289334:0:0:0:0:
64,192,289449,1,0,0:0:0:0:
192,192,289449,128,0,289853:0:0:0:0:
320,192,289680,128,0,289795:0:0:0:0:
448,192,289795,128,0,289853:0:0:0:0:
192,192,289911,128,0,290315:0:0:0:0:
64,192,289911,1,0,0:0:0:0:
320,192,290141,128,0,290257:0:0:0:0:
192,192,290372,128,0,290776:0:0:0:0:
64,192,290372,1,0,0:0:0:0:
320,192,290603,128,0,290718:0:0:0:0:
448,192,290718,128,0,290776:0:0:0:0:
64,192,290834,1,0,0:0:0:0:
192,192,290834,128,0,291238:0:0:0:0:
64,192,291065,128,0,291180:0:0:0:0:
320,192,291065,128,0,291180:0:0:0:0:
192,192,291295,1,0,0:0:0:0:
64,192,291295,128,0,291699:0:0:0:0:
192,192,291526,128,0,291699:0:0:0:0:
320,192,291526,128,0,291641:0:0:0:0:
448,192,291641,128,0,291699:0:0:0:0:
192,192,291757,128,0,292132:0:0:0:0:
64,192,291757,128,0,291815:0:0:0:0:
320,192,291988,128,0,292103:0:0:0:0:
192,192,292218,128,0,292593:0:0:0:0:
64,192,292218,1,0,0:0:0:0:
320,192,292449,128,0,292565:0:0:0:0:
448,192,292565,128,0,292622:0:0:0:0:
192,192,292680,128,0,293055:0:0:0:0:
64,192,292680,1,0,0:0:0:0:
320,192,292911,128,0,293026:0:0:0:0:
64,192,293141,1,0,0:0:0:0:
192,192,293141,128,0,293516:0:0:0:0:
320,192,293372,128,0,293488:0:0:0:0:
448,192,293488,128,0,293545:0:0:0:0:
192,192,293603,128,0,293978:0:0:0:0:
64,192,293603,1,0,0:0:0:0:
320,192,293834,128,0,293949:0:0:0:0:
64,192,294065,1,0,0:0:0:0:
192,192,294065,128,0,294440:0:0:0:0:
320,192,294295,128,0,294411:0:0:0:0:
448,192,294411,128,0,294468:0:0:0:0:
64,192,294526,1,0,0:0:0:0:
192,192,294526,128,0,294901:0:0:0:0:
64,192,294757,128,0,294872:0:0:0:0:
320,192,294757,128,0,294872:0:0:0:0:
192,192,294988,1,0,0:0:0:0:
64,192,294988,128,0,295391:0:0:0:0:
192,192,295218,128,0,295391:0:0:0:0:
320,192,295218,128,0,295334:0:0:0:0:
448,192,295334,128,0,295391:0:0:0:0:
192,192,295449,128,0,295795:0:0:0:0:
64,192,295449,128,0,295507:0:0:0:0:
320,192,295680,128,0,295795:0:0:0:0:
192,192,295911,128,0,296257:0:0:0:0:
64,192,295911,1,0,0:0:0:0:
320,192,296141,128,0,296257:0:0:0:0:
448,192,296257,128,0,296315:0:0:0:0:
192,192,296372,128,0,296718:0:0:0:0:
64,192,296372,1,0,0:0:0:0:
320,192,296603,128,0,296718:0:0:0:0:
64,192,296834,1,0,0:0:0:0:
192,192,296834,128,0,297180:0:0:0:0:
320,192,297065,128,0,297180:0:0:0:0:
448,192,297180,128,0,297238:0:0:0:0:
192,192,297295,128,0,297641:0:0:0:0:
64,192,297295,1,0,0:0:0:0:
320,192,297526,128,0,297641:0:0:0:0:
64,192,297757,1,0,0:0:0:0:
192,192,297757,128,0,298103:0:0:0:0:
320,192,297988,128,0,298103:0:0:0:0:
448,192,298103,128,0,298161:0:0:0:0:
64,192,298218,1,0,0:0:0:0:
192,192,298218,128,0,298565:0:0:0:0:
64,192,298449,128,0,298565:0:0:0:0:
320,192,298449,128,0,298565:0:0:0:0:
192,192,298680,1,0,0:0:0:0:
64,192,298680,128,0,299084:0:0:0:0:
192,192,298911,128,0,299084:0:0:0:0:
320,192,298911,128,0,299026:0:0:0:0:
448,192,299026,128,0,299084:0:0:0:0:
192,192,299141,128,0,299459:0:0:0:0:
64,192,299141,128,0,299199:0:0:0:0:
320,192,299372,128,0,299488:0:0:0:0:
192,192,299603,128,0,299920:0:0:0:0:
64,192,299603,1,0,0:0:0:0:
320,192,299834,128,0,299949:0:0:0:0:
448,192,299949,128,0,300007:0:0:0:0:
192,192,300065,128,0,300382:0:0:0:0:
64,192,300065,1,0,0:0:0:0:
320,192,300295,128,0,300411:0:0:0:0:
64,192,300526,1,0,0:0:0:0:
192,192,300526,128,0,300843:0:0:0:0:
320,192,300757,128,0,300872:0:0:0:0:
448,192,300872,128,0,300930:0:0:0:0:
192,192,300988,128,0,301305:0:0:0:0:
64,192,300988,1,0,0:0:0:0:
320,192,301218,128,0,301334:0:0:0:0:
64,192,301449,1,0,0:0:0:0:
192,192,301449,128,0,301766:0:0:0:0:
320,192,301680,128,0,301795:0:0:0:0:
448,192,301795,128,0,301853:0:0:0:0:
192,192,301911,128,0,302228:0:0:0:0:
64,192,301911,1,0,0:0:0:0:
320,192,302141,128,0,302257:0:0:0:0:
64,192,302141,128,0,302257:0:0:0:0:
64,192,302372,128,0,302776:0:0:0:0:
192,192,302372,1,0,0:0:0:0:
320,192,302603,128,0,302718:0:0:0:0:
192,192,302603,128,0,302776:0:0:0:0:
448,192,302718,128,0,302776:0:0:0:0:
64,192,302834,128,0,302891:0:0:0:0:
192,192,302834,128,0,303122:0:0:0:0:
320,192,303065,128,0,303180:0:0:0:0:
64,192,303295,1,0,0:0:0:0:
192,192,303295,128,0,303584:0:0:0:0:
320,192,303526,128,0,303641:0:0:0:0:
448,192,303641,128,0,303699:0:0:0:0:
64,192,303757,1,0,0:0:0:0:
192,192,303757,128,0,304045:0:0:0:0:
320,192,303988,128,0,304103:0:0:0:0:
192,192,304218,128,0,304507:0:0:0:0:
64,192,304218,1,0,0:0:0:0:
320,192,304449,128,0,304565:0:0:0:0:
448,192,304565,128,0,304622:0:0:0:0:
64,192,304680,1,0,0:0:0:0:
192,192,304680,128,0,304968:0:0:0:0:
320,192,304911,128,0,305026:0:0:0:0:
192,192,305141,128,0,305430:0:0:0:0:
64,192,305141,1,0,0:0:0:0:
320,192,305372,128,0,305488:0:0:0:0:
448,192,305488,128,0,305545:0:0:0:0:
64,192,305603,1,0,0:0:0:0:
192,192,305603,128,0,305891:0:0:0:0:
64,192,305834,128,0,305949:0:0:0:0:
320,192,305834,128,0,305949:0:0:0:0:
192,192,306065,1,0,0:0:0:0:
64,192,306065,128,0,306468:0:0:0:0:
192,192,306295,128,0,306468:0:0:0:0:
320,192,306295,128,0,306411:0:0:0:0:
448,192,306411,128,0,306468:0:0:0:0:
192,192,306526,128,0,306786:0:0:0:0:
64,192,306526,128,0,306584:0:0:0:0:
320,192,306757,128,0,306872:0:0:0:0:
64,192,306988,1,0,0:0:0:0:
192,192,306988,128,0,307247:0:0:0:0:
320,192,307218,128,0,307334:0:0:0:0:
448,192,307334,128,0,307391:0:0:0:0:
192,192,307449,128,0,307709:0:0:0:0:
64,192,307449,1,0,0:0:0:0:
320,192,307680,128,0,307795:0:0:0:0:
64,192,307911,1,0,0:0:0:0:
192,192,307911,128,0,308170:0:0:0:0:
320,192,308141,128,0,308257:0:0:0:0:
448,192,308257,128,0,308315:0:0:0:0:
192,192,308372,128,0,308632:0:0:0:0:
64,192,308372,1,0,0:0:0:0:
320,192,308603,128,0,308718:0:0:0:0:
64,192,308834,1,0,0:0:0:0:
192,192,308834,128,0,309093:0:0:0:0:
320,192,309065,128,0,309180:0:0:0:0:
448,192,309180,128,0,309238:0:0:0:0:
192,192,309295,128,0,309555:0:0:0:0:
64,192,309295,1,0,0:0:0:0:
320,192,309526,128,0,309641:0:0:0:0:
64,192,309526,128,0,309641:0:0:0:0:
64,192,309757,128,0,310161:0:0:0:0:
192,192,309757,1,0,0:0:0:0:
320,192,309988,128,0,310103:0:0:0:0:
192,192,309988,128,0,310161:0:0:0:0:
448,192,310103,128,0,310161:0:0:0:0:
64,192,310218,128,0,310276:0:0:0:0:
192,192,310218,128,0,310449:0:0:0:0:
320,192,310449,128,0,310565:0:0:0:0:
64,192,310680,1,0,0:0:0:0:
192,192,310680,128,0,310911:0:0:0:0:
320,192,310911,128,0,311026:0:0:0:0:
448,192,311026,128,0,311084:0:0:0:0:
64,192,311141,1,0,0:0:0:0:
192,192,311141,128,0,311372:0:0:0:0:
320,192,311372,128,0,311488:0:0:0:0:
192,192,311603,128,0,311834:0:0:0:0:
64,192,311603,1,0,0:0:0:0:
320,192,311834,128,0,311949:0:0:0:0:
448,192,311949,128,0,312007:0:0:0:0:
64,192,312065,1,0,0:0:0:0:
192,192,312065,128,0,312295:0:0:0:0:
320,192,312295,128,0,312411:0:0:0:0:
192,192,312526,128,0,312757:0:0:0:0:
64,192,312526,1,0,0:0:0:0:
320,192,312757,128,0,312872:0:0:0:0:
448,192,312872,128,0,312930:0:0:0:0:
64,192,312988,1,0,0:0:0:0:
192,192,312988,128,0,313218:0:0:0:0:
64,192,313218,128,0,313334:0:0:0:0:
320,192,313218,128,0,313334:0:0:0:0:
192,192,313449,1,0,0:0:0:0:
64,192,313449,128,0,313853:0:0:0:0:
192,192,313680,128,0,313853:0:0:0:0:
320,192,313680,128,0,313795:0:0:0:0:
448,192,313795,128,0,313853:0:0:0:0:
192,192,313911,128,0,314113:0:0:0:0:
64,192,313911,128,0,313968:0:0:0:0:
320,192,314141,128,0,314257:0:0:0:0:
192,192,314372,128,0,314574:0:0:0:0:
64,192,314372,1,0,0:0:0:0:
320,192,314603,128,0,314718:0:0:0:0:
448,192,314718,128,0,314776:0:0:0:0:
192,192,314834,128,0,315036:0:0:0:0:
64,192,314834,1,0,0:0:0:0:
320,192,315065,128,0,315180:0:0:0:0:
64,192,315295,1,0,0:0:0:0:
192,192,315295,128,0,315497:0:0:0:0:
320,192,315526,128,0,315641:0:0:0:0:
448,192,315641,128,0,315699:0:0:0:0:
192,192,315757,128,0,315959:0:0:0:0:
64,192,315757,1,0,0:0:0:0:
320,192,315988,128,0,316103:0:0:0:0:
64,192,316218,1,0,0:0:0:0:
192,192,316218,128,0,316420:0:0:0:0:
320,192,316449,128,0,316565:0:0:0:0:
448,192,316565,128,0,316622:0:0:0:0:
192,192,316680,128,0,316882:0:0:0:0:
64,192,316680,1,0,0:0:0:0:
320,192,316911,128,0,317026:0:0:0:0:
64,192,316911,128,0,317026:0:0:0:0:
192,192,317141,1,0,0:0:0:0:
64,192,317141,128,0,317661:0:0:0:0:
320,192,317372,128,0,317488:0:0:0:0:
192,192,317372,128,0,317690:0:0:0:0:
448,192,317488,128,0,317718:0:0:0:0:
