osu file format v14

[General]
AudioFilename: audio.mp3
AudioLeadIn: 0
PreviewTime: 56549
Countdown: 0
SampleSet: Soft
StackLeniency: 0.7
Mode: 2
LetterboxInBreaks: 0
WidescreenStoryboard: 1

[Editor]
Bookmarks: 1710,12299,23593,34887,46181
DistanceSpacing: 2.06
BeatDivisor: 4
GridSize: 8
TimelineZoom: 2.1

[Metadata]
Title:Re:Call (TV Size)
TitleUnicode:Re:Call (TV Size)
Artist:i*Ris
ArtistUnicode:i☆Ris
Creator:BlackBN
Version:Re:Platter
Source:双星の陰陽師
Tags:BlackBq anime japanese jrock j-rock rock jpop j-pop pop Twin Star Exorcists Sousei Sōsei no Onmyōji Onmyouji op2 opening 2 two iris recall 山北早紀 Yamakita Saki 芹澤優 Serizawa Yū Yu Yuu 茜屋日海夏 Akaneya Himika 若井友希 Wakai Yūki Yuki Yuuki 久保田未夢 Kubota Miyu 馬渕直純 Mabuchi Naozumi 化野紅緒 Benio Adashino 潘めぐみ Han Megumi WONDERFUL PALETTE Froskya Secre Secre's chickenbible bigh bighzonda 050
BeatmapID:3878469
BeatmapSetID:1876266

[Difficulty]
HPDrainRate:4
CircleSize:3.5
OverallDifficulty:8
ApproachRate:8
SliderMultiplier:1.65
SliderTickRate:2

[Events]
//Background and Video events
0,0,"bg.jpg",0,0
Video,-100,"recall.mp4"
//Break Periods
//Storyboard Layer 0 (Background)
//Storyboard Layer 1 (Fail)
//Storyboard Layer 2 (Pass)
//Storyboard Layer 3 (Foreground)
//Storyboard Layer 4 (Overlay)
//Storyboard Sound Samples

[TimingPoints]
1020,352.941176470588,4,2,2,50,1,0
9490,-100,4,2,2,70,0,0
12314,-100,4,2,2,80,0,0
20961,-100,4,2,2,46,0,0
21049,-100,4,2,2,48,0,0
21137,-100,4,2,2,50,0,0
21225,-100,4,2,2,52,0,0
21314,-100,4,2,2,55,0,0
21402,-100,4,2,2,57,0,0
21490,-100,4,2,2,60,0,0
21578,-100,4,2,2,62,0,0
21667,-100,4,2,2,65,0,0
21755,-100,4,2,2,67,0,0
21843,-100,4,2,2,70,0,0
21931,-100,4,2,2,72,0,0
22019,-100,4,2,2,75,0,0
22108,-100,4,2,2,77,0,0
22196,-100,4,2,2,80,0,0
23608,-100,4,2,2,70,0,0
34902,-100,4,2,2,80,0,0
46196,-100,4,2,2,70,0,0
51843,-100,4,2,2,80,0,0
52196,-100,4,2,2,40,0,0
52372,-100,4,2,2,45,0,0
52549,-100,4,2,2,50,0,0
52725,-100,4,2,2,55,0,0
52902,-100,4,2,2,60,0,0
53078,-100,4,2,2,65,0,0
53255,-100,4,2,2,70,0,0
53431,-100,4,2,2,75,0,0
53608,-100,4,2,2,80,0,0
56608,-100,4,2,2,70,0,0
57402,-100,4,2,2,5,0,0
57490,-100,4,2,2,85,0,1
57755,-100,4,2,2,5,0,1
57843,-100,4,2,2,85,0,1
58814,-100,4,2,2,5,0,1
58902,-100,4,2,2,85,0,1
59167,-100,4,2,2,5,0,1
59255,-100,4,2,2,85,0,1
61637,-100,4,2,2,5,0,1
61725,-100,4,2,2,85,0,1
63049,-100,4,2,2,5,0,1
63137,-100,4,2,2,85,0,1
63402,-100,4,2,2,5,0,1
63490,-100,4,2,2,85,0,1
64461,-100,4,2,2,5,0,1
64549,-100,4,2,2,85,0,1
64814,-100,4,2,2,5,0,1
64902,-100,4,2,2,85,0,1
68784,-100,4,2,2,85,0,1
74431,-100,4,2,2,90,0,1
78314,-100,4,2,2,90,0,0
80078,-100,4,2,2,85,0,0
82814,-100,4,2,2,70,0,0
85019,-100,4,2,2,65,0,0
87137,-100,4,2,2,60,0,0
88019,-100,4,2,2,75,0,0
88196,-100,4,2,2,80,0,0
88372,-100,4,2,2,90,0,0

[Colours]
Combo1 : 255,230,119
Combo2 : 182,94,118
Combo3 : 254,207,227
Combo4 : 128,174,255

[HitObjects]
114,337,1019,6,0,P|61:288|127:245,1,165,2|0,0:0|0:0,0:0:0:0:
203,236,1549,1,2,0:0:0:0:
290,234,1725,2,0,L|295:135,1,82.5,2|0,0:0|0:0,0:0:0:0:
207,147,2078,2,0,L|202:60,1,82.5,0|2,0:0|0:0,0:0:0:0:
361,263,2431,6,0,L|192:263,1,165,2|2,0:0|0:0,0:0:0:0:
280,223,2961,2,0,L|283:128,1,82.5,2|0,0:0|0:0,0:0:0:0:
206,132,3314,2,0,L|90:125,2,82.5,2|0|2,0:0|0:0|0:0,0:0:0:0:
367,317,3843,6,0,P|451:294|458:208,1,165,2|0,0:0|0:0,0:0:0:0:
382,217,4372,2,0,L|277:214,1,82.5,2|0,0:0|0:0,0:0:0:0:
387,153,4725,2,0,L|496:147,2,82.5,2|0|2,0:0|0:0|0:0,0:0:0:0:
227,323,5255,6,0,P|176:273|239:229,1,165,2|0,0:0|0:0,0:0:0:0:
318,235,5784,1,0,0:0:0:0:
403,241,5961,2,0,L|229:241,1,165,2|2,0:0|0:0,0:0:0:0:
153,239,6490,1,2,0:0:0:0:
313,295,6667,6,0,P|300:227|198:204,1,165,2|0,0:0|0:0,0:0:0:0:
130,196,7196,1,0,0:0:0:0:
213,191,7372,2,0,L|311:192,2,82.5,2|2|2,0:0|0:0|0:0,0:0:0:0:
130,196,7902,1,2,0:0:0:0:
289,229,8078,6,0,L|294:130,1,82.5,0|2,0:0|0:0,0:0:0:0:
210,141,8431,2,0,L|113:143,1,82.5,0|2,0:0|0:0,0:0:0:0:
213,293,8784,2,0,L|307:290,2,82.5,0|2|0,0:0|0:0|0:0,0:0:0:0:
126,292,9314,1,2,0:0:0:0:
373,209,9490,1,6,0:0:0:0:
168,192,12314,5,14,1:2:0:0:
256,192,12490,1,4,1:3:0:0:
344,192,12667,1,4,1:3:0:0:
186,261,12843,1,14,1:2:0:0:
103,205,13019,1,4,1:3:0:0:
190,148,13196,1,4,1:3:0:0:
275,148,13372,2,0,L|275:44,1,82.5,14|4,1:2|1:3,0:0:0:0:
117,290,13725,5,14,1:2:0:0:
117,198,13902,1,4,1:3:0:0:
203,188,14078,1,4,1:3:0:0:
360,184,14255,1,14,1:2:0:0:
444,143,14431,1,4,1:3:0:0:
357,93,14608,1,4,1:3:0:0:
273,88,14784,2,0,L|160:90,1,82.5,14|4,1:2|1:3,0:0:0:0:
349,289,15137,5,14,1:2:0:0:
349,206,15314,1,4,1:3:0:0:
263,207,15490,1,4,1:3:0:0:
104,187,15667,1,14,1:2:0:0:
189,181,15843,1,4,1:3:0:0:
274,176,16019,1,4,1:3:0:0:
190,145,16196,2,0,L|191:26,1,82.5,14|4,1:2|1:3,0:0:0:0:
350,282,16549,5,14,1:2:0:0:
264,231,16725,1,4,1:3:0:0:
349,175,16902,1,4,1:3:0:0:
191,173,17078,1,14,1:2:0:0:
105,159,17255,1,4,1:3:0:0:
105,74,17431,1,4,1:3:0:0:
265,70,17608,2,0,L|385:67,1,82.5,14|4,1:2|1:3,0:0:0:0:
99,315,17961,6,0,L|15:310,2,82.5,14|4|4,1:2|1:3|1:3,0:0:0:0:
256,300,18490,1,14,1:2:0:0:
258,212,18667,1,4,1:3:0:0:
171,203,18843,1,4,1:3:0:0:
88,198,19019,2,0,L|191:192,1,82.5,14|4,1:2|1:3,0:0:0:0:
328,291,19372,6,0,L|418:286,2,82.5,14|4|4,1:2|1:3|1:3,0:0:0:0:
171,242,19902,1,14,1:2:0:0:
256,232,20078,1,4,1:3:0:0:
255,145,20255,1,4,1:3:0:0:
171,129,20431,2,0,L|73:119,1,82.5,14|4,1:2|1:3,0:0:0:0:
338,313,20784,6,0,P|391:258|310:223,1,165,14|8,1:2|1:2,0:0:0:0:
176,261,21314,1,8,1:2:0:0:
135,255,21402,1,8,1:2:0:0:
100,233,21490,1,8,1:2:0:0:
78,199,21578,1,8,1:2:0:0:
73,158,21666,1,8,1:2:0:0:
85,119,21755,1,8,1:2:0:0:
113,89,21843,1,8,1:2:0:0:
151,73,21931,1,8,1:2:0:0:
192,75,22019,1,8,1:2:0:0:
279,186,22196,5,10,1:2:0:0:
33,313,22372,2,0,L|28:220,1,82.5,14|14,1:2|1:2,0:0:0:0:
113,193,22725,1,4,1:3:0:0:
271,257,22902,2,0,L|274:158,1,82.5,14|10,1:2|1:2,0:0:0:0:
188,148,23255,1,10,1:2:0:0:
147,145,23343,1,8,1:2:0:0:
106,142,23431,1,10,1:2:0:0:
356,305,23608,6,0,P|420:292|458:188,1,165,4|0,1:0|1:0,0:0:0:0:
376,181,24137,1,2,0:0:0:0:
290,168,24314,2,0,P|245:146|314:83,1,165,2|0,1:2|1:0,0:0:0:0:
381,74,24843,1,2,0:0:0:0:
224,315,25019,6,0,P|138:277|141:195,1,165,2|2,1:2|1:2,0:0:0:0:
219,203,25549,2,0,L|301:202,2,82.5,2|0|2,0:0|1:0|0:0,0:0:0:0:
133,206,26078,2,0,L|129:119,1,82.5,0|2,1:0|0:0,0:0:0:0:
288,334,26431,6,0,P|337:305|275:246,1,165,2|2,1:2|1:2,0:0:0:0:
195,248,26961,2,0,L|98:248,2,82.5,2|0|2,0:0|1:0|0:0,0:0:0:0:
280,244,27490,2,0,L|362:243,1,82.5,0|2,1:0|0:0,0:0:0:0:
205,326,27843,6,0,L|201:230,1,82.5,2|0,1:2|0:0,0:0:0:0:
287,234,28196,2,0,P|359:219|387:133,1,165,2|2,1:3|1:3,0:0:0:0:
304,131,28725,1,0,0:0:0:0:
219,128,28902,2,0,L|111:126,1,82.5,2|2,1:3|0:0,0:0:0:0:
293,332,29255,6,0,P|345:297|271:251,1,165,2|0,1:2|1:0,0:0:0:0:
201,234,29784,1,2,0:0:0:0:
287,227,29961,2,0,L|469:231,1,165,2|0,1:2|1:0,0:0:0:0:
364,234,30490,1,2,0:0:0:0:
206,315,30667,6,0,P|141:303|106:213,1,165,2|2,1:2|1:2,0:0:0:0:
190,204,31196,2,0,L|307:199,2,82.5,2|0|2,0:0|1:0|0:0,0:0:0:0:
105,211,31725,2,0,L|100:111,1,82.5,0|2,1:0|0:0,0:0:0:0:
258,297,32078,6,0,P|248:233|162:195,1,165,2|0,1:2|1:0,0:0:0:0:
79,193,32608,1,0,0:0:0:0:
236,197,32784,2,0,L|423:199,1,165,2|2,1:2|1:2,0:0:0:0:
316,200,33314,1,0,0:0:0:0:
159,279,33490,6,0,L|77:279,2,82.5,2|2|0,1:2|0:0|1:0,0:0:0:0:
242,279,34019,1,2,0:0:0:0:
157,257,34196,2,0,L|152:146,1,82.5,0|0,1:2|0:0,0:0:0:0:
320,167,34549,2,0,L|408:167,1,82.5,4|2,1:2|0:0,0:0:0:0:
154,309,34902,6,0,L|55:308,2,82.5,4|2|10,1:0|0:0|0:0,0:0:0:0:
239,308,35431,1,2,0:0:0:0:
395,297,35608,2,0,L|399:210,1,82.5,2|0,1:2|0:0,0:0:0:0:
356,196,35872,2,0,L|231:190,1,123.75,2|2,0:0|0:0,0:0:0:0:
389,340,36314,6,0,L|394:252,1,82.5,2|2,1:2|0:0,0:0:0:0:
309,257,36667,2,0,L|218:254,1,82.5,10|2,0:0|0:0,0:0:0:0:
75,257,37019,2,0,L|71:156,1,82.5,2|0,1:2|0:0,0:0:0:0:
112,161,37284,2,0,L|256:156,1,123.75,2|2,0:0|0:0,0:0:0:0:
393,277,37725,5,2,1:2:0:0:
481,252,37902,1,2,0:0:0:0:
480,165,38078,1,10,0:0:0:0:
392,152,38255,1,2,0:0:0:0:
234,295,38431,2,0,L|230:199,1,82.5,2|0,1:2|0:0,0:0:0:0:
275,204,38696,1,2,0:0:0:0:
318,201,38784,2,0,L|321:101,1,82.5,10|2,0:0|0:0,0:0:0:0:
162,308,39137,6,0,L|66:303,2,82.5,2|2|10,1:2|0:0|0:0,0:0:0:0:
248,309,39667,1,2,0:0:0:0:
405,313,39843,2,0,L|284:304,1,82.5,2|2,1:2|0:0,0:0:0:0:
366,274,40108,1,2,0:0:0:0:
408,266,40196,2,0,L|412:174,1,82.5,8|2,0:0|0:0,0:0:0:0:
253,319,40549,6,0,L|247:226,1,82.5,2|2,1:2|0:0,0:0:0:0:
333,217,40902,2,0,L|426:213,1,82.5,10|2,0:0|0:0,0:0:0:0:
257,193,41255,2,0,L|251:99,1,82.5,2|0,1:2|0:0,0:0:0:0:
295,99,41519,2,0,L|441:101,1,123.75,2|2,0:0|0:0,0:0:0:0:
259,314,41961,6,0,L|167:318,1,82.5,2|2,1:2|0:0,0:0:0:0:
261,258,42314,2,0,L|347:255,1,82.5,10|2,0:0|0:0,0:0:0:0:
185,255,42667,2,0,L|178:160,1,82.5,2|0,1:2|0:0,0:0:0:0:
221,162,42931,2,0,P|261:127|205:94,1,123.75,2|2,0:0|0:0,0:0:0:0:
59,330,43372,6,0,P|69:264|157:229,1,165,2|8,1:2|0:0,0:0:0:0:
239,230,43902,1,2,0:0:0:0:
396,235,44078,2,0,P|434:189|394:151,1,123.75,2|2,1:2|0:0,0:0:0:0:
353,146,44431,2,0,L|240:147,1,82.5,8|2,0:0|0:0,0:0:0:0:
112,312,44784,6,0,L|301:304,1,165,2|8,1:2|0:0,0:0:0:0:
361,295,45314,1,0,0:0:0:0:
203,273,45490,2,0,L|199:188,1,82.5,2|4,1:2|1:3,0:0:0:0:
283,181,45843,1,10,0:0:0:0:
325,178,45931,1,8,0:0:0:0:
366,176,46019,1,8,0:0:0:0:
115,328,46196,5,4,1:0:0:0:
114,242,46372,1,0,1:0:0:0:
197,237,46549,1,2,1:2:0:0:
282,236,46725,1,2,1:2:0:0:
196,171,46902,1,8,0:0:0:0:
366,206,47255,5,2,1:2:0:0:
364,127,47431,1,0,1:0:0:0:
278,128,47608,2,0,L|199:125,2,41.25,2|0|2,1:2|1:0|1:2,0:0:0:0:
364,127,47961,1,8,0:0:0:0:
196,306,48314,5,2,1:2:0:0:
155,306,48402,1,0,1:0:0:0:
114,306,48490,1,2,1:2:0:0:
200,238,48667,1,10,0:0:0:0:
479,311,49019,5,4,1:0:0:0:
396,250,49196,2,0,L|316:242,2,41.25,0|0|2,1:0|0:0|1:2,0:0:0:0:
479,169,49549,1,2,1:2:0:0:
394,127,49725,1,8,0:0:0:0:
224,293,50078,5,2,1:2:0:0:
141,265,50255,1,0,1:0:0:0:
224,221,50431,1,2,1:2:0:0:
266,220,50519,1,0,1:0:0:0:
309,218,50608,1,2,1:2:0:0:
222,138,50784,1,8,0:0:0:0:
392,252,51137,5,2,1:2:0:0:
393,172,51314,1,2,1:2:0:0:
236,163,51490,2,0,L|152:160,1,82.5,10|2,0:0|1:2,0:0:0:0:
399,327,51843,6,0,P|459:317|490:211,1,165,6|2,1:2|1:2,0:0:0:0:
411,207,52372,1,2,1:2:0:0:
326,198,52549,2,0,L|219:194,1,82.5,0|0,1:0|1:0,0:0:0:0:
401,296,52902,6,0,L|405:187,1,82.5,2|0,1:2|1:0,0:0:0:0:
319,196,53255,1,2,1:2:0:0:
404,159,53431,2,0,L|520:155,2,82.5,2|0|2,1:2|1:0|1:2,0:0:0:0:
244,333,53961,6,0,L|139:330,1,82.5,2|8,1:2|1:3,0:0:0:0:
122,321,54225,1,0,0:0:0:0:
106,285,54313,1,10,1:2:0:0:
124,250,54401,1,8,1:2:0:0:
164,244,54489,1,8,1:2:0:0:
415,329,54667,6,0,L|416:215,1,82.5,14|4,0:0|1:3,0:0:0:0:
330,228,55019,1,4,1:3:0:0:
173,226,55196,2,0,L|82:226,2,82.5,14|4|4,0:0|1:3|1:3,0:0:0:0:
332,214,55725,2,0,L|335:114,1,82.5,14|4,0:0|1:3,0:0:0:0:
85,307,56078,5,14,1:2:0:0:
83,199,56255,1,14,1:2:0:0:
81,96,56431,1,14,1:2:0:0:
400,268,57490,6,0,L|208:263,1,165,4|8,1:0|0:0,0:0:0:0:
321,229,58019,1,2,0:0:0:0:
163,237,58196,2,0,L|159:142,1,82.5,2|2,1:2|0:0,0:0:0:0:
245,141,58549,2,0,L|364:137,1,82.5,10|0,0:0|0:0,0:0:0:0:
75,312,58902,6,0,P|26:278|86:214,1,165,2|8,1:2|0:0,0:0:0:0:
167,211,59431,1,2,0:0:0:0:
325,216,59608,2,0,L|434:216,1,82.5,2|2,1:2|0:0,0:0:0:0:
320,162,59961,2,0,L|218:161,1,82.5,10|2,0:0|0:0,0:0:0:0:
487,328,60314,6,0,L|491:156,1,165,2|10,1:2|0:0,0:0:0:0:
331,157,60843,2,0,L|217:159,2,82.5,2|0|2,0:0|0:0|0:0,0:0:0:0:
246,116,61372,2,0,L|148:113,1,82.5,10|0,0:0|0:0,0:0:0:0:
322,300,61725,6,0,P|367:295|421:195,1,165,2|8,1:2|0:0,0:0:0:0:
263,186,62255,2,0,L|166:186,2,82.5,2|2|2,0:0|1:2|0:0,0:0:0:0:
349,186,62784,2,0,L|354:82,1,82.5,10|0,0:0|0:0,0:0:0:0:
106,282,63137,6,0,L|303:286,1,165,4|8,1:0|0:0,0:0:0:0:
184,239,63667,1,2,0:0:0:0:
342,243,63843,2,0,L|346:161,1,82.5,2|0,1:2|0:0,0:0:0:0:
261,151,64196,2,0,L|156:154,1,82.5,10|0,0:0|0:0,0:0:0:0:
429,334,64549,6,0,P|478:307|413:244,1,165,2|10,1:2|0:0,0:0:0:0:
341,245,65078,1,2,0:0:0:0:
181,230,65255,2,0,L|91:232,2,82.5,2|2|10,1:2|0:0|0:0,0:0:0:0:
266,221,65784,1,2,0:0:0:0:
23,216,65961,6,0,L|225:211,1,165,2|8,1:2|0:0,0:0:0:0:
347,212,66490,2,0,L|351:116,1,82.5,2|0,0:0|1:0,0:0:0:0:
264,125,66843,2,0,L|163:125,2,82.5,2|8|2,0:0|0:0|0:0,0:0:0:0:
424,322,67372,6,0,P|476:267|396:239,1,165,2|8,1:2|0:0,0:0:0:0:
334,228,67902,1,0,0:0:0:0:
178,233,68078,1,4,3:0:0:0:
91,236,68255,1,8,3:0:0:0:
54,221,68343,1,8,3:0:0:0:
40,184,68431,1,4,3:0:0:0:
59,148,68519,1,4,3:0:0:0:
98,139,68607,1,4,3:0:0:0:
350,311,68784,6,0,P|429:297|456:217,1,165,4|10,1:0|0:0,0:0:0:0:
371,203,69314,1,0,1:0:0:0:
213,209,69490,2,0,L|207:109,1,82.5,2|0,0:0|1:0,0:0:0:0:
292,128,69843,2,0,L|295:46,1,82.5,10|0,0:0|1:0,0:0:0:0:
47,319,70196,6,0,P|61:248|144:216,1,165,4|10,1:0|0:0,0:0:0:0:
226,225,70725,1,0,1:0:0:0:
385,230,70902,2,0,L|280:229,1,82.5,2|0,0:0|1:0,0:0:0:0:
218,229,71255,2,0,L|215:140,1,82.5,10|0,0:0|1:0,0:0:0:0:
465,308,71608,6,0,L|470:138,1,165,4|10,1:0|0:0,0:0:0:0:
385,141,72137,1,0,1:0:0:0:
226,133,72314,2,0,L|223:31,1,82.5,2|0,0:0|1:0,0:0:0:0:
309,40,72667,2,0,L|407:45,1,82.5,10|0,0:0|1:0,0:0:0:0:
142,308,73019,6,0,L|50:302,2,82.5,4|2|8,1:0|1:2|0:0,0:0:0:0:
302,314,73549,2,0,L|307:220,1,82.5,2|0,1:2|0:0,0:0:0:0:
221,222,73902,2,0,L|314:221,1,82.5,2|10,1:2|0:0,0:0:0:0:
390,220,74255,1,0,1:0:0:0:
141,310,74431,6,0,L|30:307,2,82.5,14|4|0,0:0|1:3|1:0,0:0:0:0:
300,292,74961,2,0,L|392:293,2,82.5,14|4|2,0:0|1:3|1:2,0:0:0:0:
216,293,75490,2,0,L|211:188,1,82.5,14|4,0:0|1:3,0:0:0:0:
300,195,75843,1,2,1:2:0:0:
51,284,76019,6,0,L|48:190,1,82.5,14|4,0:0|1:3,0:0:0:0:
134,196,76372,1,2,1:2:0:0:
294,194,76549,2,0,L|463:197,1,165,14|14,0:0|0:0,0:0:0:0:
374,197,77078,1,4,1:3:0:0:
216,198,77255,5,14,0:0:0:0:
130,188,77431,2,0,L|64:186,2,41.25,4|4|4,1:3|1:3|1:3,0:0:0:0:
290,142,77784,1,14,0:0:0:0:
376,139,77961,1,4,1:3:0:0:
335,139,78049,1,4,1:3:0:0:
294,140,78137,1,4,1:3:0:0:
44,126,78314,1,14,0:0:0:0:
344,192,80078,5,14,1:2:0:0:
256,192,80255,1,4,1:3:0:0:
168,192,80431,1,4,1:3:0:0:
328,267,80608,1,14,1:2:0:0:
411,216,80784,1,4,1:3:0:0:
326,154,80961,1,4,1:3:0:0:
242,157,81137,2,0,L|240:50,1,82.5,14|4,1:2|1:3,0:0:0:0:
323,64,81490,1,4,1:3:0:0:
166,278,81667,6,0,L|77:283,2,82.5,14|4|4,1:2|1:3|1:3,0:0:0:0:
327,276,82196,2,0,L|328:179,1,82.5,14|14,1:2|1:2,0:0:0:0:
44,176,82725,5,4,1:0:0:0:
256,192,82902,12,0,87490,0:0:0:0:
168,192,88019,5,2,1:2:0:0:
256,192,88196,1,2,1:2:0:0:
344,192,88372,1,2,1:2:0:0:
