osu file format v14

[General]
AudioFilename: audio.mp3
AudioLeadIn: 0
PreviewTime: 56549
Countdown: 0
SampleSet: Soft
StackLeniency: 0.7
Mode: 2
LetterboxInBreaks: 0
WidescreenStoryboard: 0

[Editor]
Bookmarks: 12299,23593,34887,46181
DistanceSpacing: 2.2
BeatDivisor: 4
GridSize: 8
TimelineZoom: 1.7

[Metadata]
Title:Re:Call (TV Size)
TitleUnicode:Re:Call (TV Size)
Artist:i*Ris
ArtistUnicode:i☆Ris
Creator:BlackBN
Version:Re:Overdose
Source:双星の陰陽師
Tags:BlackBq anime japanese jrock j-rock rock jpop j-pop pop Twin Star Exorcists Sousei Sōsei no Onmyōji Onmyouji op2 opening 2 two iris recall 山北早紀 Yamakita Saki 芹澤優 Serizawa Yū Yu Yuu 茜屋日海夏 Akaneya Himika 若井友希 Wakai Yūki Yuki Yuuki 久保田未夢 Kubota Miyu 馬渕直純 Mabuchi Naozumi 化野紅緒 Benio Adashino 潘めぐみ Han Megumi WONDERFUL PALETTE Froskya Secre Secre's chickenbible bigh bighzonda 050
BeatmapID:3861154
BeatmapSetID:1876266

[Difficulty]
HPDrainRate:6
CircleSize:4.1
OverallDifficulty:9.3
ApproachRate:9.3
SliderMultiplier:2
SliderTickRate:2

[Events]
//Background and Video events
0,0,"bg.jpg",0,0
Video,-100,"recall.mp4"
//Break Periods
//Storyboard Layer 0 (Background)
//Storyboard Layer 1 (Fail)
//Storyboard Layer 2 (Pass)
//Storyboard Layer 3 (Foreground)
//Storyboard Layer 4 (Overlay)
//Storyboard Sound Samples

[TimingPoints]
1020,352.941176470588,4,2,2,50,1,0
9490,-100,4,2,2,70,0,0
12314,-100,4,2,2,80,0,0
20961,-100,4,2,2,46,0,0
21049,-100,4,2,2,48,0,0
21137,-100,4,2,2,50,0,0
21225,-100,4,2,2,52,0,0
21314,-100,4,2,2,55,0,0
21402,-100,4,2,2,57,0,0
21490,-100,4,2,2,60,0,0
21578,-100,4,2,2,62,0,0
21667,-100,4,2,2,65,0,0
21755,-100,4,2,2,67,0,0
21843,-100,4,2,2,70,0,0
21931,-100,4,2,2,72,0,0
22019,-100,4,2,2,75,0,0
22108,-100,4,2,2,77,0,0
22196,-100,4,2,2,80,0,0
23608,-100,4,2,2,70,0,0
34902,-100,4,2,2,80,0,0
46196,-100,4,2,2,70,0,0
51843,-100,4,2,2,80,0,0
52196,-100,4,2,2,40,0,0
52372,-100,4,2,2,45,0,0
52549,-100,4,2,2,50,0,0
52725,-100,4,2,2,55,0,0
52902,-100,4,2,2,60,0,0
53078,-100,4,2,2,65,0,0
53255,-100,4,2,2,70,0,0
53431,-100,4,2,2,75,0,0
53608,-100,4,2,2,80,0,0
56608,-100,4,2,2,70,0,0
57402,-100,4,2,2,30,0,0
57490,-42.5531914893617,4,2,2,85,0,1
57755,-42.5531914893617,4,2,2,30,0,1
57843,-90.9090909090909,4,2,2,85,0,1
58814,-90.9090909090909,4,2,2,30,0,1
58902,-42.5531914893617,4,2,2,85,0,1
59167,-42.5531914893617,4,2,2,30,0,1
59255,-90.9090909090909,4,2,2,85,0,1
61637,-90.9090909090909,4,2,2,30,0,1
61725,-90.9090909090909,4,2,2,85,0,1
63049,-90.9090909090909,4,2,2,30,0,1
63137,-42.5531914893617,4,2,2,85,0,1
63402,-42.5531914893617,4,2,2,30,0,1
63490,-90.9090909090909,4,2,2,85,0,1
64461,-90.9090909090909,4,2,2,30,0,1
64549,-42.5531914893617,4,2,2,85,0,1
64814,-42.5531914893617,4,2,2,30,0,1
64902,-90.9090909090909,4,2,2,85,0,1
68784,-100,4,2,2,85,0,1
74431,-100,4,2,2,90,0,1
78314,-100,4,2,2,90,0,0
80078,-100,4,2,2,85,0,0
82814,-100,4,2,2,70,0,0
85019,-100,4,2,2,65,0,0
87137,-100,4,2,2,60,0,0
88019,-100,4,2,2,75,0,0
88196,-100,4,2,2,80,0,0
88372,-100,4,2,2,90,0,0

[Colours]
Combo1 : 255,230,119
Combo2 : 182,94,118
Combo3 : 254,207,227
Combo4 : 128,174,255

[HitObjects]
95,329,1019,6,0,L|90:214,1,100,2|0,0:0|0:0,0:0:0:0:
255,235,1372,2,0,L|256:115,1,100,0|2,0:0|0:0,0:0:0:0:
419,161,1725,2,0,L|425:51,1,100,2|0,0:0|0:0,0:0:0:0:
262,65,2078,2,0,L|145:70,1,100,0|2,0:0|0:0,0:0:0:0:
404,312,2431,6,0,P|453:285|381:188,1,200,2|2,0:0|0:0,0:0:0:0:
234,185,2961,2,0,L|105:187,1,100,2|0,0:0|0:0,0:0:0:0:
298,164,3314,2,0,L|401:164,2,100,2|0|2,0:0|0:0|0:0,0:0:0:0:
54,220,3843,6,0,L|270:220,1,200,2|0,0:0|0:0,0:0:0:0:
420,237,4372,2,0,L|423:127,1,100,2|0,0:0|0:0,0:0:0:0:
261,152,4725,2,0,L|158:156,1,100,2|0,0:0|0:0,0:0:0:0:
326,90,5078,1,2,0:0:0:0:
83,281,5255,6,0,P|27:248|107:168,1,200,2|0,0:0|0:0,0:0:0:0:
251,158,5784,1,0,0:0:0:0:
411,159,5961,2,0,L|414:51,1,100,2|0,0:0|0:0,0:0:0:0:
250,73,6314,1,2,0:0:0:0:
412,43,6490,1,2,0:0:0:0:
165,299,6667,6,0,P|183:213|294:184,1,200,2|0,0:0|0:0,0:0:0:0:
440,187,7196,1,0,0:0:0:0:
280,179,7372,2,0,L|175:176,2,100,2|2|2,0:0|0:0|0:0,0:0:0:0:
108,143,7902,1,2,0:0:0:0:
350,278,8078,6,0,L|462:267,2,100,0|2|0,0:0|0:0|0:0,0:0:0:0:
188,221,8608,2,0,L|186:113,1,100,2|0,0:0|0:0,0:0:0:0:
351,108,8961,2,0,L|455:105,1,100,2|0,0:0|0:0,0:0:0:0:
288,111,9314,1,2,0:0:0:0:
25,109,9490,5,6,0:0:0:0:
256,192,9667,12,2,11961,0:0:0:0:
375,343,12314,5,14,1:2:0:0:
211,278,12490,1,4,1:3:0:0:
372,196,12667,1,4,1:3:0:0:
131,217,12843,1,14,1:2:0:0:
292,134,13019,1,4,1:3:0:0:
127,54,13196,1,4,1:3:0:0:
368,188,13372,1,14,1:2:0:0:
198,187,13549,1,4,1:3:0:0:
463,249,13725,5,14,1:2:0:0:
299,201,13902,1,4,1:3:0:0:
463,144,14078,1,4,1:3:0:0:
217,262,14255,1,14,1:2:0:0:
53,214,14432,1,4,1:3:0:0:
217,157,14608,1,4,1:3:0:0:
460,152,14784,1,14,1:2:0:0:
298,148,14961,1,4,1:3:0:0:
34,168,15137,5,14,1:2:0:0:
194,160,15314,1,4,1:3:0:0:
355,153,15490,1,4,1:3:0:0:
110,262,15667,1,14,1:2:0:0:
271,212,15843,1,4,1:3:0:0:
110,161,16019,1,4,1:3:0:0:
355,135,16196,1,14,1:2:0:0:
195,103,16372,1,4,1:3:0:0:
460,308,16549,5,14,1:2:0:0:
300,255,16725,1,4,1:3:0:0:
461,206,16902,1,4,1:3:0:0:
215,187,17078,1,14,1:2:0:0:
53,178,17255,1,4,1:3:0:0:
313,177,17431,1,4,1:3:0:0:
67,129,17608,1,14,1:2:0:0:
229,95,17784,1,4,1:3:0:0:
494,179,17961,5,14,1:2:0:0:
334,155,18137,1,4,1:3:0:0:
170,128,18314,1,4,1:3:0:0:
415,263,18490,2,0,L|295:262,2,100,14|4|4,1:2|1:3|1:3,0:0:0:0:
170,249,19019,2,0,L|61:247,1,100,14|4,1:2|1:3,0:0:0:0:
343,233,19372,5,14,1:2:0:0:
183,183,19549,1,4,1:3:0:0:
343,130,19725,1,4,1:3:0:0:
100,283,19902,2,0,L|207:278,2,100,14|4|4,1:2|1:3|1:3,0:0:0:0:
345,264,20431,2,0,L|346:143,1,100,14|4,1:2|1:3,0:0:0:0:
80,204,20784,6,0,L|215:200,1,100,14|8,1:2|1:2,0:0:0:0:
232,194,21049,1,8,1:2:0:0:
407,309,21137,1,8,1:2:0:0:
463,292,21225,1,8,1:2:0:0:
461,235,21314,1,8,1:2:0:0:
406,215,21402,1,8,1:2:0:0:
217,164,21490,6,0,L|130:168,1,50,8|8,1:2|1:2,0:0:0:0:
354,106,21667,2,0,L|422:102,1,50,8|8,1:2|1:2,0:0:0:0:
193,247,21843,2,0,L|252:249,1,50,8|8,1:2|1:2,0:0:0:0:
452,184,22019,2,0,L|512:188,1,50,8|8,1:2|1:2,0:0:0:0:
277,291,22196,5,10,1:2:0:0:
18,251,22372,1,14,1:2:0:0:
277,191,22549,1,14,1:2:0:0:
116,167,22725,1,4,1:3:0:0:
381,177,22902,5,14,1:2:0:0:
140,142,23078,1,10,1:2:0:0:
387,219,23255,2,0,L|452:215,1,50,10|8,1:2|1:2,0:0:0:0:
257,180,23431,2,0,L|192:183,1,50,10|8,1:2|1:2,0:0:0:0:
436,281,23608,6,0,P|497:241|422:172,1,200,4|0,1:0|1:0,0:0:0:0:
264,167,24137,1,2,0:0:0:0:
423,175,24314,2,0,L|426:73,1,100,2|0,1:2|0:0,0:0:0:0:
271,70,24667,2,0,L|373:64,1,100,0|2,1:0|0:0,0:0:0:0:
316,37,24931,1,2,0:0:0:0:
142,285,25019,6,0,P|144:228|266:163,1,200,2|2,1:2|1:2,0:0:0:0:
416,171,25549,2,0,L|420:58,1,100,2|0,0:0|1:0,0:0:0:0:
256,61,25902,2,0,L|150:58,1,100,2|0,0:0|1:0,0:0:0:0:
320,83,26255,1,2,0:0:0:0:
76,275,26431,6,0,L|280:273,1,200,2|2,1:2|1:2,0:0:0:0:
113,221,26961,2,0,L|110:118,1,100,2|0,0:0|1:0,0:0:0:0:
275,139,27314,2,0,L|279:34,1,100,2|0,0:0|1:0,0:0:0:0:
119,58,27667,1,2,0:0:0:0:
367,290,27843,6,0,L|470:288,1,100,2|0,1:2|0:0,0:0:0:0:
303,268,28196,2,0,P|233:255|185:133,1,200,2|2,1:3|1:3,0:0:0:0:
341,140,28725,1,0,0:0:0:0:
182,101,28902,1,2,1:3:0:0:
341,66,29078,1,2,0:0:0:0:
97,295,29255,6,0,P|41:268|118:193,1,200,2|0,1:2|1:0,0:0:0:0:
267,200,29784,1,2,0:0:0:0:
107,141,29961,2,0,L|218:140,1,100,2|0,1:2|0:0,0:0:0:0:
371,138,30314,2,0,L|374:36,1,100,0|2,1:0|0:0,0:0:0:0:
133,285,30667,6,0,P|141:213|257:168,1,200,2|2,1:2|1:2,0:0:0:0:
408,170,31196,2,0,L|299:168,1,100,2|0,0:0|1:0,0:0:0:0:
154,119,31549,2,0,L|256:115,1,100,2|0,0:0|1:0,0:0:0:0:
415,109,31902,1,2,0:0:0:0:
174,276,32078,6,0,L|72:275,2,100,2|0|0,1:2|0:0|1:0,0:0:0:0:
336,248,32608,1,0,0:0:0:0:
173,211,32784,2,0,L|393:208,1,200,2|2,1:2|1:2,0:0:0:0:
212,170,33314,1,0,0:0:0:0:
453,187,33490,6,0,L|328:170,1,100,2|2,1:2|0:0,0:0:0:0:
192,179,33843,2,0,L|187:53,1,100,0|2,1:0|0:0,0:0:0:0:
351,301,34196,2,0,L|457:305,1,100,0|0,1:2|0:0,0:0:0:0:
208,100,34549,2,0,L|97:98,1,100,4|2,1:2|0:0,0:0:0:0:
373,329,34902,6,0,L|253:321,2,100,4|2|10,1:0|0:0|0:0,0:0:0:0:
211,282,35431,1,2,0:0:0:0:
451,287,35608,2,0,L|452:181,1,100,2|0,1:2|0:0,0:0:0:0:
398,183,35872,1,2,0:0:0:0:
231,179,35961,2,0,L|108:176,1,100,8|2,0:0|0:0,0:0:0:0:
377,274,36314,6,0,L|250:277,1,100,2|2,1:2|0:0,0:0:0:0:
116,277,36667,2,0,L|113:174,1,100,10|2,0:0|0:0,0:0:0:0:
354,166,37019,2,0,L|464:158,1,100,2|0,1:2|0:0,0:0:0:0:
401,132,37284,1,2,0:0:0:0:
226,169,37372,2,0,L|221:59,1,100,8|2,0:0|0:0,0:0:0:0:
463,310,37725,6,0,L|334:307,1,100,2|2,1:2|0:0,0:0:0:0:
202,285,38078,2,0,L|201:155,1,100,10|2,0:0|0:0,0:0:0:0:
447,218,38431,2,0,L|337:216,1,100,2|0,1:2|0:0,0:0:0:0:
295,212,38696,1,2,0:0:0:0:
121,198,38784,1,10,0:0:0:0:
283,169,38961,1,2,0:0:0:0:
38,317,39137,6,0,L|150:310,1,100,2|2,1:2|0:0,0:0:0:0:
301,303,39490,2,0,L|308:179,1,100,10|2,0:0|0:0,0:0:0:0:
144,208,39843,2,0,L|139:99,1,100,2|2,1:2|0:0,0:0:0:0:
191,103,40108,1,2,0:0:0:0:
362,109,40196,2,0,L|252:104,1,100,8|2,0:0|0:0,0:0:0:0:
18,277,40549,6,0,L|128:275,2,100,2|2|10,1:2|0:0|0:0,0:0:0:0:
178,274,41078,1,2,0:0:0:0:
420,284,41255,2,0,L|298:272,1,100,2|0,1:2|0:0,0:0:0:0:
268,267,41519,1,2,0:0:0:0:
91,219,41608,2,0,L|198:214,1,100,8|2,0:0|0:0,0:0:0:0:
436,217,41961,6,0,L|440:95,1,100,2|2,1:2|0:0,0:0:0:0:
276,98,42314,2,0,L|406:96,1,100,10|2,0:0|0:0,0:0:0:0:
132,295,42667,2,0,L|128:169,1,100,2|0,1:2|0:0,0:0:0:0:
181,193,42931,1,2,0:0:0:0:
356,196,43019,2,0,L|360:86,1,100,8|2,0:0|0:0,0:0:0:0:
306,94,43284,1,2,0:0:0:0:
123,266,43372,6,0,P|139:178|257:152,1,200,2|8,1:2|0:0,0:0:0:0:
397,157,43902,1,2,0:0:0:0:
152,273,44078,2,0,L|32:271,1,100,2|0,1:2|0:0,0:0:0:0:
106,236,44343,1,2,0:0:0:0:
283,221,44431,1,8,0:0:0:0:
122,173,44608,1,2,0:0:0:0:
367,237,44784,6,0,L|138:233,1,200,2|8,1:2|0:0,0:0:0:0:
331,192,45314,1,0,0:0:0:0:
88,191,45490,2,0,L|85:86,1,100,2|4,1:2|1:3,0:0:0:0:
324,121,45843,2,0,L|250:128,1,50,10|8,0:0|0:0,0:0:0:0:
103,91,46019,2,0,L|39:96,1,50,8|0,0:0|0:0,0:0:0:0:
282,296,46196,5,4,1:0:0:0:
390,263,46372,1,0,1:0:0:0:
393,166,46549,1,2,1:2:0:0:
280,130,46725,1,2,1:2:0:0:
37,133,46902,5,8,0:0:0:0:
322,320,47255,1,2,1:2:0:0:
220,255,47431,1,0,1:0:0:0:
324,197,47608,2,0,L|387:196,2,50,2|0|2,1:2|1:0|1:2,0:0:0:0:
81,196,47961,5,8,0:0:0:0:
365,329,48314,1,2,1:2:0:0:
313,330,48402,1,0,1:0:0:0:
261,332,48490,1,2,1:2:0:0:
424,287,48667,2,0,L|428:172,1,100,10|0,0:0|0:0,0:0:0:0:
164,258,49019,5,4,1:0:0:0:
62,245,49196,1,0,1:0:0:0:
163,197,49372,1,2,1:2:0:0:
212,195,49460,1,0,1:0:0:0:
262,194,49548,1,2,1:2:0:0:
21,145,49725,5,8,0:0:0:0:
303,319,50078,1,2,1:2:0:0:
407,298,50255,1,0,1:0:0:0:
303,231,50431,1,2,1:2:0:0:
352,228,50519,1,0,1:0:0:0:
402,226,50607,1,2,1:2:0:0:
160,180,50784,5,8,0:0:0:0:
441,320,51137,2,0,L|323:313,1,100,2|2,1:2|1:2,0:0:0:0:
288,309,51402,1,0,1:0:0:0:
111,285,51490,2,0,L|220:268,1,100,10|2,0:0|1:2,0:0:0:0:
474,216,51843,6,0,P|449:130|327:96,1,200,6|2,1:2|1:2,0:0:0:0:
191,99,52372,1,2,1:2:0:0:
353,293,52549,2,0,L|463:287,1,100,0|0,1:0|1:0,0:0:0:0:
209,214,52902,6,0,L|205:113,1,100,2|0,1:2|1:0,0:0:0:0:
368,108,53255,1,2,1:2:0:0:
205,259,53431,2,0,L|106:251,2,100,2|0|2,1:2|1:0|1:2,0:0:0:0:
450,327,53961,6,0,L|455:219,1,100,2|8,1:2|1:3,0:0:0:0:
404,224,54225,1,0,0:0:0:0:
225,208,54314,2,0,L|143:201,1,50,10|8,1:2|1:2,0:0:0:0:
359,140,54490,2,0,L|292:134,1,50,8|8,1:2|1:2,0:0:0:0:
77,250,54667,5,14,0:0:0:0:
238,187,54843,1,4,1:3:0:0:
79,137,55019,1,4,1:3:0:0:
325,169,55196,1,14,0:0:0:0:
165,128,55372,1,4,1:3:0:0:
328,80,55549,1,4,1:3:0:0:
64,298,55725,1,14,0:0:0:0:
226,282,55902,1,4,1:3:0:0:
496,192,56078,5,14,1:2:0:0:
256,192,56255,1,14,1:2:0:0:
16,192,56431,1,14,1:2:0:0:
177,163,56608,6,0,L|286:159,2,100,2|2|2,0:0|0:0|0:0,0:0:0:0:
338,158,57137,2,0,P|381:89|305:70,1,150,2|0,0:0|0:0,0:0:0:0:
110,273,57490,6,0,B|345:270|345:270|455:202,1,352.499994621277,4|0,1:0|0:0,0:0:0:0:
268,248,57843,2,0,L|264:127,1,110.000003356934,8|2,0:0|0:0,0:0:0:0:
433,109,58196,1,2,1:2:0:0:
266,71,58372,1,2,0:0:0:0:
21,177,58549,2,0,P|50:101|139:81,1,165.000005035401,10|0,0:0|0:0,0:0:0:0:
364,292,58902,6,0,B|129:289|129:289|19:221,1,352.499994621277,2|0,1:2|0:0,0:0:0:0:
208,241,59255,2,0,P|228:183|208:129,1,110.000003356934,8|2,0:0|0:0,0:0:0:0:
45,114,59608,1,2,1:2:0:0:
211,87,59784,1,2,0:0:0:0:
456,208,59961,2,0,L|338:204,1,110.000003356934,10|2,0:0|0:0,0:0:0:0:
77,211,60314,6,0,L|310:208,1,220.000006713867,2|10,1:2|0:0,0:0:0:0:
465,188,60843,2,0,L|355:185,2,110.000003356934,2|0|2,0:0|0:0|0:0,0:0:0:0:
219,268,61372,2,0,P|171:209|258:204,1,165.000005035401,10|0,0:0|0:0,0:0:0:0:
411,172,61725,6,0,L|290:167,1,110.000003356934,2|0,1:2|0:0,0:0:0:0:
131,154,62078,1,8,0:0:0:0:
377,171,62255,1,2,0:0:0:0:
210,103,62431,1,2,1:2:0:0:
382,61,62608,1,2,0:0:0:0:
135,172,62784,2,0,P|89:133|156:80,1,165.000005035401,10|0,0:0|0:0,0:0:0:0:
388,282,63137,6,0,B|153:279|153:279|43:211,1,352.499994621277,4|0,1:0|0:0,0:0:0:0:
231,217,63490,2,0,P|250:162|229:105,1,110.000003356934,8|2,0:0|0:0,0:0:0:0:
67,100,63843,1,2,1:2:0:0:
236,66,64019,1,0,0:0:0:0:
482,171,64196,2,0,P|465:100|381:68,1,165.000005035401,10|0,0:0|0:0,0:0:0:0:
146,293,64549,6,0,B|381:290|381:290|491:222,1,352.499994621277,2|0,1:2|0:0,0:0:0:0:
303,226,64902,2,0,L|298:115,1,110.000003356934,10|2,0:0|0:0,0:0:0:0:
468,98,65255,1,2,1:2:0:0:
298,75,65431,1,2,0:0:0:0:
55,117,65608,2,0,L|194:117,1,110.000003356934,10|2,0:0|0:0,0:0:0:0:
434,270,65961,6,0,L|207:269,1,220.000006713867,2|8,1:2|0:0,0:0:0:0:
456,253,66490,2,0,L|460:139,1,110.000003356934,2|0,0:0|1:0,0:0:0:0:
216,188,66843,2,0,L|212:74,1,110.000003356934,2|8,0:0|0:0,0:0:0:0:
382,74,67196,1,2,0:0:0:0:
113,242,67372,6,0,P|133:155|255:105,1,220.000006713867,2|8,1:2|0:0,0:0:0:0:
426,106,67902,1,0,0:0:0:0:
162,263,68078,2,0,L|159:172,1,55.0000016784668,4|4,3:0|3:0,0:0:0:0:
359,197,68255,2,0,L|429:193,1,55.0000016784668,8|8,3:0|3:0,0:0:0:0:
220,171,68431,2,0,L|218:102,1,55.0000016784668,4|4,3:0|3:0,0:0:0:0:
312,97,68608,2,0,L|385:91,1,55.0000016784668,4|4,3:0|3:0,0:0:0:0:
152,307,68784,6,0,L|361:305,1,200,4|10,1:0|0:0,0:0:0:0:
189,234,69314,1,0,1:0:0:0:
353,239,69490,2,0,L|356:134,1,100,2|0,0:0|1:0,0:0:0:0:
114,129,69843,2,0,L|9:127,1,100,10|0,0:0|1:0,0:0:0:0:
261,301,70196,6,0,L|391:290,2,100,4|0|10,1:0|1:0|0:0,0:0:0:0:
99,218,70725,1,0,1:0:0:0:
260,216,70902,2,0,L|149:210,1,100,2|0,0:0|1:0,0:0:0:0:
401,198,71255,2,0,L|404:89,1,100,10|0,0:0|1:0,0:0:0:0:
140,297,71608,6,0,L|30:295,2,100,4|0|10,1:0|1:0|0:0,0:0:0:0:
302,253,72137,1,0,1:0:0:0:
140,250,72314,2,0,L|135:134,1,100,2|0,0:0|1:0,0:0:0:0:
377,130,72667,2,0,L|479:126,1,100,10|0,0:0|1:0,0:0:0:0:
235,246,73019,6,0,L|349:241,2,100,4|2|8,1:0|1:2|0:0,0:0:0:0:
72,234,73549,2,0,L|69:125,1,100,2|0,1:2|0:0,0:0:0:0:
314,128,73902,2,0,L|183:128,1,100,2|10,1:2|0:0,0:0:0:0:
53,125,74255,1,0,1:0:0:0:
316,293,74431,6,0,L|208:287,2,100,14|4|0,0:0|1:3|1:0,0:0:0:0:
48,229,74961,2,0,L|158:222,2,100,14|4|2,0:0|1:3|1:2,0:0:0:0:
315,189,75490,1,14,0:0:0:0:
474,154,75667,1,4,1:3:0:0:
314,118,75843,1,2,1:2:0:0:
52,147,76019,5,14,0:0:0:0:
211,124,76196,1,4,1:3:0:0:
370,105,76372,1,2,1:2:0:0:
107,215,76549,2,0,L|227:211,1,100,14|4,0:0|1:3,0:0:0:0:
468,190,76902,2,0,L|355:178,1,100,14|4,0:0|1:3,0:0:0:0:
105,303,77255,5,14,0:0:0:0:
267,301,77431,2,0,L|357:293,2,50,4|4|4,1:3|1:3|1:3,0:0:0:0:
24,208,77784,1,14,0:0:0:0:
180,187,77961,1,4,1:3:0:0:
131,184,78049,1,4,1:3:0:0:
81,181,78137,1,4,1:3:0:0:
354,126,78314,1,14,0:0:0:0:
149,325,80078,5,14,1:2:0:0:
310,268,80255,1,4,1:3:0:0:
151,210,80431,1,4,1:3:0:0:
398,210,80608,1,14,1:2:0:0:
236,171,80784,1,4,1:3:0:0:
397,107,80961,1,4,1:3:0:0:
134,193,81137,5,14,1:2:0:0:
292,145,81314,1,4,1:3:0:0:
133,92,81490,1,4,1:3:0:0:
419,279,81667,1,14,1:2:0:0:
255,265,81843,1,4,1:3:0:0:
95,239,82019,1,4,1:3:0:0:
405,182,82196,1,14,1:2:0:0:
154,163,82372,2,0,P|106:124|169:140,1,150,14|0,1:2|0:0,0:0:0:0:
376,72,82725,5,4,1:0:0:0:
256,192,82902,12,0,87490,0:0:0:0:
416,192,88019,5,2,1:2:0:0:
256,192,88196,1,2,1:2:0:0:
96,192,88372,1,2,1:2:0:0:
