osu file format v14

[General]
AudioFilename: audio.mp3
AudioLeadIn: 0
PreviewTime: 56549
Countdown: 0
SampleSet: Soft
StackLeniency: 0.7
Mode: 2
LetterboxInBreaks: 0
WidescreenStoryboard: 1

[Editor]
DistanceSpacing: 1
BeatDivisor: 2
GridSize: 4
TimelineZoom: 1.2

[Metadata]
Title:Re:Call (TV Size)
TitleUnicode:Re:Call (TV Size)
Artist:i*Ris
ArtistUnicode:i☆Ris
Creator:BlackBN
Version:Froskya's Re:Cup
Source:双星の陰陽師
Tags:BlackBq anime japanese jrock j-rock rock jpop j-pop pop Twin Star Exorcists Sousei Sōsei no Onmyōji Onmyouji op2 opening 2 two iris recall 山北早紀 Yamakita Saki 芹澤優 Serizawa Yū Yu Yuu 茜屋日海夏 Akaneya Himika 若井友希 Wakai Yūki Yuki Yuuki 久保田未夢 Kubota Miyu 馬渕直純 Mabuchi Naozumi 化野紅緒 Benio Adashino 潘めぐみ Han Megumi WONDERFUL PALETTE Froskya Secre Secre's chickenbible bigh bighzonda 050
BeatmapID:3873980
BeatmapSetID:1876266

[Difficulty]
HPDrainRate:2
CircleSize:2.5
OverallDifficulty:6
ApproachRate:6
SliderMultiplier:1.3
SliderTickRate:1

[Events]
//Background and Video events
0,0,"bg.jpg",0,0
//Break Periods
//Storyboard Layer 0 (Background)
//Storyboard Layer 1 (Fail)
//Storyboard Layer 2 (Pass)
//Storyboard Layer 3 (Foreground)
//Storyboard Layer 4 (Overlay)
//Storyboard Sound Samples

[TimingPoints]
1020,352.941176470588,4,2,2,50,1,0
9490,-100,4,2,2,70,0,0
12314,-100,4,2,2,80,0,0
20961,-100,4,2,2,46,0,0
21049,-100,4,2,2,48,0,0
21137,-100,4,2,2,50,0,0
21225,-100,4,2,2,52,0,0
21314,-100,4,2,2,55,0,0
21402,-100,4,2,2,57,0,0
21490,-100,4,2,2,60,0,0
21578,-100,4,2,2,62,0,0
21667,-100,4,2,2,65,0,0
21755,-100,4,2,2,67,0,0
21843,-100,4,2,2,70,0,0
21931,-100,4,2,2,72,0,0
22019,-100,4,2,2,75,0,0
22108,-100,4,2,2,77,0,0
22196,-100,4,2,2,80,0,0
23608,-100,4,2,2,70,0,0
34902,-100,4,2,2,80,0,0
46196,-100,4,2,2,70,0,0
51843,-100,4,2,2,80,0,0
52196,-100,4,2,2,40,0,0
52372,-100,4,2,2,45,0,0
52549,-100,4,2,2,50,0,0
52725,-100,4,2,2,55,0,0
52902,-100,4,2,2,60,0,0
53078,-100,4,2,2,65,0,0
53255,-100,4,2,2,70,0,0
53431,-100,4,2,2,75,0,0
53608,-100,4,2,2,80,0,0
56608,-100,4,2,2,70,0,0
57402,-100,4,2,2,5,0,0
57490,-100,4,2,2,85,0,1
57755,-100,4,2,2,5,0,1
57843,-100,4,2,2,85,0,1
58814,-100,4,2,2,5,0,1
58902,-100,4,2,2,85,0,1
59167,-100,4,2,2,5,0,1
59255,-100,4,2,2,85,0,1
61548,-100,4,2,2,85,0,1
61637,-100,4,2,2,5,0,1
61725,-100,4,2,2,85,0,1
63049,-100,4,2,2,5,0,1
63137,-100,4,2,2,85,0,1
63402,-100,4,2,2,5,0,1
63490,-100,4,2,2,85,0,1
64461,-100,4,2,2,5,0,1
64549,-100,4,2,2,85,0,1
64814,-100,4,2,2,5,0,1
64902,-100,4,2,2,85,0,1
68784,-100,4,2,2,85,0,1
74431,-100,4,2,2,90,0,1
78314,-100,4,2,2,90,0,0
80078,-100,4,2,2,85,0,0
82814,-100,4,2,2,70,0,0
85019,-100,4,2,2,65,0,0
87137,-100,4,2,2,60,0,0
88019,-100,4,2,2,75,0,0
88196,-100,4,2,2,80,0,0
88372,-100,4,2,2,90,0,0

[Colours]
Combo1 : 255,230,119
Combo2 : 182,94,118
Combo3 : 254,207,227
Combo4 : 128,174,255

[HitObjects]
233,306,1019,6,0,P|168:313|103:319,1,130,2|0,0:0|0:0,0:0:0:0:
233,309,1725,2,0,P|297:302|362:295,1,130,2|0,0:0|0:0,0:0:0:0:
230,23,2431,6,0,L|90:35,1,130,2|2,0:0|0:0,0:0:0:0:
158,64,2961,2,0,L|287:52,1,130,2|2,0:0|0:0,0:0:0:0:
169,163,3667,1,2,0:0:0:0:
169,163,3843,6,0,L|309:175,1,130,2|0,0:0|0:0,0:0:0:0:
363,181,4372,1,2,0:0:0:0:
454,272,4725,1,2,0:0:0:0:
347,354,5078,1,2,0:0:0:0:
297,304,5255,6,0,L|298:169,1,130,2|0,0:0|0:0,0:0:0:0:
169,334,5961,2,0,L|299:338,1,130,2|2,0:0|0:0,0:0:0:0:
422,380,6667,6,0,L|320:298,1,130,2|0,0:0|0:0,0:0:0:0:
198,257,7372,2,0,L|123:282,2,65,2|2|2,0:0|0:0|0:0,0:0:0:0:
262,268,7902,6,0,L|403:228,1,130,2|2,0:0|0:0,0:0:0:0:
512,174,8608,2,0,L|371:134,1,130,2|2,0:0|0:0,0:0:0:0:
268,24,9314,1,2,0:0:0:0:
219,54,9490,6,0,P|9:140|351:205,1,910,6|2,0:0|0:0,0:0:0:0:
355,84,12314,6,0,P|469:121|484:209,2,195,14|14|14,1:2|1:2|1:2,0:0:0:0:
230,135,13725,2,0,P|113:155|96:244,2,195,14|14|14,1:2|1:2|1:2,0:0:0:0:
364,176,15137,6,0,L|366:306,1,130,14|4,1:2|1:3,0:0:0:0:
317,347,15667,2,0,L|175:346,1,130,14|4,1:2|1:3,0:0:0:0:
130,379,16196,1,14,1:2:0:0:
16,349,16549,6,0,L|14:214,1,130,14|4,1:2|1:3,0:0:0:0:
57,170,17079,2,0,L|199:171,1,130,14|4,1:2|1:3,0:0:0:0:
240,207,17608,1,14,1:2:0:0:
351,163,17961,6,0,P|391:253|486:241,2,195,14|14|14,1:2|1:2|1:2,0:0:0:0:
234,106,19372,2,0,P|194:16|99:28,2,195,14|14|14,1:2|1:2|1:2,0:0:0:0:
363,123,20784,6,0,P|333:268|126:242,1,390,14|8,1:2|1:2,0:0:0:0:
25,191,22196,1,10,1:2:0:0:
26,60,22549,1,14,1:2:0:0:
156,62,22902,1,14,1:2:0:0:
155,191,23255,1,10,1:2:0:0:
272,191,23608,6,0,B|478:227,1,195,4|2,1:0|0:0,0:0:0:0:
464,259,24314,2,0,P|494:195|379:136,1,195,2|2,1:2|0:0,0:0:0:0:
356,158,25019,5,2,1:2:0:0:
241,96,25372,1,2,1:2:0:0:
175,96,25549,2,0,L|177:250,1,130,2|2,0:0|0:0,0:0:0:0:
294,281,26255,1,2,0:0:0:0:
358,281,26431,6,0,B|395:230|395:230|353:179,1,130,2|2,1:2|1:2,0:0:0:0:
287,168,26961,1,2,0:0:0:0:
156,166,27314,1,2,0:0:0:0:
287,168,27667,1,2,0:0:0:0:
229,135,27843,6,0,P|294:99|326:244,1,260,2|2,1:2|1:3,0:0:0:0:
148,110,29078,1,2,0:0:0:0:
213,110,29255,6,0,L|380:112,1,130,2|0,1:2|1:0,0:0:0:0:
212,111,29961,2,0,L|82:109,1,130,2|0,1:2|1:0,0:0:0:0:
213,19,30667,5,2,1:2:0:0:
340,42,31019,1,2,1:2:0:0:
406,42,31196,2,0,P|432:115|387:158,1,130,2|2,0:0|0:0,0:0:0:0:
281,196,31902,1,2,0:0:0:0:
219,293,32078,6,0,L|222:160,1,130,2|0,1:2|1:0,0:0:0:0:
352,164,32784,1,2,1:2:0:0:
482,164,33137,1,2,1:2:0:0:
352,164,33490,5,2,1:2:0:0:
288,164,33667,1,2,0:0:0:0:
156,161,34019,2,0,P|153:55|243:10,1,195,2|4,0:0|1:2,0:0:0:0:
352,164,34902,6,0,L|502:165,1,130,4|10,1:0|0:0,0:0:0:0:
364,305,35608,2,0,L|219:347,1,130,2|8,1:2|0:0,0:0:0:0:
125,191,36314,6,0,L|-1:157,1,130,2|10,1:2|0:0,0:0:0:0:
133,103,37019,2,0,L|266:101,1,130,2|8,1:2|0:0,0:0:0:0:
400,177,37725,6,0,L|395:319,1,130,2|10,1:2|0:0,0:0:0:0:
265,74,38431,2,0,L|180:72,2,65,2|0|10,1:2|0:0|0:0,0:0:0:0:
395,306,39137,6,0,L|249:313,1,130,2|10,1:2|0:0,0:0:0:0:
133,323,39843,2,0,L|55:327,2,65,2|2|8,1:2|0:0|0:0,0:0:0:0:
263,312,40549,6,0,L|337:311,1,65,2|2,1:2|0:0,0:0:0:0:
392,300,40902,2,0,L|393:226,1,65,10|2,0:0|0:0,0:0:0:0:
340,196,41255,1,2,1:2:0:0:
208,158,41608,1,8,0:0:0:0:
337,160,41961,6,0,L|263:161,1,65,2|2,1:2|0:0,0:0:0:0:
208,172,42314,2,0,L|207:246,1,65,10|2,0:0|0:0,0:0:0:0:
260,276,42667,1,2,1:2:0:0:
382,276,43019,1,8,0:0:0:0:
260,276,43372,6,0,L|127:274,1,130,2|8,1:2|0:0,0:0:0:0:
264,325,44078,2,0,B|453:325,1,130,2|8,1:2|0:0,0:0:0:0:
269,177,44784,6,0,P|187:88|292:30,1,260,2|2,1:2|1:2,0:0:0:0:
393,32,45843,1,10,0:0:0:0:
264,175,46196,6,0,P|353:150|410:199,1,130,4|2,1:0|1:2,0:0:0:0:
433,164,46725,1,2,1:2:0:0:
483,202,46902,1,8,0:0:0:0:
483,334,47255,6,0,P|394:359|337:310,1,130,2|2,1:2|1:2,0:0:0:0:
314,345,47784,1,2,1:2:0:0:
264,307,47961,1,8,0:0:0:0:
147,295,48314,6,0,L|138:230,2,65,2|2|10,1:2|1:2|0:0,0:0:0:0:
277,48,49019,6,0,P|188:23|131:72,1,130,4|2,1:0|1:2,0:0:0:0:
108,37,49548,1,2,1:2:0:0:
58,75,49725,1,8,0:0:0:0:
58,195,50078,6,0,P|147:220|204:171,1,130,2|2,1:2|1:2,0:0:0:0:
227,206,50607,1,2,1:2:0:0:
277,168,50784,1,8,0:0:0:0:
407,170,51137,6,0,L|416:105,2,65,2|2|10,1:2|1:2|0:0,0:0:0:0:
274,265,51843,6,0,L|421:267,1,130,6|2,1:2|1:2,0:0:0:0:
469,269,52372,1,2,1:2:0:0:
274,265,52902,2,0,L|127:267,1,130,2|2,1:2|1:2,0:0:0:0:
79,269,53431,1,2,1:2:0:0:
160,167,53784,5,2,1:2:0:0:
225,170,53961,1,2,1:2:0:0:
354,174,54314,1,10,1:2:0:0:
483,169,54667,6,0,L|349:168,1,130,14|4,0:0|1:3,0:0:0:0:
287,167,55196,2,0,L|153:166,1,130,14|4,0:0|1:3,0:0:0:0:
221,169,55725,1,14,0:0:0:0:
352,169,56078,1,14,1:2:0:0:
221,169,56431,1,14,1:2:0:0:
425,337,57490,6,0,L|284:337,1,130,4|8,1:0|0:0,0:0:0:0:
419,299,58196,2,0,L|484:299,2,65,2|2|10,1:2|0:0|0:0,0:0:0:0:
295,337,58902,6,0,L|165:337,1,130,2|8,1:2|0:0,0:0:0:0:
41,337,59608,2,0,L|106:337,1,65,2|2,1:2|0:0,0:0:0:0:
168,337,59961,1,10,0:0:0:0:
295,337,60314,6,0,P|343:345|369:275,1,130,2|10,1:2|0:0,0:0:0:0:
315,349,60843,2,0,B|164:347,1,130,2|2,0:0|0:0,0:0:0:0:
120,342,61372,2,0,P|71:338|64:263,1,130,10|2,0:0|1:2,0:0:0:0:
188,240,62078,5,8,0:0:0:0:
253,237,62255,2,0,L|334:237,1,65,2|2,0:0|1:2,0:0:0:0:
253,237,62608,2,0,L|165:237,1,65,2|10,0:0|0:0,0:0:0:0:
316,236,63137,6,0,L|316:106,1,130,4|8,1:0|0:0,0:0:0:0:
427,84,63843,2,0,L|492:84,2,65,2|0|10,1:2|0:0|0:0,0:0:0:0:
316,106,64549,6,0,L|316:236,1,130,2|10,1:2|0:0,0:0:0:0:
187,242,65255,2,0,L|122:242,2,65,2|2|10,1:2|0:0|0:0,0:0:0:0:
313,272,65961,6,0,L|177:271,1,130,2|8,1:2|0:0,0:0:0:0:
117,270,66490,1,2,0:0:0:0:
247,270,66843,1,2,0:0:0:0:
377,270,67196,1,2,0:0:0:0:
324,231,67372,6,0,L|178:232,1,130,2|8,1:2|0:0,0:0:0:0:
84,160,68078,2,0,L|19:160,2,65,4|8|4,3:0|3:0|3:0,0:0:0:0:
217,274,68784,5,4,1:0:0:0:
358,268,69137,2,0,L|493:256,2,130,10|2|10,0:0|0:0|0:0,0:0:0:0:
243,324,70196,5,4,1:0:0:0:
130,249,70549,2,0,L|-3:235,2,130,10|2|10,0:0|0:0|0:0,0:0:0:0:
250,327,71608,5,4,1:0:0:0:
364,240,71961,2,0,P|431:233|497:226,1,130,10|2,0:0|0:0,0:0:0:0:
364,240,72667,1,10,0:0:0:0:
220,235,73019,5,4,1:0:0:0:
218,25,73196,1,2,1:2:0:0:
334,60,73549,1,2,1:2:0:0:
204,60,73902,1,2,1:2:0:0:
140,63,74078,1,10,0:0:0:0:
269,170,74431,6,0,L|84:274,2,195,14|14|14,0:0|0:0|0:0,0:0:0:0:
399,166,75843,1,2,1:2:0:0:
463,170,76019,2,0,L|321:168,1,130,14|2,0:0|1:2,0:0:0:0:
269,170,76549,5,14,0:0:0:0:
399,173,76902,1,14,0:0:0:0:
269,170,77255,2,0,P|138:266|292:333,1,390,14|14,0:0|0:0,0:0:0:0:
64,308,80078,6,0,P|137:296|204:271,1,130,14|4,1:2|1:3,0:0:0:0:
255,277,80608,1,14,1:2:0:0:
385,277,80961,1,4,1:3:0:0:
449,278,81137,6,0,P|376:266|309:241,1,130,14|4,1:2|1:3,0:0:0:0:
257,246,81667,1,14,1:2:0:0:
127,243,82019,2,0,L|47:243,2,65,4|14|14,1:3|1:2|1:2,0:0:0:0:
257,246,82725,5,4,1:0:0:0:
256,192,83078,12,2,88372,1:2:0:0:
