osu file format v14

[General]
AudioFilename: iRis - Re Call.mp3
AudioLeadIn: 0
PreviewTime: 56330
Countdown: 1
SampleSet: Drum
StackLeniency: 0.5
Mode: 0
LetterboxInBreaks: 0
WidescreenStoryboard: 0

[Editor]
Bookmarks: 31625
DistanceSpacing: 4.7
BeatDivisor: 6
GridSize: 8
TimelineZoom: 3.499999

[Metadata]
Title:Re:Call (TV Size)
TitleUnicode:Re:Call (TV Size)
Artist:i*Ris
ArtistUnicode:i*Ris
Creator:Ankanogradiel
Version:Twin Stars
Source:双星の陰陽師
Tags:Twin Star Exorcists Sousei no Onmyouji tv size anime opening op Iris deception2011 quentinbattle Excalurn
BeatmapID:1029779
BeatmapSetID:482605

[Difficulty]
HPDrainRate:6
CircleSize:4
OverallDifficulty:8
ApproachRate:9.3
SliderMultiplier:1.5
SliderTickRate:2

[Events]
//Background and Video events
Video,0,"video.mp4"
0,0,"bg1.jpg",0,0
//Break Periods
//Storyboard Layer 0 (Background)
//Storyboard Layer 1 (Fail)
//Storyboard Layer 2 (Pass)
//Storyboard Layer 3 (Foreground)
//Storyboard Layer 4 (Overlay)
//Storyboard Sound Samples

[TimingPoints]
831,352.941176470588,4,1,1,60,1,0
9301,-133.333333333333,4,3,1,100,0,0
12125,-66.6666666666667,4,3,1,60,0,0
17772,-80,4,3,1,70,0,0
19183,-66.6666666666667,4,3,1,80,0,0
20595,-66.6666666666667,4,3,1,90,0,0
22007,-50,4,3,1,100,0,0
23419,-133.333333333333,4,2,1,50,0,0
24654,-100,4,2,1,50,0,0
29595,-66.6666666666667,4,2,1,50,0,0
29948,-100,4,2,1,50,0,0
30301,-66.6666666666667,4,2,1,50,0,0
30478,-100,4,2,1,50,0,0
34007,-133.333333333333,4,2,1,60,0,0
34536,-50,4,3,1,60,0,0
43183,-66.6666666666667,4,3,1,70,0,0
45301,-66.6666666666667,4,3,1,70,0,0
45742,-66.6666666666667,4,2,1,100,0,0
46007,-200,4,2,1,60,0,0
51654,-80,4,3,1,100,0,0
57301,-50,4,3,1,100,0,1
67889,-66.6666666666667,4,3,1,100,0,1
74242,-100,4,3,1,100,0,1
79889,-133.333333333333,4,3,1,35,0,0
80419,-133.333333333333,4,3,1,60,0,0
80948,-133.333333333333,4,3,1,70,0,0
81478,-133.333333333333,4,3,1,90,0,0
82713,-133.333333333333,4,3,1,20,0,0
85713,-200,4,1,1,40,0,0
86242,-133.333333333333,4,1,1,50,0,0
86772,-100,4,1,1,60,0,0
87301,-100,4,1,1,75,0,0
87830,-100,4,3,1,100,0,0

[HitObjects]
64,160,831,6,8,P|94:172|128:208,1,75,2|0,0:0|0:0,0:0:0:0:
216,304,1183,1,0,0:0:0:0:
224,312,1360,1,0,0:0:0:0:
368,208,1536,6,0,P|340:241|306:266,1,75,8|0,0:0|0:0,0:0:0:0:
216,160,1889,1,0,0:0:0:0:
100,304,2066,6,0,L|76:263|76:263,1,37.5,8|0,0:0|0:0,0:0:0:0:
124,201,2242,2,0,B|94:165|58:156,1,75,10|0,0:0|0:0,0:0:0:0:
315,260,2595,1,8,0:0:0:0:
181,294,2772,1,0,0:0:0:0:
334,337,2948,1,0,0:0:0:0:
293,184,3125,1,0,0:0:0:0:
448,199,3301,5,8,0:0:0:0:
315,260,3478,1,0,0:0:0:0:
308,83,3654,2,0,P|220:107|204:187,1,150,10|0,0:0|0:0,0:0:0:0:
144,328,4183,1,0,0:0:0:0:
78,149,4360,2,0,L|132:211,1,75,8|0,0:0|0:0,0:0:0:0:
340,67,4713,2,0,P|292:83|276:99,1,75,8|0,0:0|0:0,0:0:0:0:
196,283,5066,5,10,0:0:0:0:
283,179,5242,1,0,0:0:0:0:
184,92,5419,1,0,0:0:0:0:
78,149,5594,1,0,0:0:0:0:
283,179,5772,6,0,P|339:211|347:235,2,75,8|0|0,0:0|0:0|0:0,0:0:0:0:
252,299,6300,1,0,0:0:0:0:
308,83,6477,1,10,0:0:0:0:
140,123,6654,2,0,P|84:155|80:173,2,75
308,83,7183,5,8,0:0:0:0:
343,217,7360,2,0,P|319:189|284:179,1,75,0|8,0:0|0:0,0:0:0:0:
420,163,7713,1,8,0:0:0:0:
268,267,7889,2,0,P|245:296|211:312,1,75,0|8,0:0|0:0,0:0:0:0:
388,283,8242,1,0,0:0:0:0:
195,225,8419,2,0,P|176:185|181:149,1,75,8|0,0:0|0:0,0:0:0:0:
268,267,8772,1,0,0:0:0:0:
324,131,8948,6,0,L|364:115,3,37.5,8|0|0|0,0:0|0:0|0:0|0:0,0:0:0:0:
301,132,9301,2,0,P|185:212|214:240,1,225.000008583069,8|0,0:0|0:0,0:0:0:0:
256,192,10359,12,0,11771,0:0:0:0:
160,48,12125,5,8,0:0:0:0:
232,232,12301,1,0,0:0:0:0:
240,240,12478,1,0,0:0:0:0:
304,112,12654,5,8,0:0:0:0:
168,288,12830,1,0,0:0:0:0:
160,296,13007,1,0,0:0:0:0:
230,80,13183,5,8,0:0:0:0:
360,272,13360,1,0,0:0:0:0:
384,79,13536,5,12,0:0:0:0:
288,194,13713,1,0,0:0:0:0:
436,234,13889,1,0,0:0:0:0:
256,328,14066,5,8,0:0:0:0:
395,165,14242,1,0,0:0:0:0:
117,165,14419,1,0,0:0:0:0:
256,280,14595,5,8,0:0:0:0:
368,88,14772,1,0,0:0:0:0:
144,88,14948,6,8,B|216:112|197:158|200:176,1,112.500004291535,12|0,0:0|0:0,0:0:0:0:
256,280,15301,1,0,0:0:0:0:
368,88,15478,2,8,B|296:112|315:158|312:176,1,112.500004291535,8|0,0:0|0:0,0:0:0:0:
256,328,15830,1,0,0:0:0:0:
205,151,16007,1,8,0:0:0:0:
308,249,16183,1,0,0:0:0:0:
88,328,16359,6,0,P|160:288|168:256,1,112.500004291535,12|0,0:0|0:0,0:0:0:0:
104,56,16713,1,8,0:0:0:0:
296,248,16889,1,8,0:0:0:0:
296,48,17066,1,8,0:0:0:0:
208,232,17242,1,0,0:0:0:0:
341,28,17419,5,8,0:0:0:0:
296,48,17507,1,0,0:0:0:0:
289,91,17595,1,0,0:0:0:0:
325,129,17683,1,0,0:0:0:0:
361,107,17772,6,0,P|345:75|293:48,1,93.75,0|8,0:0|0:0,0:0:0:0:
373,294,18125,1,0,0:0:0:0:
432,50,18301,2,0,P|389:72|359:110,1,93.75,8|0,0:0|0:0,0:0:0:0:
255,285,18654,1,0,0:0:0:0:
484,264,18830,2,0,P|460:221|424:196,1,93.75,8|0,0:0|0:0,0:0:0:0:
91,50,19183,5,8,0:0:0:0:
266,173,19360,1,0,0:0:0:0:
125,267,19536,1,0,0:0:0:0:
424,196,19713,2,0,P|403:146|353:103,1,112.500004291535,8|0,0:0|0:0,0:0:0:0:
256,328,20066,1,0,0:0:0:0:
131,120,20242,5,12,0:0:0:0:
372,198,20419,1,0,0:0:0:0:
165,37,20594,1,8,0:0:0:0:
355,242,20772,6,0,P|341:262|316:281,1,56.2500021457673
159,144,20948,2,0,P|173:124|205:102,1,56.2500021457673,8|8,0:0|0:0,0:0:0:0:
242,297,21125,2,0,P|220:291|190:269,1,56.2500021457673
232,112,21301,5,12,0:0:0:0:
280,120,21389,1,12,0:0:0:0:
320,144,21478,1,0,0:0:0:0:
350,176,21567,1,0,0:0:0:0:
360,216,21653,1,8,0:0:0:0:
352,256,21742,1,0,0:0:0:0:
323,290,21830,2,0,P|300:302|270:308,1,56.2500021457673
288,80,22007,6,0,L|396:141,1,75,8|8,0:0|0:0,0:0:0:0:
232,312,22183,2,0,L|152:208,1,75
288,80,22359,1,12,0:0:0:0:
288,80,22713,6,0,P|242:40|205:26,1,75
142,195,22889,2,0,P|158:231|196:256,1,75
385,72,23065,1,8,0:0:0:0:
401,91,23153,1,8,0:0:0:0:
415,116,23242,1,0,0:0:0:0:
425,136,23330,1,0,0:0:0:0:
432,160,23419,6,0,P|416:216|401:233,1,56.2500021457673
289,331,23771,1,0,0:0:0:0:
126,85,23947,1,8,0:0:0:0:
118,93,24036,1,0,0:0:0:0:
110,101,24124,1,0,0:0:0:0:
104,288,24300,1,0,0:0:0:0:
239,129,24477,1,8,0:0:0:0:
400,296,24653,6,0,L|424:272,1,28.1250010728836,8|0,0:0|0:0,0:0:0:0:
368,296,24830,2,0,P|336:256|312:248,1,75,8|0,0:0|0:0,0:0:0:0:
417,61,25183,2,0,P|365:97|341:124,1,75,8|0,0:0|0:0,0:0:0:0:
238,204,25536,1,0,0:0:0:0:
155,105,25713,2,0,P|127:80|95:61,1,75,8|8,0:0|0:0,0:0:0:0:
191,316,26065,1,0,0:0:0:0:
261,199,26242,6,0,P|302:226|320:267,1,75,8|0,0:0|0:0,0:0:0:0:
338,337,26595,1,0,0:0:0:0:
415,66,26772,1,8,0:0:0:0:
371,249,26948,1,0,0:0:0:0:
243,84,27125,1,8,0:0:0:0:
314,247,27301,1,0,0:0:0:0:
355,104,27478,6,0,P|389:118|419:142,1,75,8|0,0:0|0:0,0:0:0:0:
338,337,27830,1,0,0:0:0:0:
272,40,28006,1,8,0:0:0:0:
321,219,28183,1,0,0:0:0:0:
408,96,28359,1,8,0:0:0:0:
200,152,28536,1,8,0:0:0:0:
272,40,28712,1,8,0:0:0:0:
350,279,28889,5,0,0:0:0:0:
342,287,28977,1,0,0:0:0:0:
331,293,29065,2,0,P|275:277|256:253,1,75,8|0,0:0|0:0,0:0:0:0:
121,99,29418,1,8,0:0:0:0:
321,219,29595,6,0,P|356:191|364:168,1,56.2500021457673,8|0,0:0|0:0,0:0:0:0:
412,56,29772,1,8,0:0:0:0:
205,66,29948,2,0,P|257:99|268:130,1,75,8|0,0:0|0:0,0:0:0:0:
184,267,30301,6,0,P|167:217|167:195,1,56.2500021457673,8|0,0:0|0:0,0:0:0:0:
142,66,30478,2,0,P|90:99|79:130,1,75
35,239,30830,1,0,0:0:0:0:
174,134,31007,2,0,P|227:157|240:180,1,75,8|0,0:0|0:0,0:0:0:0:
360,66,31360,2,0,P|308:99|297:130,1,75,8|0,0:0|0:0,0:0:0:0:
456,60,31712,1,8,0:0:0:0:
245,269,31889,5,0,0:0:0:0:
388,165,32065,1,0,0:0:0:0:
167,213,32242,1,8,0:0:0:0:
346,101,32419,5,0,0:0:0:0:
317,74,32507,1,0,0:0:0:0:
291,58,32595,2,0,P|243:50|211:74,1,75,8|8,0:0|0:0,0:0:0:0:
262,131,32860,1,0,0:0:0:0:
200,96,32948,2,0,P|192:152|228:194,1,112.5,8|8,0:0|0:0,0:0:0:0:
262,131,33301,2,0,L|292:166,1,37.5
360,136,33477,5,8,0:0:0:0:
288,240,33653,1,0,0:0:0:0:
221,61,33830,1,8,0:0:0:0:
388,184,34007,2,4,P|385:233|374:295,1,112.500004291535,6|12,0:0|0:0,0:0:0:0:
202,99,34536,5,0,0:0:0:0:
248,248,34713,2,0,P|312:152|344:136,1,150,0|8,0:0|0:0,0:0:0:0:
312,320,35065,1,0,0:0:0:0:
424,101,35242,1,8,0:0:0:0:
448,272,35419,6,0,B|391:280|304:216|304:216|248:264,1,225,8|0,0:0|0:0,0:0:0:0:
248,248,35771,2,0,P|184:152|152:136,1,150,8|0,0:0|0:0,0:0:0:0:
448,272,36124,5,8,0:0:0:0:
343,75,36300,1,8,0:0:0:0:
464,174,36478,1,0,0:0:0:0:
239,108,36653,1,8,0:0:0:0:
448,232,36830,6,0,B|410:257|379:257|379:257|320:203|232:219,1,225,0|8,0:0|0:0,0:0:0:0:
191,272,37183,2,0,B|248:315|286:257|341:328,1,150
280,96,37536,1,0,0:0:0:0:
330,315,37712,1,8,0:0:0:0:
167,93,37889,1,8,0:0:0:0:
285,209,38066,6,0,P|316:179|338:165,1,50,0|8,0:0|0:0,0:0:0:0:
359,110,38242,2,0,B|430:143|384:179|467:248|472:128,1,150,0|8,0:0|0:0,0:0:0:0:
455,266,38507,2,0,B|385:257|315:217|374:100|276:222,1,225,0|8,0:0|0:0,0:0:0:0:
144,144,38947,5,8,0:0:0:0:
280,32,39125,1,8,0:0:0:0:
168,240,39300,1,0,0:0:0:0:
359,209,39478,2,0,P|384:238|407:249,1,50,8|0,0:0|0:0,0:0:0:0:
330,152,39654,2,0,P|202:184|178:152,1,150,8|0,0:0|0:0,0:0:0:0:
255,119,39919,2,8,B|264:231|268:264|268:264|287:324|317:266,1,225
192,192,40359,5,8,0:0:0:0:
330,152,40536,1,8,0:0:0:0:
56,176,40712,1,0,0:0:0:0:
196,61,40889,1,8,0:0:0:0:
216,107,40978,1,8,0:0:0:0:
249,138,41066,2,0,P|344:184|392:176,1,150,0|8,0:0|0:0,0:0:0:0:
328,104,41418,2,0,P|243:54|187:65,1,150,0|8,0:0|0:0,0:0:0:0:
352,32,41771,5,8,0:0:0:0:
240,280,41947,1,0,0:0:0:0:
202,83,42124,1,8,0:0:0:0:
284,221,42301,1,0,0:0:0:0:
318,236,42389,1,0,0:0:0:0:
335,203,42478,2,0,B|373:176|373:176|393:200|402:228|391:282,1,150,8|0,0:0|0:0,0:0:0:0:
216,64,42830,1,8,0:0:0:0:
318,236,43006,5,0,0:0:0:0:
335,203,43095,1,0,0:0:0:0:
372,180,43183,2,0,P|439:154|462:96,1,112.500004291535,8|0,0:0|0:0,0:0:0:0:
88,208,43536,1,8,0:0:0:0:
236,89,43713,6,0,L|199:127,1,37.5000014305115
140,88,43889,2,0,P|163:174|254:178,1,168.750006437302,8|0,0:0|0:0,0:0:0:0:
240,194,44242,2,0,P|182:224|164:272,1,112.500004291535,8|0,0:0|0:0,0:0:0:0:
384,248,44595,1,8,0:0:0:0:
320,64,44772,5,0,0:0:0:0:
384,248,44948,2,0,P|328:216|304:152,1,112.500004291535,0|8,0:0|0:0,0:0:0:0:
120,72,45301,1,0,0:0:0:0:
144,88,45389,1,8,0:0:0:0:
160,104,45477,1,0,0:0:0:0:
176,128,45565,1,8,0:0:0:0:
184,152,45653,2,0,L|120:200,1,56.2500021457673,12|0,0:0|0:0,0:0:0:0:
296,216,45830,2,0,L|334:272,1,56.2500021457673
343,49,46006,5,8,0:0:0:0:
296,216,46183,1,0,0:0:0:0:
440,184,46359,1,0,0:0:0:0:
440,192,46536,1,0,0:0:0:0:
172,108,46713,1,8,0:0:0:0:
280,184,47065,5,8,0:0:0:0:
368,40,47242,1,0,0:0:0:0:
296,288,47418,1,8,0:0:0:0:
240,96,47594,1,8,0:0:0:0:
456,192,47772,1,0,0:0:0:0:
152,280,48124,5,8,0:0:0:0:
192,144,48300,1,8,0:0:0:0:
368,88,48477,1,12,0:0:0:0:
160,272,48653,1,0,0:0:0:0:
208,32,48830,5,12,0:0:0:0:
296,280,49006,1,0,0:0:0:0:
176,168,49183,1,8,0:0:0:0:
368,88,49359,1,8,0:0:0:0:
184,304,49536,1,0,0:0:0:0:
176,312,49712,1,0,0:0:0:0:
320,256,49889,5,12,0:0:0:0:
104,168,50065,1,0,0:0:0:0:
80,176,50154,1,0,0:0:0:0:
64,184,50242,1,0,0:0:0:0:
256,72,50418,1,8,0:0:0:0:
64,184,50771,5,0,0:0:0:0:
84,171,50859,1,0,0:0:0:0:
104,168,50947,1,8,0:0:0:0:
296,272,51124,1,8,0:0:0:0:
224,80,51300,1,12,0:0:0:0:
464,240,51477,1,0,0:0:0:0:
400,48,51653,5,12,0:0:0:0:
400,264,51830,1,0,0:0:0:0:
408,272,52006,1,0,0:0:0:0:
312,64,52183,5,8,0:0:0:0:
472,240,52359,1,0,0:0:0:0:
480,248,52536,1,0,0:0:0:0:
160,184,52712,5,8,0:0:0:0:
400,48,52889,1,0,0:0:0:0:
192,224,53065,5,8,0:0:0:0:
312,48,53242,1,8,0:0:0:0:
408,272,53418,1,0,0:0:0:0:
149,228,53594,5,0,0:0:0:0:
456,104,53771,1,8,0:0:0:0:
160,80,53947,5,8,0:0:0:0:
144,96,54036,1,0,0:0:0:0:
136,112,54124,1,8,0:0:0:0:
128,136,54212,1,0,0:0:0:0:
128,168,54300,1,0,0:0:0:0:
144,200,54389,1,0,0:0:0:0:
176,232,54477,5,12,0:0:0:0:
240,42,54653,1,8,0:0:0:0:
256,296,54830,1,0,0:0:0:0:
381,42,55006,5,8,0:0:0:0:
208,152,55182,1,0,0:0:0:0:
350,272,55359,1,0,0:0:0:0:
467,73,55536,5,12,0:0:0:0:
256,296,55713,1,8,0:0:0:0:
432,88,55889,2,0,L|386:109,1,46.875,12|0,0:0|0:0,0:0:0:0:
132,236,56066,2,0,P|155:251|198:272,1,46.875
291,184,56242,1,12,0:0:0:0:
424,48,57301,6,0,P|344:72|293:145,1,150
467,32,57654,1,8,0:0:0:0:
343,282,57830,1,0,0:0:0:0:
181,163,58007,1,0,0:0:0:0:
452,265,58183,1,0,0:0:0:0:
379,54,58360,1,8,0:0:0:0:
358,62,58448,1,0,0:0:0:0:
339,75,58536,1,0,0:0:0:0:
174,44,58713,5,8,0:0:0:0:
248,233,58889,1,0,0:0:0:0:
444,35,59066,1,8,0:0:0:0:
204,137,59242,5,8,0:0:0:0:
191,150,59330,1,0,0:0:0:0:
181,163,59419,1,8,0:0:0:0:
404,163,59595,1,0,0:0:0:0:
299,53,59772,1,8,0:0:0:0:
295,252,59948,1,8,0:0:0:0:
244,104,60125,6,0,P|196:145|144:225,1,150,12|0,0:0|0:0,0:0:0:0:
200,320,60478,1,0,0:0:0:0:
136,56,60654,1,8,0:0:0:0:
320,232,60830,1,0,0:0:0:0:
320,240,61007,1,0,0:0:0:0:
440,88,61183,6,0,B|397:129|397:129|354:97|298:111,1,150,8|0,0:0|0:0,0:0:0:0:
114,60,61536,1,8,0:0:0:0:
32,176,61713,1,0,0:0:0:0:
248,56,61889,1,12,0:0:0:0:
392,224,62066,5,0,0:0:0:0:
392,224,62154,1,8,0:0:0:0:
392,224,62242,1,0,0:0:0:0:
208,176,62419,1,8,0:0:0:0:
440,88,62595,2,0,B|368:120|432:24|272:160,1,150,8|0,0:0|0:0,0:0:0:0:
424,24,62948,5,12,0:0:0:0:
336,304,63125,1,0,0:0:0:0:
160,80,63301,1,8,0:0:0:0:
440,192,63478,1,0,0:0:0:0:
440,88,63654,6,0,B|376:80|360:144|328:147|304:128,1,150,8|0,0:0|0:0,0:0:0:0:
160,80,64007,1,8,0:0:0:0:
287,209,64183,1,0,0:0:0:0:
64,80,64360,2,0,P|88:160|168:176,1,150
376,49,64713,5,8,0:0:0:0:
145,180,64889,1,0,0:0:0:0:
312,135,65066,1,8,0:0:0:0:
64,80,65242,1,0,0:0:0:0:
373,224,65419,1,12,0:0:0:0:
111,295,65595,1,8,0:0:0:0:
145,180,65772,6,8,P|238:212|246:274,1,150,12|0,0:0|0:0,0:0:0:0:
354,57,66125,1,0,0:0:0:0:
160,257,66301,1,8,0:0:0:0:
349,137,66478,1,0,0:0:0:0:
423,294,66654,1,0,0:0:0:0:
165,108,66830,5,8,0:0:0:0:
385,214,67007,1,0,0:0:0:0:
216,48,67183,5,8,0:0:0:0:
320,280,67360,1,0,0:0:0:0:
304,72,67536,5,8,0:0:0:0:
200,280,67713,1,0,0:0:0:0:
96,80,67889,2,4,P|176:120|184:168,1,112.500004291535,4|12,0:0|0:0,0:0:0:0:
224,184,68154,5,0,0:0:0:0:
264,224,68242,1,8,0:0:0:0:
312,240,68330,1,0,0:0:0:0:
360,232,68419,1,0,0:0:0:0:
400,224,68508,1,0,0:0:0:0:
440,232,68595,2,0,P|480:288|456:312,1,112.500004291535,8|0,0:0|0:0,0:0:0:0:
440,56,68948,5,12,0:0:0:0:
307,275,69125,1,0,0:0:0:0:
223,94,69301,2,0,P|287:142|295:174,1,112.500004291535,8|0,0:0|0:0,0:0:0:0:
134,58,69654,1,8,0:0:0:0:
200,272,69830,5,0,0:0:0:0:
216,256,69919,1,0,0:0:0:0:
232,240,70007,2,0,B|264:208|264:208|289:229|288:272,1,112.500004291535,12|0,0:0|0:0,0:0:0:0:
384,288,70272,1,0,0:0:0:0:
378,247,70360,2,0,P|368:208|341:163,1,56.2500021457673,12|0,0:0|0:0,0:0:0:0:
256,336,70536,5,0,0:0:0:0:
134,247,70713,2,0,P|144:208|171:163,1,56.2500021457673,8|0,0:0|0:0,0:0:0:0:
288,268,70889,1,0,0:0:0:0:
368,96,71066,1,8,0:0:0:0:
134,247,71242,1,0,0:0:0:0:
352,344,71419,2,0,P|413:283|416:258,1,112.500004291535,8|0,0:0|0:0,0:0:0:0:
152,64,71772,6,0,L|192:176,1,112.500004291535,0|0,0:1|0:1,0:1:0:0:
376,32,72125,1,8,0:0:0:0:
432,200,72301,1,0,0:0:0:0:
216,32,72478,1,12,0:0:0:0:
104,232,72654,1,0,0:0:0:0:
291,66,72830,5,8,0:0:0:0:
326,250,73007,1,0,0:0:0:0:
167,115,73183,1,0,0:0:0:0:
398,232,73360,1,8,0:0:0:0:
216,32,73536,1,0,0:0:0:0:
376,299,73713,1,0,0:0:0:0:
344,88,73889,1,12,0:0:0:0:
344,88,74242,5,12,0:0:0:0:
198,64,74419,1,0,0:0:0:0:
88,160,74595,1,0,0:0:0:0:
272,64,74772,5,12,0:0:0:0:
148,130,74948,1,0,0:0:0:0:
109,266,75125,1,0,0:0:0:0:
379,80,75301,5,12,0:0:0:0:
109,266,75478,1,0,0:0:0:0:
416,208,75654,1,0,0:0:0:0:
200,176,75830,6,0,P|248:208|256:232,1,75,8|0,0:0|0:0,0:0:0:0:
312,344,76183,1,0,0:0:0:0:
368,136,76359,1,8,0:0:0:0:
312,344,76536,1,0,0:0:0:0:
464,192,76712,2,0,P|424:240|392:240,1,75,8|0,0:0|0:0,0:0:0:0:
184,304,77065,5,8,0:0:0:0:
368,136,77242,1,0,0:0:0:0:
141,137,77418,1,0,0:0:0:0:
336,304,77594,1,8,0:0:0:0:
256,56,77771,1,0,0:0:0:0:
184,304,77947,1,0,0:0:0:0:
256,192,78125,5,12,0:0:0:0:
256,192,78300,12,0,79359,0:0:0:0:
239,107,79889,5,8,0:0:0:0:
368,202,80066,1,0,0:0:0:0:
208,261,80242,1,0,0:0:0:0:
176,72,80419,5,8,0:0:0:0:
368,144,80595,1,0,0:0:0:0:
256,312,80772,1,0,0:0:0:0:
238,35,80948,5,8,0:0:0:0:
420,174,81125,1,0,0:0:0:0:
186,327,81301,1,0,0:0:0:0:
368,40,81478,5,8,0:0:0:0:
144,183,81654,1,0,0:0:0:0:
420,144,81830,1,0,0:0:0:0:
192,48,82007,1,8,0:0:0:0:
344,239,82183,1,0,0:0:0:0:
48,32,82536,5,12,0:0:0:0:
256,192,82713,12,0,85360,0:0:0:0:
171,274,85713,6,0,L|205:306,2,37.5,8|0|0,0:0|0:0|0:0,0:0:0:0:
298,254,86242,6,0,L|360:264,2,56.2500021457673,8|8|0,0:0|0:0|0:0,0:0:0:0:
331,136,86772,6,0,L|400:88,2,75,2|8|0,0:0|0:0|0:0,0:0:0:0:
128,48,87301,5,6,0:0:0:0:
203,211,87478,2,0,P|218:236|263:278,1,75,8|0,0:0|0:0,0:0:0:0:
431,153,87830,5,8,0:0:0:0:
401,287,88007,1,0,0:0:0:0:
128,48,88183,1,12,0:0:0:0:
