osu file format v14

[General]
AudioFilename: iRis - Re Call.mp3
AudioLeadIn: 0
PreviewTime: 56330
Countdown: 1
SampleSet: Normal
StackLeniency: 0.5
Mode: 0
LetterboxInBreaks: 0
WidescreenStoryboard: 1

[Editor]
DistanceSpacing: 1.2
BeatDivisor: 4
GridSize: 8
TimelineZoom: 2.2

[Metadata]
Title:Re:Call (TV Size)
TitleUnicode:Re:Call (TV Size)
Artist:i*Ris
ArtistUnicode:i*Ris
Creator:Ankanogradiel
Version:Insane
Source:双星の陰陽師
Tags:Twin Star Exorcists Sousei no Onmyouji tv size anime opening op Iris deception2011 quentinbattle Excalurn
BeatmapID:1055513
BeatmapSetID:482605

[Difficulty]
HPDrainRate:6
CircleSize:4
OverallDifficulty:6
ApproachRate:9
SliderMultiplier:1.2
SliderTickRate:1

[Events]
//Background and Video events
Video,0,"video.mp4"
0,0,"bg1.jpg",0,0
//Break Periods
//Storyboard Layer 0 (Background)
//Storyboard Layer 1 (Fail)
//Storyboard Layer 2 (Pass)
//Storyboard Layer 3 (Foreground)
//Storyboard Layer 4 (Overlay)
//Storyboard Sound Samples

[TimingPoints]
831,352.941176470588,4,1,1,100,1,0
12125,-80,4,1,1,100,0,0
23419,-133.333333333333,4,1,1,100,0,0
32242,-100,4,1,1,100,0,0
34360,-80,4,1,1,100,0,0
46007,-133.333333333333,4,2,1,100,0,0
51654,-80,4,1,1,100,0,0
57301,-66.6666666666667,4,3,1,100,0,1
78301,-100,4,1,1,100,0,0

[HitObjects]
56,168,831,6,0,P|96:216|152:224,1,120,0|8,0:0|0:0,0:0:0:0:
176,80,1360,1,0,0:0:0:0:
256,168,1536,1,8,0:0:0:0:
384,128,1713,1,0,0:0:0:0:
376,136,1802,1,0,0:0:0:0:
368,144,1890,1,0,0:0:0:0:
272,264,2066,1,0,0:0:0:0:
376,320,2242,6,0,P|430:307|456:248,1,120,8|0,0:0|0:0,0:0:0:0:
328,192,2772,1,0,0:0:0:0:
392,64,2948,2,0,L|328:88,1,60,8|0,0:0|0:0,0:0:0:0:
232,192,3301,1,0,0:0:0:0:
232,200,3478,1,0,0:0:0:0:
144,56,3654,6,0,L|104:128,1,60,8|0,0:0|0:0,0:0:0:0:
120,248,4007,1,0,0:0:0:0:
296,232,4183,2,0,P|256:240|231:258,1,60,8|0,0:0|0:0,0:0:0:0:
304,328,4536,2,0,P|329:329|368:304,1,60,8|0,0:0|0:0,0:0:0:0:
240,250,4889,1,0,0:0:0:0:
184,96,5066,1,8,0:0:0:0:
264,40,5242,1,0,0:0:0:0:
368,80,5419,2,0,L|304:136,1,60
160,48,5772,5,8,0:0:0:0:
56,120,5948,2,0,P|72:160|88:168,2,60
160,48,6478,1,8,0:0:0:0:
240,104,6654,2,8,L|264:168,1,60,0|0,0:0|0:0,0:0:0:0:
280,264,7007,1,0,0:0:0:0:
99,256,7183,5,8,0:0:0:0:
163,336,7360,2,0,L|219:304,1,60,0|8,0:0|0:0,0:0:0:0:
395,336,7713,2,0,L|347:288,1,60,8|0,0:0|0:0,0:0:0:0:
296,152,8066,1,0,0:0:0:0:
416,200,8242,1,0,0:0:0:0:
384,56,8419,6,0,P|336:77|320:97,1,60
256,192,8772,1,0,0:0:0:0:
120,272,8948,2,0,P|86:239|84:227,1,60,8|0,0:0|0:0,0:0:0:0:
92,218,9213,1,0,0:0:0:0:
100,210,9301,1,8,0:0:0:0:
256,192,9389,12,0,11242,0:0:0:0:
416,72,12125,5,8,0:0:0:0:
408,88,12301,2,0,P|360:96|320:120,1,75
120,176,12654,1,8,0:0:0:0:
128,192,12830,2,0,P|172:193|200:224,1,75
248,112,13183,1,0,0:0:0:0:
184,296,13360,1,8,0:0:0:0:
400,280,13536,5,8,0:0:0:0:
392,272,13713,2,0,P|336:232|328:208,1,75
152,152,14066,1,8,0:0:0:0:
360,112,14242,1,0,0:0:0:0:
248,40,14419,1,0,0:0:0:0:
184,216,14595,2,0,P|240:176|248:152,1,75,0|8,0:0|0:0,0:0:0:0:
400,72,14948,6,0,P|416:112|451:132,1,75,8|0,0:0|0:0,0:0:0:0:
168,80,15301,1,0,0:0:0:0:
248,216,15478,2,0,P|232:256|193:275,1,75,8|0,0:0|0:0,0:0:0:0:
416,272,15831,1,0,0:0:0:0:
288,192,16007,1,0,0:0:0:0:
128,232,16183,1,8,0:0:0:0:
312,120,16360,6,0,L|384:144,1,75,8|0,0:0|0:0,0:0:0:0:
344,232,16713,2,0,L|256:256,1,75
133,52,17066,2,0,P|86:90|93:132,1,75,8|0,0:0|0:0,0:0:0:0:
176,160,17419,2,0,P|152:200|104:208,1,75
112,208,17683,1,0,0:0:0:0:
96,200,17772,1,8,0:0:0:0:
192,48,17948,5,8,0:0:0:0:
200,56,18125,1,8,0:0:0:0:
296,232,18301,1,0,0:0:0:0:
360,32,18478,1,8,0:0:0:0:
368,40,18654,1,8,0:0:0:0:
448,200,18830,1,8,0:0:0:0:
432,216,18919,1,0,0:0:0:0:
416,224,19007,1,0,0:0:0:0:
448,61,19183,6,8,L|448:141,1,75
400,232,19536,1,0,0:0:0:0:
360,112,19713,2,8,P|344:146|334:207,1,75
264,264,20066,1,0,0:0:0:0:
248,104,20242,2,0,P|212:133|192:184,1,75,8|0,0:0|0:0,0:0:0:0:
184,328,20595,6,0,P|144:320|120:288,1,75,8|8,0:0|0:0,0:0:0:0:
104,272,20860,1,0,0:0:0:0:
88,248,20948,1,0,0:0:0:0:
96,216,21036,1,0,0:0:0:0:
112,192,21124,1,0,0:0:0:0:
136,176,21213,1,0,0:0:0:0:
176,168,21301,2,0,L|216:176,3,37.5,8|8|0|0,0:0|0:0|0:0|0:0,0:0:0:0:
216,136,21654,2,0,L|240:104,3,37.5,8|8|0|0,0:0|0:0|0:0|0:0,0:0:0:0:
272,72,22007,5,8,0:0:0:0:
456,152,22183,1,0,0:0:0:0:
400,48,22360,1,8,0:0:0:0:
232,56,22713,6,0,L|288:88,1,37.5,8|0,0:0|0:0,0:0:0:0:
199,68,22889,2,0,L|212:116,1,37.5,8|0,0:0|0:0,0:0:0:0:
168,64,23066,1,8,0:0:0:0:
152,80,23154,1,8,0:0:0:0:
144,96,23242,1,0,0:0:0:0:
144,112,23330,1,0,0:0:0:0:
144,128,23419,6,0,B|134:164|162:203|162:203|181:192,1,90.0000034332277,8|0,0:0|0:0,0:0:0:0:
256,256,23948,1,0,0:0:0:0:
360,128,24125,2,0,B|369:165|341:203|341:203|322:189,1,90.0000034332277,8|8,0:0|0:0,0:0:0:0:
200,280,24654,5,8,0:0:0:0:
184,272,24742,1,0,0:0:0:0:
168,280,24830,2,8,P|144:264|128:208,1,90.0000034332277
208,112,25360,2,0,L|240:168,1,45.0000017166138,8|0,0:0|0:0,0:0:0:0:
312,128,25713,2,0,L|336:176,1,45.0000017166138,8|0,0:0|0:0,0:0:0:0:
416,40,26066,1,8,0:0:0:0:
392,192,26242,6,0,P|336:176|320:152,1,90.0000034332277,0|8,0:0|0:0,0:0:0:0:
216,48,26772,1,8,0:0:0:0:
112,112,26948,1,0,0:0:0:0:
224,160,27125,2,8,L|264:200,1,45.0000017166138,8|0,0:0|0:0,0:0:0:0:
112,112,27478,5,8,0:0:0:0:
216,312,27654,1,0,0:0:0:0:
224,304,27830,2,0,L|264:264,1,45.0000017166138,0|8,0:0|0:0,0:0:0:0:
368,304,28183,2,0,L|328:264,1,45.0000017166138,0|8,0:0|0:0,0:0:0:0:
368,160,28536,2,8,L|328:200,1,45.0000017166138
112,240,28889,1,0,0:0:0:0:
160,112,29066,6,0,P|168:160|200:200,1,90.0000034332277,8|0,0:0|0:0,0:0:0:0:
268,83,29595,1,8,0:0:0:0:
260,99,29683,1,0,0:0:0:0:
252,115,29772,2,8,L|344:64,1,90.0000034332277,8|0,0:0|0:0,0:0:0:0:
312,184,30301,1,0,0:0:0:0:
464,112,30478,6,0,B|464:168|448:200|424:208,1,90.0000034332277,8|0,0:0|0:0,0:0:0:0:
288,112,31007,2,0,L|240:152,1,45.0000017166138,8|0,0:0|0:0,0:0:0:0:
120,136,31360,2,0,L|160:104,1,45.0000017166138,8|0,0:0|0:0,0:0:0:0:
328,48,31713,1,8,0:0:0:0:
248,192,31889,1,0,0:0:0:0:
256,200,32066,1,0,0:0:0:0:
432,160,32242,6,0,L|368:184,1,60,8|0,0:0|0:0,0:0:0:0:
352,200,32507,1,0,0:0:0:0:
328,216,32595,2,0,L|264:216,1,60,8|8,0:0|0:0,0:0:0:0:
248,192,32860,1,0,0:0:0:0:
224,160,32948,2,0,L|192:96,1,60,8|8,0:0|0:0,0:0:0:0:
368,88,33301,5,8,0:0:0:0:
424,280,33478,1,0,0:0:0:0:
216,280,33654,1,0,0:0:0:0:
128,104,33830,1,8,0:0:0:0:
160,224,34007,2,0,L|208:104,1,120,12|0,0:0|0:0,0:0:0:0:
408,80,34536,5,0,0:0:0:0:
328,224,34713,2,0,P|368:224|406:187,1,75,0|8,0:0|0:0,0:0:0:0:
331,43,35066,1,0,0:0:0:0:
176,136,35242,1,8,0:0:0:0:
240,304,35419,2,0,B|272:280|272:280|304:280|304:280|320:248,1,75,0|8,0:0|0:0,0:0:0:0:
312,272,35683,1,8,0:0:0:0:
320,264,35772,1,0,0:0:0:0:
424,320,35948,5,0,0:0:0:0:
224,144,36125,1,8,0:0:0:0:
432,192,36301,1,8,0:0:0:0:
320,280,36478,2,0,L|272:208,1,75
264,200,36742,1,8,0:0:0:0:
248,184,36830,2,0,B|219:170|200:144|200:144|176:176|136:176,1,112.5,0|8,0:0|0:0,0:0:0:0:
72,56,37360,6,0,L|136:104,1,75,0|8,0:0|0:0,0:0:0:0:
272,46,37713,1,0,0:0:0:0:
168,206,37889,1,8,0:0:0:0:
376,136,38066,2,0,P|379:115|401:94,2,37.5
376,312,38419,1,8,0:0:0:0:
360,320,38507,2,0,P|344:280|280:304,1,112.5
232,200,38948,5,8,0:0:0:0:
232,32,39125,1,8,0:0:0:0:
120,120,39301,1,0,0:0:0:0:
328,120,39478,1,8,0:0:0:0:
392,240,39654,1,8,0:0:0:0:
448,72,39830,5,0,0:0:0:0:
440,80,39919,1,0,0:0:0:0:
432,88,40007,2,0,B|421:84|421:84|417:95|417:95|407:91|407:91|404:102|404:102|393:99|393:99|391:109|391:109|380:106|380:106|377:117|377:117|367:113|367:113|364:124|364:124,1,75,8|0,0:0|0:0,0:0:0:0:
208,168,40360,5,0,0:0:0:0:
304,168,40536,1,8,0:0:0:0:
120,272,40713,1,0,0:0:0:0:
392,272,40889,1,8,0:0:0:0:
392,280,40977,1,8,0:0:0:0:
392,288,41065,2,0,B|344:256|344:256|296:264,1,75
184,336,41419,2,0,L|232:264,1,75,0|8,0:0|0:0,0:0:0:0:
152,104,41771,5,8,0:0:0:0:
152,120,41948,1,0,0:0:0:0:
368,72,42125,1,0,0:0:0:0:
368,192,42301,1,8,0:0:0:0:
184,40,42478,2,0,L|296:136,1,125,8|8,0:0|0:0,0:0:0:0:
424,232,43007,5,0,0:0:0:0:
432,248,43096,1,8,0:0:0:0:
424,272,43184,1,8,0:0:0:0:
304,352,43360,1,0,0:0:0:0:
176,296,43537,1,8,0:0:0:0:
160,152,43713,5,8,0:0:0:0:
168,160,43801,1,0,0:0:0:0:
176,168,43889,2,0,P|216:136|296:128,1,112.5,8|0,0:0|0:0,0:0:0:0:
288,112,44242,1,8,0:0:0:0:
437,245,44419,1,0,0:0:0:0:
416,132,44595,6,0,P|368:152|352:176,1,75,8|0,0:0|0:0,0:0:0:0:
384,320,44948,1,8,0:0:0:0:
232,248,45125,1,0,0:0:0:0:
304,88,45301,1,8,0:0:0:0:
328,88,45389,1,0,0:0:0:0:
344,96,45478,1,8,0:0:0:0:
360,104,45566,1,0,0:0:0:0:
368,112,45654,2,0,L|408:136,4,37.5,8|0|0|0|8,0:0|0:0|0:0|0:0|0:0,0:0:0:0:
256,184,46183,5,0,0:0:0:0:
160,64,46360,1,8,0:0:0:0:
152,72,46536,1,8,0:0:0:0:
112,185,47066,5,8,0:0:0:0:
203,276,47242,1,0,0:0:0:0:
314,276,47419,1,0,0:0:0:0:
399,185,47595,1,8,0:0:0:0:
200,272,48125,5,0,0:0:0:0:
200,160,48301,1,8,0:0:0:0:
312,88,48478,1,12,0:0:0:0:
360,248,48654,1,0,0:0:0:0:
432,136,48830,6,8,L|376:168,1,45.0000017166138,12|0,0:0|0:0,0:0:0:0:
320,88,49183,1,8,0:0:0:0:
312,104,49360,2,0,L|288:144,1,45.0000017166138,8|0,0:0|0:0,0:0:0:0:
200,176,49713,2,0,L|176:128,2,45.0000017166138,0|8|0,0:0|0:0|0:0,0:0:0:0:
248,304,50242,1,0,0:0:0:0:
328,160,50419,1,8,0:0:0:0:
112,56,50772,5,8,0:0:0:0:
104,64,50860,1,0,0:0:0:0:
96,72,50948,1,8,0:0:0:0:
128,224,51125,1,0,0:0:0:0:
288,88,51301,1,12,0:0:0:0:
312,256,51478,1,0,0:0:0:0:
96,288,51654,6,0,P|120:315|155:328,1,75,8|0,0:0|0:0,0:0:0:0:
312,232,52007,1,0,0:0:0:0:
312,224,52183,2,0,P|280:200|240:216,1,75,8|0,0:0|0:0,0:0:0:0:
155,328,52536,1,0,0:0:0:0:
424,184,52713,5,8,0:0:0:0:
240,256,52889,1,0,0:0:0:0:
312,328,53066,1,0,0:0:0:0:
336,96,53242,1,8,0:0:0:0:
176,192,53419,1,0,0:0:0:0:
240,256,53595,1,0,0:0:0:0:
272,72,53772,6,0,B|232:80|192:72|184:120,1,75,8|8,0:0|0:0,0:0:0:0:
176,104,54036,1,0,0:0:0:0:
160,120,54125,1,8,0:0:0:0:
144,144,54213,1,0,0:0:0:0:
136,168,54301,2,0,L|160:200,2,37.5,0|0|8,0:0|0:0|0:0,0:0:0:0:
400,160,54654,5,0,0:0:0:0:
272,224,54830,1,0,0:0:0:0:
304,80,55007,1,8,0:0:0:0:
336,264,55183,1,0,0:0:0:0:
336,280,55360,1,0,0:0:0:0:
384,72,55536,6,8,P|336:88|312:112,1,75
168,216,55889,1,8,0:0:0:0:
160,224,55978,1,8,0:0:0:0:
152,232,56066,2,8,L|168:296,2,37.5
440,256,57301,6,0,P|386:248|352:224,1,90.0000034332277,8|0,0:0|0:0,0:0:0:0:
352,56,57654,1,8,0:0:0:0:
256,184,57830,1,0,0:0:0:0:
184,80,58007,2,0,P|128:152|136:184,1,90.0000034332277,8|0,0:0|0:0,0:0:0:0:
368,128,58360,1,8,0:0:0:0:
376,136,58448,1,8,0:0:0:0:
384,144,58536,1,0,0:0:0:0:
312,264,58713,6,0,P|296:312|256:344,1,90.0000034332277,8|0,0:0|0:0,0:0:0:0:
136,192,59066,1,8,0:0:0:0:
272,40,59242,1,0,0:0:0:0:
264,48,59330,1,8,0:0:0:0:
248,48,59419,2,0,P|208:48|168:88,1,90.0000034332277,0|8,0:0|0:0,0:0:0:0:
48,192,59772,1,8,0:0:0:0:
160,304,59948,1,0,0:0:0:0:
216,144,60125,6,0,P|272:160|296:216,1,90.0000034332277,8|0,0:0|0:0,0:0:0:0:
368,312,60478,1,0,0:0:0:0:
440,176,60654,1,8,0:0:0:0:
288,344,60830,1,0,0:0:0:0:
432,256,61007,1,0,0:0:0:0:
232,184,61183,1,8,0:0:0:0:
136,288,61360,5,0,0:0:0:0:
112,128,61536,2,0,P|144:168|200:144,1,90.0000034332277,8|0,0:0|0:0,0:0:0:0:
368,120,61889,1,8,0:0:0:0:
296,200,62066,1,0,0:0:0:0:
240,328,62242,6,0,P|197:285|184:240,1,90.0000034332277,0|8,0:0|0:0,0:0:0:0:
248,80,62595,2,8,P|296:112|312:168,1,90.0000034332277,8|0,0:0|0:0,0:0:0:0:
440,272,62948,1,12,0:0:0:0:
264,304,63125,1,0,0:0:0:0:
440,272,63301,1,8,0:0:0:0:
176,168,63478,6,0,L|280:96,1,90.0000034332277,0|8,0:0|0:0,0:0:0:0:
264,120,63742,1,0,0:0:0:0:
272,136,63830,1,0,0:0:0:0:
408,64,64007,1,8,0:0:0:0:
408,240,64183,1,0,0:0:0:0:
288,40,64360,2,0,P|224:64|192:112,1,90.0000034332277,8|0,0:0|0:0,0:0:0:0:
96,64,64713,5,8,0:0:0:0:
128,264,64889,1,0,0:0:0:0:
136,256,64978,1,0,0:0:0:0:
152,248,65066,2,0,B|198:256|198:256|240:232,1,90.0000034332277,0|8,0:0|0:0,0:0:0:0:
400,96,65419,2,0,B|356:82|356:82|304:104,1,90.0000034332277,8|0,0:0|0:0,0:0:0:0:
192,152,65772,5,8,0:0:0:0:
312,256,65948,1,0,0:0:0:0:
360,104,66125,1,8,0:0:0:0:
256,80,66301,1,0,0:0:0:0:
384,192,66478,1,0,0:0:0:0:
224,240,66654,1,0,0:0:0:0:
400,192,66830,1,8,0:0:0:0:
384,320,67007,6,0,L|320:240,2,90.0000034332277,0|8|0,0:0|0:0|0:0,0:0:0:0:
280,112,67536,1,8,0:0:0:0:
256,328,67713,1,0,0:0:0:0:
200,152,67889,1,8,0:0:0:0:
112,264,68066,1,8,0:0:0:0:
112,256,68154,1,0,0:0:0:0:
112,248,68242,1,8,0:0:0:0:
112,240,68330,2,0,L|72:264,3,45.0000017166138
288,72,68948,6,0,P|360:88|376:120,1,90.0000034332277,8|0,0:0|0:0,0:0:0:0:
288,192,69301,2,0,P|244:184|210:155,1,90.0000034332277
96,48,69654,1,8,0:0:0:0:
104,192,69830,1,8,0:0:0:0:
208,56,70007,1,0,0:0:0:0:
240,184,70183,6,0,L|320:136,1,90.0000034332277,0|8,0:0|0:0,0:0:0:0:
400,320,70536,1,0,0:0:0:0:
384,136,70713,2,0,L|344:240,1,90.0000034332277
128,216,71066,1,8,0:0:0:0:
248,272,71242,1,8,0:0:0:0:
296,120,71419,1,0,0:0:0:0:
248,272,71595,1,0,0:0:0:0:
128,88,71772,6,0,P|176:128|184:176,1,90.0000034332277,8|0,0:0|0:0,0:0:0:0:
288,96,72125,1,8,0:0:0:0:
208,264,72301,1,0,0:0:0:0:
400,160,72478,1,8,0:0:0:0:
408,168,72654,1,0,0:0:0:0:
328,328,72830,5,8,0:0:0:0:
288,96,73007,2,0,P|216:136|208:176,1,90.0000034332277
136,32,73360,1,8,0:0:0:0:
176,240,73536,2,0,P|248:280|256:320,1,90.0000034332277,0|8,0:0|0:0,0:0:0:0:
352,112,73889,1,0,0:0:0:0:
64,80,74242,6,0,L|152:144,1,90.0000034332277,8|0,0:0|0:0,0:0:0:0:
256,208,74595,1,0,0:0:0:0:
448,80,74772,2,0,L|360:144,1,90.0000034332277,8|0,0:0|0:0,0:0:0:0:
256,272,75125,2,0,L|256:144,1,90.0000034332277,0|8,0:0|0:0,0:0:0:0:
200,40,75478,1,0,0:0:0:0:
376,136,75654,1,0,0:0:0:0:
96,96,75830,2,0,B|152:80|216:128|240:192,1,180.000006866455,8|0,0:0|0:0,0:0:0:0:
328,192,76360,6,0,L|272:272,1,90.0000034332277,8|0,0:0|0:0,0:0:0:0:
376,264,76713,2,0,L|320:336,1,90.0000034332277,8|0,0:0|0:0,0:0:0:0:
216,160,77066,1,8,0:0:0:0:
384,296,77242,1,8,0:0:0:0:
392,304,77330,1,8,0:0:0:0:
400,312,77419,1,0,0:0:0:0:
296,160,77595,5,8,0:0:0:0:
160,304,77772,1,0,0:0:0:0:
152,312,77860,1,0,0:0:0:0:
144,320,77949,1,0,0:0:0:0:
256,104,78125,1,8,0:0:0:0:
104,136,79889,6,0,L|176:160,1,60,8|0,0:0|0:0,0:0:0:0:
256,184,80242,1,0,0:0:0:0:
400,128,80419,1,0,0:0:0:0:
456,192,80595,1,8,0:0:0:0:
400,256,80772,1,8,0:0:0:0:
312,128,80948,2,0,L|344:184,2,60,8|0|8,0:0|0:0|0:0,0:0:0:0:
256,32,81478,5,0,0:0:0:0:
160,184,81654,1,8,0:0:0:0:
160,192,81830,1,8,0:0:0:0:
88,32,82007,1,8,0:0:0:0:
288,192,82183,1,0,0:0:0:0:
256,192,82536,12,12,88183,0:0:0:0:
