osu file format v14

[General]
AudioFilename: ReCall.mp3
AudioLeadIn: 0
PreviewTime: 56317
Countdown: 0
SampleSet: Soft
StackLeniency: 0.7
Mode: 0
LetterboxInBreaks: 0
WidescreenStoryboard: 0

[Editor]
DistanceSpacing: 1.3
BeatDivisor: 2
GridSize: 4
TimelineZoom: 0.4999999

[Metadata]
Title:Re:Call
TitleUnicode:Re:Call
Artist:i*Ris
ArtistUnicode:i☆Ris
Creator:Osu Tatakae Ouendan
Version:Easy
Source:双星の陰陽師
Tags:Sousei no Onmyouji Twin Star Exorcists Byakugan249 YTYuyu
BeatmapID:1153394
BeatmapSetID:534032

[Difficulty]
HPDrainRate:2
CircleSize:3
OverallDifficulty:2
ApproachRate:4
SliderMultiplier:0.8
SliderTickRate:1

[Events]
//Background and Video events
0,0,"1024x768.jpg",0,0
//Break Periods
2,46193,55968
2,79888,89850
2,113959,123733
2,149053,157615
2,194429,204909
//Storyboard Layer 0 (Background)
//Storyboard Layer 1 (Fail)
//Storyboard Layer 2 (Pass)
//Storyboard Layer 3 (Foreground)
//Storyboard Layer 4 (Overlay)
//Storyboard Sound Samples

[TimingPoints]
818,352.941176470588,4,2,0,65,1,0
12112,-100,4,2,1,80,0,0
57288,-100,4,2,1,80,0,1
78112,-100,4,2,1,80,0,0
91170,-100,4,2,1,60,0,0
102465,-100,4,2,1,80,0,0
125053,-100,4,2,1,80,0,1
147641,-100,4,2,1,80,0,0
191406,-108.695652173913,4,2,0,60,0,0
205523,-100,4,2,0,80,0,0
209053,-100,4,2,1,80,0,0
209759,-100,4,2,1,80,0,1
233406,-100,4,2,1,80,0,0

[Colours]
Combo1 : 18,124,255
Combo2 : 242,24,57

[HitObjects]
144,96,12112,6,0,P|256:132|384:84,1,240,12|8,0:0|0:0,0:0:0:0:
432,164,13523,2,0,P|356:208|300:352,1,240,8|8,0:0|0:0,0:0:0:0:
212,343,14935,2,0,P|176:231|80:164,1,240,12|8,0:0|0:0,0:0:0:0:
64,76,16347,2,0,L|204:28,2,120,8|8|8,0:0|0:0|0:0,0:0:0:0:
44,164,17759,6,0,P|72:224|236:192,1,240,12|8,0:0|0:0,0:0:0:0:
288,154,19170,2,0,P|395:117|468:204,1,240,8|8,0:0|0:0,0:0:0:0:
405,262,20582,2,0,L|256:320,1,160,6|4,0:0|0:3,0:0:0:0:
88,272,21994,1,2,0:0:0:0:
88,96,22700,1,8,0:0:0:0:
256,44,23406,5,2,0:3:0:0:
400,44,23935,1,0,0:0:0:0:
400,44,24112,1,2,0:0:0:0:
300,188,24817,2,0,P|372:268|284:356,1,240,2|2,0:0|0:3,0:0:0:0:
211,355,26229,2,0,P|146:304|162:217,2,160,0|2|2,0:0|0:0|0:0,0:0:0:0:
480,204,29053,5,2,0:0:0:0:
388,92,29582,1,0,0:0:0:0:
388,92,29759,1,2,0:0:0:0:
212,93,30465,2,0,P|96:107|33:269,1,280,2|2,0:0|0:3,0:0:0:0:
256,356,32582,1,2,0:0:0:0:
332,312,32935,1,2,0:3:0:0:
420,332,33288,2,0,P|377:235|261:257,1,240,2|4,0:0|0:3,0:0:0:0:
188,208,34700,5,6,0:0:0:0:
120,152,35053,1,8,0:0:0:0:
56,92,35406,2,0,P|120:48|184:96,1,160,2|2,0:0|0:0,0:0:0:0:
256,136,36465,1,8,0:0:0:0:
330,88,36817,2,0,P|394:48|456:92,1,160,2|2,0:0|0:0,0:0:0:0:
472,180,37876,6,0,P|464:252|468:328,1,120,8|0,0:0|0:0,0:0:0:0:
336,336,38935,2,0,L|124:336,1,200,2|0,0:0|0:0,0:0:0:0:
24,256,40347,5,2,0:0:0:0:
104,220,40700,1,8,0:0:0:0:
104,132,41053,2,0,P|92:80|104:44,1,80,0|8,0:0|0:0,0:0:0:0:
184,32,41759,2,0,P|254:62|340:18,2,160,2|2|2,0:0|0:0|0:0,0:0:0:0:
96,184,43876,2,0,P|256:332|416:176,1,480,2|6,0:0|0:0,0:0:0:0:
140,328,57288,6,0,P|256:356|380:324,1,240,6|8,0:0|0:0,0:0:0:0:
372,240,58700,2,0,P|256:268|132:236,1,240,2|8,0:0|0:0,0:0:0:0:
196,172,60112,2,0,L|344:172,2,120,2|0|8,0:0|0:0|0:0,0:0:0:0:
460,196,62229,5,2,0:0:0:0:
444,108,62582,1,8,0:0:0:0:
372,56,62935,2,0,P|256:28|132:60,1,240,6|8,0:0|0:0,0:0:0:0:
140,144,64347,2,0,P|256:116|380:148,1,240,2|8,0:0|0:0,0:0:0:0:
316,212,65759,2,0,B|256:292|256:292|192:208,2,200,2|2|8,0:0|0:0|0:0,0:0:0:0:
384,268,67876,2,0,P|440:188|448:104,1,160,2|6,0:0|0:0,0:0:0:0:
400,52,68935,6,0,L|132:52,1,240,8|2,0:0|0:0,0:0:0:0:
128,132,70347,2,0,L|368:132,1,240,8|2,0:0|0:0,0:0:0:0:
400,216,71759,2,0,L|132:216,2,240,8|2|8,0:0|0:0|0:0,0:0:0:0:
256,192,74229,12,8,78112,0:0:0:0:
148,304,91170,6,0,B|212:352|212:352|256:312|256:312|300:352|300:352|368:300,2,280,2|8|8,0:0|0:0|0:0,0:0:0:0:
84,244,93994,2,0,P|48:176|100:100,2,160,2|2|0,0:0|0:0|0:0,0:0:0:0:
168,224,95759,1,8,0:0:0:0:
344,224,96465,1,8,0:0:0:0:
384,304,96817,6,0,P|256:352|124:300,2,280,2|8|8,0:0|0:0|0:0,0:0:0:0:
467,279,99641,2,0,P|417:220|341:226,1,160,2|2,0:0|0:0,0:0:0:0:
256,208,100700,1,2,0:0:0:0:
170,227,101053,2,0,P|93:221|44:279,2,160,2|8|0,0:0|0:3|0:0,0:0:0:0:
216,152,102817,5,8,0:0:0:0:
392,152,103523,1,8,0:0:0:0:
392,328,104229,1,8,0:0:0:0:
216,328,104935,1,8,0:0:0:0:
296,152,105641,5,8,0:0:0:0:
296,328,106347,1,8,0:0:0:0:
120,328,107053,1,8,0:0:0:0:
120,152,107759,1,8,0:0:0:0:
176,220,108112,6,0,L|388:220,3,160,2|2|2|2,0:0|0:0|0:0|0:0,0:0:0:0:
336,44,110935,6,0,L|176:44,2,160,2|2|2,0:0|0:0|0:0,0:0:0:0:
256,200,113053,1,8,0:0:0:0:
212,276,113406,1,8,0:0:0:0:
300,276,113759,1,6,0:0:0:0:
372,56,125053,6,0,P|256:28|132:60,1,240,6|8,0:0|0:0,0:0:0:0:
140,144,126465,2,0,P|256:116|380:148,1,240,2|8,0:0|0:0,0:0:0:0:
316,212,127877,2,0,L|168:212,2,120,2|0|8,0:0|0:0|0:0,0:0:0:0:
52,188,129994,5,2,0:0:0:0:
68,276,130347,1,8,0:0:0:0:
140,328,130700,2,0,P|256:356|380:324,1,240,6|8,0:0|0:0,0:0:0:0:
372,240,132112,2,0,P|256:268|132:236,1,240,2|8,0:0|0:0,0:0:0:0:
196,172,133524,2,0,B|256:92|256:92|320:176,2,200,2|2|8,0:0|0:0|0:0,0:0:0:0:
128,116,135641,2,0,P|72:196|64:280,1,160,2|6,0:0|0:0,0:0:0:0:
112,332,136700,6,0,L|380:332,1,240,8|2,0:0|0:0,0:0:0:0:
384,252,138112,2,0,L|144:252,1,240,8|2,0:0|0:0,0:0:0:0:
112,168,139524,2,0,L|380:168,2,240,8|2|0,0:0|0:0|0:0,0:0:0:0:
64,96,141994,6,0,L|244:24,1,160,12|2,0:0|0:0,0:0:0:0:
299,36,143053,2,0,L|448:96,1,160,8|2,0:0|0:0,0:0:0:0:
392,164,144112,1,8,0:0:0:0:
408,252,144465,1,2,0:0:0:0:
336,304,144817,2,0,P|224:336|108:304,1,240,8|8,0:0|0:0,0:0:0:0:
152,228,146229,6,0,L|316:228,2,160,0|8|6,0:0|0:0|0:0,0:0:0:0:
212,60,158935,6,0,P|143:64|92:104,2,120,6|2|8,0:0|0:0|0:0,0:0:0:0:
300,60,160347,2,0,P|369:64|420:104,2,120,2|2|8,0:0|0:0|0:0,0:0:0:0:
288,148,161759,6,0,B|352:92|416:168|376:264|296:248|256:292|256:292|216:248|136:264|96:168|160:92|224:148,1,560,2|8,0:0|0:0,0:0:0:0:
256,192,164582,12,4,168817,0:0:0:0:
412,116,170229,6,0,P|384:44|296:20,1,160,6|2,0:0|0:0,0:0:0:0:
248,80,171288,1,8,0:0:0:0:
168,120,171641,2,0,P|116:88|40:112,2,120,2|2|8,0:0|0:0|0:0,0:0:0:0:
100,180,173053,6,0,P|128:252|216:276,1,160,2|2,0:0|0:0,0:0:0:0:
264,216,174112,1,8,0:0:0:0:
344,176,174465,2,0,P|396:208|472:184,2,120,2|2|8,0:0|0:0|0:0,0:0:0:0:
412,120,175876,6,0,P|360:64|300:40,1,120,2|2,0:0|0:0,0:0:0:0:
188,88,176935,1,8,0:0:0:0:
104,44,177288,2,0,P|40:92|27:146,1,120,2|2,0:0|0:0,0:0:0:0:
56,212,178170,1,0,0:0:0:0:
120,272,178523,6,2,P|256:300|392:272,1,280,0|2,0:0|0:0,2:0:0:0:
344,196,180112,2,0,P|384:176|464:208,1,120,2|0,0:0|0:0,0:0:0:0:
272,244,181523,5,4,0:0:0:0:
140,244,182053,1,2,0:0:0:0:
192,32,182935,5,4,0:0:0:0:
324,32,183465,1,2,0:0:0:0:
472,152,184347,5,6,0:0:0:0:
344,276,185053,1,2,0:0:0:0:
168,276,185759,1,0,0:0:0:0:
256,124,186465,1,8,0:3:0:0:
124,240,187170,6,0,P|100:328|216:312,1,240,6|8,0:0|0:0,0:0:0:0:
299,321,188582,2,0,P|400:342|388:240,1,240,8|8,0:0|0:0,0:0:0:0:
420,157,189994,2,0,P|431:54|331:75,1,240,8|8,0:0|0:0,0:0:0:0:
256,125,191406,6,0,B|285:185|285:185|352:195|352:195|303:242|303:242|315:308|315:308|255:277|255:277|195:308|195:308|207:242|207:242|158:195|158:195|227:185|227:185|226:176,1,588.799980234376,6|2,0:0|0:0,0:0:0:0:
256,150,206229,6,0,P|328:144|388:80,1,160
256,234,207641,6,0,P|184:240|124:304,1,160,0|2,0:0|0:0,0:0:0:0:
280,332,208876,1,0,0:0:0:0:
280,332,209053,1,4,0:3:0:0:
368,332,209406,1,4,0:3:0:0:
436,276,209759,6,0,P|480:184|416:48,1,240,6|8,0:0|0:0,0:0:0:0:
356,20,211170,2,0,P|312:112|376:248,1,240,2|8,0:0|0:0,0:0:0:0:
368,324,212582,6,0,P|256:360|140:320,1,240,6|8,0:0|0:0,0:0:0:0:
153,234,213994,2,0,P|200:127|156:20,1,240,2|8,0:0|0:0,0:0:0:0:
78,61,215406,2,0,P|31:168|76:276,1,240,2|8,0:0|0:0,0:0:0:0:
144,332,216817,6,0,L|324:332,1,160,0|2,0:0|0:0,0:0:0:0:
392,332,217876,1,4,0:3:0:0:
412,248,218229,6,0,L|156:248,1,240,6|8,0:0|0:0,0:0:0:0:
144,164,219641,2,0,L|400:164,1,240,8|8,0:0|0:0,0:0:0:0:
412,80,221053,1,8,0:0:0:0:
412,80,221406,2,0,L|156:80,2,240,8|8|2,0:0|0:0|0:0,0:0:0:0:
344,160,223876,6,0,B|392:212|356:268|356:268|320:324|368:380,2,240,6|8|8,0:0|0:0|0:0,0:0:0:0:
168,224,226700,6,0,B|120:172|156:116|156:116|192:60|144:4,2,240,6|8|8,0:0|0:0|0:0,0:0:0:0:
256,192,229523,12,2,233406,0:0:0:0:
392,128,235170,5,12,0:0:0:0:
120,128,236229,5,12,0:0:0:0:
256,352,237288,5,8,0:0:0:0:
256,192,237817,12,0,243465,0:0:0:0:
