osu file format v14

[General]
AudioFilename: audio.mp3
AudioLeadIn: 0
PreviewTime: -1
Countdown: 0
SampleSet: Soft
StackLeniency: 0.2
Mode: 0
LetterboxInBreaks: 0
WidescreenStoryboard: 0

[Editor]
DistanceSpacing: 0.6
BeatDivisor: 4
GridSize: 16
TimelineZoom: 1.6

[Metadata]
Title:Changing point (TV Size)
TitleUnicode:Changing point (TV Size)
Artist:i*Ris
ArtistUnicode:i☆Ris
Creator:Hybrid Theory
Version:.
Source:魔法少女サイト
Tags:iris magical girl site op
BeatmapID:1738908
BeatmapSetID:829914

[Difficulty]
HPDrainRate:5
CircleSize:4
OverallDifficulty:8
ApproachRate:9.2
SliderMultiplier:1.8
SliderTickRate:1

[Events]
//Background and Video events
0,0,"changing point bg.jpg",0,0
//Break Periods
//Storyboard Layer 0 (Background)
//Storyboard Layer 1 (Fail)
//Storyboard Layer 2 (Pass)
//Storyboard Layer 3 (Foreground)
//Storyboard Sound Samples

[TimingPoints]
409,346.820809248555,3,2,1,40,1,0
669,-100,3,2,1,5,0,0
755,-100,3,2,1,40,0,0
1189,-100,3,2,1,5,0,0
1276,-100,3,2,1,40,0,0
1709,-100,3,2,1,5,0,0
1796,-100,3,2,1,40,0,0
2229,-100,3,2,1,5,0,0
2316,-100,3,2,1,40,0,0
2750,-100,3,2,1,5,0,0
2836,-100,3,2,1,40,0,0
3010,-105.263157894737,3,2,1,40,0,0
3183,346.820809248555,4,2,1,40,1,0
3226,-100,4,2,1,5,0,0
5784,-100,4,2,1,5,0,0
5957,-100,4,2,1,40,0,0
16709,-111.111111111111,4,2,1,40,0,0
17055,-83.3333333333333,4,2,1,40,0,0
20177,-100,4,2,1,40,0,0
20524,-125,4,2,1,40,0,0
20870,-166.666666666667,4,2,1,40,0,0
21217,-83.3333333333333,4,2,1,40,0,0
28154,346.820809248555,7,2,1,40,1,0
28154,-100,7,2,1,40,0,0
38038,-76.9230769230769,7,2,1,40,0,0
38211,346.820809248555,4,2,1,40,1,0
47921,-100,4,2,1,25,0,0
48268,-100,4,2,1,15,0,0
49309,-66.6666666666667,4,2,1,40,0,1
57632,-58.8235294117647,4,2,1,40,0,1
57893,-58.8235294117647,4,2,1,5,0,1
57979,-58.8235294117647,4,2,1,40,0,1
58413,-58.8235294117647,4,2,1,5,0,1
58500,-58.8235294117647,4,2,1,40,0,1
58760,-58.8235294117647,4,2,1,5,0,1
58846,-58.8235294117647,4,2,1,40,0,1
59713,-55.5555555555556,4,2,1,25,0,1
60060,-55.5555555555556,4,2,1,15,0,1
60407,-55.5555555555556,4,2,1,40,0,1
62141,-71.4285714285714,4,2,1,40,0,1
62488,-100,4,2,1,40,0,1
62835,-166.666666666667,4,2,1,40,0,1
63182,-55.5555555555556,4,2,1,40,0,1
64222,-76.9230769230769,4,2,1,40,0,1
64569,-55.5555555555556,4,2,1,40,0,1
64916,-71.4285714285714,4,2,1,40,0,1
65263,-100,4,2,1,40,0,1
65609,-166.666666666667,4,2,1,40,0,1
65956,-76.9230769230769,4,2,1,40,0,1
66476,-55.5555555555556,4,2,1,40,0,1
70812,-55.5555555555556,4,2,1,25,0,1
71158,-55.5555555555556,4,2,1,15,0,1
71505,-55.5555555555556,4,2,1,40,0,1
75320,-71.4285714285714,4,2,1,40,0,1
81910,-71.4285714285714,4,2,1,25,0,1
82257,-71.4285714285714,4,2,1,15,0,1
82604,-100,4,2,1,40,0,0
82647,319.148936170213,4,2,1,40,1,0
82966,357.142857142857,4,2,1,40,1,0
83323,326.086956521739,4,2,1,40,1,0
83649,375,4,2,1,40,1,0
84024,331.491712707182,4,2,1,35,1,0
84355,359.281437125748,4,2,1,32,1,0
84714,326.086956521739,4,2,1,30,1,0
85040,441.176470588235,4,2,1,25,1,0
85481,535.714285714286,4,2,1,40,1,0

[Colours]
Combo1 : 112,254,175
Combo2 : 132,57,55
Combo3 : 237,192,131
Combo4 : 250,216,254

[HitObjects]
177,76,409,6,0,P|240:94|269:154,1,135,4|0,3:0|0:0,0:0:0:0:
157,77,755,1,0,3:0:0:0:
204,289,929,6,0,B|204:255|204:255|186:214|186:214|187:158,1,135,4|0,3:0|0:0,0:0:0:0:
203,309,1276,1,0,3:0:0:0:
269,154,1449,6,0,B|333:202|349:138|413:186,1,135,4|0,3:0|0:0,0:0:0:0:
266,138,1796,1,0,3:0:0:0:
460,129,1969,6,0,P|470:201|411:254,1,135,4|0,3:0|0:0,0:0:0:0:
450,114,2316,1,0,3:0:0:0:
262,271,2489,6,0,B|237:259|237:259|278:304|254:367,1,135,4|0,3:0|0:0,0:0:0:0:
275,277,2836,1,0,3:0:0:0:
83,341,3010,6,0,B|174:366|210:324|217:270|206:228|132:189|132:189|90:167|34:181|2:102|11:65|11:65|19:40|85:25|143:83|143:83|159:12|232:-6|252:5|252:5|277:22|283:111|214:155|214:155|274:204|275:277|275:277|308:193|353:173|353:173|406:150|465:181|463:248,1,1367.99996347046,4|0,3:0|2:0,2:0:0:0:
386,77,5957,6,0,P|379:35|381:21,2,45,0|0|0,2:0|2:0|2:0,2:0:0:0:
433,160,6304,1,0,2:0:0:0:
390,236,6477,1,0,2:0:0:0:
390,236,6998,5,0,2:0:0:0:
390,236,7344,1,0,2:0:0:0:
254,158,7518,1,0,2:0:0:0:
254,158,8038,1,0,2:0:0:0:
135,198,8385,1,0,2:0:0:0:
161,326,8732,6,0,P|166:356|161:382,2,45,0|0|0,2:0|2:0|2:0,2:0:0:0:
68,258,9078,1,0,2:0:0:0:
95,130,9252,1,0,2:0:0:0:
182,128,9772,5,0,2:0:0:0:
182,128,9946,1,0,2:0:0:0:
95,130,10119,1,0,2:0:0:0:
228,55,10292,1,0,2:0:0:0:
228,55,10813,1,0,2:0:0:0:
276,158,11159,1,0,2:0:0:0:
216,255,11506,6,0,P|205:282|203:304,2,45,0|0|0,2:0|2:0|2:0,2:0:0:0:
327,226,11853,1,0,2:0:0:0:
198,152,12026,1,0,2:0:0:0:
198,152,12547,5,0,2:0:0:0:
198,152,12893,1,0,2:0:0:0:
320,84,13067,1,0,2:0:0:0:
320,84,13587,1,0,0:0:0:0:
303,200,13934,1,0,0:0:0:0:
424,259,14281,6,0,P|453:246|473:224,2,45
303,200,14628,1,0,0:0:0:0:
232,298,14801,1,0,0:0:0:0:
232,298,15321,5,0,0:0:0:0:
232,298,15668,1,0,0:0:0:0:
75,258,15841,1,0,0:0:0:0:
75,258,16362,1,0,0:0:0:0:
56,130,16535,6,2,L|50:105,2,22.5
60,142,16709,2,0,P|118:152|174:129,1,121.499996292114,8|0,0:0|0:0,0:0:0:0:
183,115,17055,6,0,L|171:229,1,107.999996704102,0|0,3:0|0:0,0:0:0:0:
257,200,17402,2,0,L|269:93,1,107.999996704102,0|0,3:0|0:0,0:0:0:0:
303,280,17749,6,0,P|250:289|199:272,1,107.999996704102,0|0,3:0|0:0,0:0:0:0:
341,205,18096,2,0,P|393:195|444:212,1,107.999996704102,0|0,3:0|0:0,0:0:0:0:
410,375,18443,6,0,B|387:348|387:348|393:266,1,107.999996704102,0|0,3:0|0:0,0:0:0:0:
426,113,18789,2,0,B|449:140|449:140|443:222,1,107.999996704102,0|0,3:0|0:0,0:0:0:0:
291,60,19136,6,0,P|230:49|176:65,1,107.999996704102,0|0,3:0|0:0,0:0:0:0:
81,59,19483,2,0,P|142:70|196:54,1,107.999996704102,0|0,3:0|0:0,0:0:0:0:
243,134,19830,6,0,L|277:236,1,107.999996704102,0|0,3:0|0:0,0:0:0:0:
204,262,20177,2,0,L|175:176,1,90,0|0,3:0|0:0,0:0:0:0:
108,220,20524,2,0,L|140:317,1,72,0|0,3:0|0:0,0:0:0:0:
57,314,20870,2,0,L|39:262,1,53.9999983520508,0|0,3:0|0:0,0:0:0:0:
115,363,21217,6,0,B|157:380|157:380|242:373,1,107.999996704102,0|0,3:0|0:0,0:0:0:0:
333,362,21564,1,0,3:0:0:0:
384,226,21737,2,0,L|258:238,1,107.999996704102,0|0,0:0|3:0,0:0:0:0:
333,362,22084,1,0,0:0:0:0:
384,226,22258,1,0,3:0:0:0:
297,112,22431,1,0,0:0:0:0:
297,112,22604,6,0,P|281:68|302:-2,1,107.999996704102,0|0,3:0|0:0,0:0:0:0:
380,123,22951,2,0,P|396:167|375:237,1,107.999996704102,0|0,3:0|0:0,0:0:0:0:
214,101,23298,2,0,L|63:80,1,107.999996704102,0|0,3:0|0:0,0:0:0:0:
173,296,23645,6,0,P|201:252|187:202,1,107.999996704102,0|0,3:0|0:0,0:0:0:0:
112,189,23992,2,0,P|84:232|98:282,1,107.999996704102,0|0,3:0|0:0,0:0:0:0:
173,295,24339,2,0,P|222:276|272:293,1,107.999996704102,0|0,3:0|0:0,0:0:0:0:
358,379,24685,6,0,L|375:248,1,107.999996704102,0|0,3:0|0:0,0:0:0:0:
463,227,25032,2,0,L|446:358,1,107.999996704102,0|0,3:0|0:0,0:0:0:0:
378,178,25379,6,0,P|330:154|277:159,1,107.999996704102,0|0,3:0|0:0,0:0:0:0:
189,124,25726,2,0,B|208:97|208:97|221:23,1,107.999996704102,0|0,3:0|0:0,0:0:0:0:
277,159,26073,2,0,P|324:183|378:178,1,107.999996704102,0|0,3:0|0:0,0:0:0:0:
479,71,26419,2,0,B|465:144|465:144|474:176,1,107.999996704102,0|0,3:0|0:0,0:0:0:0:
378,178,26766,5,0,3:0:0:0:
309,290,26940,1,0,0:0:0:0:
236,231,27113,1,0,3:0:0:0:
392,265,27287,1,0,0:0:0:0:
250,349,27460,1,0,3:0:0:0:
117,195,27633,1,0,0:0:0:0:
85,337,27807,1,0,3:0:0:0:
194,158,27980,1,0,0:0:0:0:
134,37,28154,6,0,B|64:2|-3:9|-3:9|22:46|52:51,1,180,4|0,3:0|3:0,0:0:0:0:
153,107,28674,2,0,P|203:114|246:99,1,90,0|0,0:0|3:0,0:0:0:0:
404,79,29194,6,0,B|470:86|511:66|511:66|518:106|479:158,1,180,0|0,3:0|3:0,0:0:0:0:
422,158,29714,2,0,P|385:157|324:146,1,90,0|0,0:0|3:0,0:0:0:0:
319,153,30234,1,0,3:0:0:0:
35,264,30581,6,0,B|28:240|28:240|61:235|90:248|102:279|102:279|112:308|159:335,1,180,0|0,3:0|3:0,0:0:0:0:
216,358,31101,2,0,P|274:366|311:356,1,90,0|0,0:0|3:0,0:0:0:0:
451,193,31622,6,0,B|476:171|482:145|482:145|508:211|480:271,1,180,0|0,3:0|3:0,0:0:0:0:
493,338,32142,2,0,B|444:346|447:312|389:326,1,90,0|0,0:0|3:0,0:0:0:0:
398,328,32662,1,0,3:0:0:0:
83,178,33009,6,0,B|72:146|57:132|57:132|127:177|198:157,1,180,0|0,3:0|3:0,0:0:0:0:
278,106,33529,2,0,P|258:156|250:203,1,90,0|0,0:0|3:0,0:0:0:0:
280,304,34049,6,0,B|304:342|304:342|156:310,1,180,0|0,3:0|3:0,0:0:0:0:
363,302,34570,2,0,B|385:333|385:333|473:343,1,90,0|0,0:0|3:0,0:0:0:0:
446,334,35090,1,0,3:0:0:0:
441,169,35437,6,0,B|468:102|411:98|431:30|431:30|417:48|400:58,1,180,0|0,3:0|3:0,0:0:0:0:
365,121,35957,2,0,P|300:130|254:111,1,90,0|0,0:0|3:0,0:0:0:0:
174,46,36477,6,0,B|115:13|39:48|39:48|32:69|19:89,1,180,0|0,3:0|0:0,0:0:0:0:
0,157,36911,1,0,0:0:0:0:
39,218,36997,1,0,0:0:0:0:
99,238,37084,1,0,0:0:0:0:
144,211,37171,1,0,0:0:0:0:
167,180,37258,1,0,0:0:0:0:
196,166,37344,1,0,0:0:0:0:
217,171,37431,1,0,0:0:0:0:
223,182,37518,1,0,0:0:0:0:
239,198,37604,1,0,0:0:0:0:
266,206,37691,1,0,0:0:0:0:
304,191,37778,1,0,0:0:0:0:
330,144,37864,1,0,0:0:0:0:
376,104,37951,1,0,0:0:0:0:
451,113,38038,6,0,P|490:156|493:213,1,116.999994644165,4|0,3:0|0:0,0:0:0:0:
406,317,38384,1,0,3:0:0:0:
406,317,38557,1,0,3:0:0:0:
262,108,38904,5,0,3:0:0:0:
123,313,39251,5,0,3:0:0:0:
33,228,39424,5,0,0:0:0:0:
38,140,39598,2,0,B|70:95|70:95|99:76,1,90,0|0,3:0|0:0,0:0:0:0:
198,158,39945,2,0,L|229:260,1,90,0|0,3:0|0:0,0:0:0:0:
316,57,40291,2,0,P|251:59|219:77,1,90,0|0,3:0|0:0,0:0:0:0:
370,152,40638,2,0,P|435:150|467:132,1,90,0|0,3:0|0:0,0:0:0:0:
393,245,40985,6,0,L|362:347,1,90,0|0,3:0|0:0,0:0:0:0:
283,346,41332,2,0,L|309:259,1,90,0|0,3:0|0:0,0:0:0:0:
241,205,41679,2,0,L|214:291,1,90,0|0,3:0|0:0,0:0:0:0:
131,306,42026,2,0,L|157:219,1,90,0|0,3:0|0:0,0:0:0:0:
89,49,42372,6,0,P|30:60|-5:82,1,90,0|0,3:0|0:0,0:0:0:0:
160,109,42719,2,0,L|213:25,1,90,0|0,3:0|0:0,0:0:0:0:
77,142,43066,2,0,L|24:226,1,90,0|0,3:0|0:0,0:0:0:0:
148,202,43413,2,0,P|192:196|232:176,1,90,0|0,3:0|0:0,0:0:0:0:
280,71,43760,5,4,3:0:0:0:
387,50,43933,1,0,0:0:0:0:
458,133,44106,1,0,3:0:0:0:
350,153,44280,5,0,0:0:0:0:
421,236,44453,1,0,3:0:0:0:
383,340,44627,1,0,0:0:0:0:
313,257,44800,5,0,3:0:0:0:
491,319,44974,1,0,0:0:0:0:
275,361,45147,5,4,3:0:0:0:
97,299,45320,1,0,0:0:0:0:
243,174,45494,1,0,3:0:0:0:
167,382,45667,1,0,0:0:0:0:
135,195,45841,1,0,3:0:0:0:
313,257,46014,1,0,0:0:0:0:
286,66,46187,1,0,3:0:0:0:
205,278,46361,1,0,0:0:0:0:
387,50,46534,5,0,3:0:0:0:
395,45,46621,1,0,3:0:0:0:
407,44,46708,1,0,3:0:0:0:
424,48,46794,1,0,3:0:0:0:
439,66,46881,1,0,3:0:0:0:
439,94,46968,1,0,3:0:0:0:
421,119,47054,1,0,3:0:0:0:
386,131,47141,1,0,3:0:0:0:
349,118,47228,1,0,3:0:0:0:
308,85,47315,1,0,3:0:0:0:
250,75,47401,1,0,3:0:0:0:
198,103,47488,1,0,3:0:0:0:
174,163,47575,1,0,3:0:0:0:
204,225,47661,1,0,3:0:0:0:
274,251,47748,1,4,3:0:0:0:
350,228,47835,1,0,3:0:0:0:
422,265,47921,6,0,L|445:294,7,22.5,0|0|0|0|0|0|0|0,0:0|0:0|0:0|0:0|3:0|0:0|0:0|0:0,0:0:0:0:
393,345,48268,6,0,L|390:358,15,11.25,0|0|0|0|0|0|0|0|0|0|0|0|0|0|0|0,3:0|2:0|2:0|2:0|2:0|2:0|2:0|3:0|2:0|2:0|2:0|2:0|2:0|2:0|2:0|2:0,2:0:0:0:
39,20,49309,6,0,P|103:37|154:80,1,135.000005149842,0|0,3:0|0:0,0:0:0:0:
119,240,49656,2,0,B|18:273|18:273|-11:308,1,135.000005149842,0|0,3:0|0:0,0:0:0:0:
181,332,50002,1,0,3:0:0:0:
213,212,50176,1,0,0:0:0:0:
154,80,50349,2,0,B|121:123|130:162|130:162|154:122|177:123,1,135.000005149842,0|0,3:0|0:0,0:0:0:0:
248,56,50696,6,0,P|284:35|393:14,1,135.000005149842,0|0,3:0|0:0,0:0:0:0:
472,75,51043,1,0,3:0:0:0:
402,228,51216,1,0,0:0:0:0:
485,273,51390,1,0,3:0:0:0:
364,355,51563,1,0,0:0:0:0:
282,205,51737,2,0,B|190:148|182:244|74:186,1,202.500007724762,0|0,3:0|0:0,0:0:0:0:
14,155,52083,6,0,P|86:114|157:145,1,135.000005149842,0|0,3:0|0:0,0:0:0:0:
228,267,52430,1,0,3:0:0:0:
101,308,52604,1,0,0:0:0:0:
87,193,52777,1,0,3:0:0:0:
21,278,52950,1,0,0:0:0:0:
190,356,53124,2,0,P|265:351|319:304,1,135.000005149842,0|0,3:0|0:0,0:0:0:0:
294,138,53471,6,0,B|278:184|298:239|298:239|327:237|354:247,1,135.000005149842,0|0,3:0|0:0,0:0:0:0:
472,280,53817,1,0,3:0:0:0:
381,361,53991,1,0,0:0:0:0:
329,240,54164,2,0,B|302:235|285:239|285:239|244:253|244:253|216:250|191:229,1,135.000005149842,0|0,3:0|0:0,0:0:0:0:
165,137,54511,1,0,3:0:0:0:
105,224,54684,1,0,0:0:0:0:
294,138,54858,6,0,B|356:130|406:140|406:140|380:122,1,135.000005149842,0|0,3:0|0:0,0:0:0:0:
322,38,55205,1,0,3:0:0:0:
435,67,55378,1,0,0:0:0:0:
226,92,55552,2,0,B|205:60|210:24|210:24|173:49|134:41,1,135.000005149842,0|0,3:0|0:0,0:0:0:0:
27,33,55898,1,0,3:0:0:0:
139,136,56072,1,0,0:0:0:0:
129,249,56245,6,0,P|8:322|8:322,1,135.000005149842,0|0,3:0|0:0,0:0:0:0:
122,344,56592,1,0,3:0:0:0:
72,185,56765,1,0,0:0:0:0:
142,255,56939,6,0,P|21:328|21:328,1,135.000005149842,0|0,3:0|0:0,0:0:0:0:
135,350,57286,1,0,3:0:0:0:
85,191,57459,1,0,0:0:0:0:
292,288,57632,6,0,B|373:293|405:305|430:328|430:328|447:305|477:294|477:294|424:286,1,229.500004377365,4|0,3:0|0:0,0:0:0:0:
275,288,57979,1,0,3:0:0:0:
324,168,58153,6,0,B|317:132|317:132|323:95|367:53|367:53|366:18|313:15|313:15|327:50,1,229.500004377365,4|0,3:0|0:0,0:0:0:0:
403,135,58500,2,0,P|492:144|434:97,1,229.500004377365,4|0,3:0|0:0,0:0:0:0:
321,37,58846,6,0,B|221:31|271:113|137:95,1,153.000002918243,0|0,3:0|3:0,0:0:0:0:
132,23,59106,1,0,3:0:0:0:
141,19,59193,1,0,3:0:0:0:
148,25,59280,1,0,3:0:0:0:
158,44,59367,1,4,3:0:0:0:
155,85,59453,1,0,3:0:0:0:
120,123,59540,1,0,3:0:0:0:
68,156,59627,1,0,3:0:0:0:
20,206,59713,6,0,P|5:235|3:247,7,38.2500007295609,0|0|0|0|0|0|0|0,3:0|0:0|0:0|0:0|3:0|0:0|0:0|0:0,0:0:0:0:
45,302,60060,6,0,P|53:308|63:312,12,19.1250003647804,0|0|0|0|0|0|0|0|0|0|0|0|0,3:0|0:0|0:0|0:0|0:0|0:0|0:0|3:0|0:0|0:0|0:0|0:0|0:0,0:0:0:0:
155,276,60407,6,0,B|159:261|165:223|165:223|179:282|242:328,1,161.999995056153,4|0,3:0|0:0,0:0:0:0:
315,344,60754,1,0,3:0:0:0:
356,255,60927,2,0,P|277:255|222:311,1,161.999995056153,0|0,0:0|3:0,0:0:0:0:
230,178,61274,1,0,3:0:0:0:
356,255,61447,2,0,B|397:277|434:270|434:270|442:214|480:167,1,161.999995056153,0|0,3:0|0:0,0:0:0:0:
406,50,61794,6,0,P|393:105|436:60,1,161.999995056153,0|0,3:0|0:0,0:0:0:0:
234,52,62141,2,0,P|271:89|264:45,1,125.999996154785,0|0,3:0|0:0,0:0:0:0:
101,130,62488,2,0,P|139:140|124:109,1,90,0|0,3:0|0:0,0:0:0:0:
65,252,62835,2,0,P|83:237|64:234,1,53.9999983520508,0|0,3:0|0:0,0:0:0:0:
144,320,63182,6,0,B|224:288|224:352|304:320,1,161.999995056153,0|0,3:0|0:0,0:0:0:0:
359,239,63528,1,0,3:0:0:0:
497,298,63702,2,0,B|394:342|394:342|442:271,1,161.999995056153,0|0,0:0|3:0,0:0:0:0:
379,148,64049,1,0,0:0:0:0:
471,31,64222,2,0,B|489:24|505:14|505:14|487:67|455:102,1,116.999994644165,0|0,3:0|0:0,0:0:0:0:
456,90,64569,6,0,P|371:60|278:117,1,161.999995056153,0|0,3:0|0:0,0:0:0:0:
141,156,64916,2,0,P|216:129|299:180,1,125.999996154785,0|0,3:0|0:0,0:0:0:0:
375,217,65263,2,0,P|322:198|264:234,1,90,0|0,3:0|0:0,0:0:0:0:
198,278,65609,2,0,P|228:267|261:288,1,53.9999983520508,0|0,3:0|0:0,0:0:0:0:
281,349,65956,2,0,P|340:333|389:280,2,116.999994644165,4|0|0,3:0|0:0|3:0,0:0:0:0:
114,320,66476,6,0,B|62:283|47:210|47:210|24:255,1,161.999995056153,0|0,0:0|3:0,0:0:0:0:
89,119,66823,1,0,0:0:0:0:
33,236,66997,1,0,3:0:0:0:
185,127,67170,1,0,0:0:0:0:
114,38,67343,1,0,3:0:0:0:
205,135,67517,1,0,0:0:0:0:
305,47,67690,6,0,B|342:22|342:22|466:9,1,161.999995056153,0|0,3:0|0:0,0:0:0:0:
393,113,68037,1,0,3:0:0:0:
386,274,68211,2,0,P|382:193|392:112,1,161.999995056153,0|0,0:0|3:0,0:0:0:0:
487,242,68557,1,0,0:0:0:0:
423,344,68731,6,0,B|346:374|346:310|266:342,1,161.999995056153,4|0,3:0|3:0,3:0:0:0:
247,356,68991,1,0,3:0:0:0:
238,370,69078,1,0,3:0:0:0:
61,294,69251,5,0,3:0:0:0:
53,269,69338,1,0,3:0:0:0:
65,246,69424,1,0,3:0:0:0:
296,209,69598,5,0,3:0:0:0:
304,234,69685,1,0,3:0:0:0:
292,257,69771,1,0,3:0:0:0:
71,116,69945,5,4,3:0:0:0:
57,120,70031,1,0,3:0:0:0:
43,132,70118,1,0,3:0:0:0:
35,152,70205,1,0,3:0:0:0:
61,166,70291,1,0,3:0:0:0:
95,158,70378,1,0,3:0:0:0:
134,128,70465,1,0,3:0:0:0:
174,89,70552,1,0,3:0:0:0:
230,64,70638,1,0,3:0:0:0:
300,62,70725,1,0,3:0:0:0:
355,113,70812,6,0,P|374:135|382:148,7,40.4999987640381,0|0|0|0|0|0|0|0,3:0|0:0|0:0|0:0|3:0|0:0|0:0|0:0,0:0:0:0:
442,71,71158,6,0,P|439:80|432:90,13,20.2499993820191,0|0|0|0|0|0|0|0|0|0|0|0|0|0,3:0|0:0|0:0|0:0|0:0|0:0|0:0|3:0|0:0|0:0|0:0|0:0|0:0|0:0,0:0:0:0:
458,169,71505,6,0,B|427:233|359:222|359:222|324:216|288:232,1,161.999995056153,4|0,3:0|0:0,0:0:0:0:
191,263,71852,1,0,3:0:0:0:
350,319,72026,1,0,0:0:0:0:
132,314,72199,1,0,3:0:0:0:
343,308,72372,1,0,0:0:0:0:
92,380,72546,1,0,3:0:0:0:
336,297,72719,1,0,0:0:0:0:
271,83,72893,5,0,3:0:0:0:
267,277,73066,1,0,0:0:0:0:
283,79,73239,1,0,3:0:0:0:
191,263,73413,1,0,0:0:0:0:
297,75,73586,1,0,3:0:0:0:
129,220,73760,1,0,0:0:0:0:
310,71,73933,1,0,3:0:0:0:
90,156,74106,1,0,0:0:0:0:
323,67,74280,6,0,B|379:46|437:60|437:60|412:83|403:112,1,161.999995056153,0|0,3:0|0:0,0:0:0:0:
444,246,74627,1,0,3:0:0:0:
483,125,74800,1,0,0:0:0:0:
378,287,74974,1,0,3:0:0:0:
485,111,75147,1,0,0:0:0:0:
303,308,75320,6,0,P|241:323|179:317,1,125.999996154785,0|0,3:0|0:0,0:0:0:0:
17,230,75667,2,0,B|27:211|46:203|46:203|89:222|137:212,1,125.999996154785,0|0,3:0|0:0,0:0:0:0:
217,165,76014,1,0,3:0:0:0:
179,317,76187,1,0,0:0:0:0:
100,133,76361,2,0,B|79:55|79:55|45:21,1,125.999996154785,0|0,3:0|0:0,0:0:0:0:
13,216,76708,1,0,3:0:0:0:
163,65,76881,1,0,0:0:0:0:
163,65,77054,6,0,P|243:58|301:94,1,125.999996154785,4|0,3:0|0:0,0:0:0:0:
388,168,77401,5,0,3:0:0:0:
310,54,77574,1,0,0:0:0:0:
312,274,77748,1,0,3:0:0:0:
199,171,77921,1,0,0:0:0:0:
374,179,78095,5,0,3:0:0:0:
296,65,78268,1,0,0:0:0:0:
298,285,78442,1,0,3:0:0:0:
185,182,78615,1,0,0:0:0:0:
360,190,78789,5,0,3:0:0:0:
282,76,78962,1,0,0:0:0:0:
284,296,79136,1,0,3:0:0:0:
171,193,79309,1,0,0:0:0:0:
346,201,79482,5,0,3:0:0:0:
268,87,79655,1,0,0:0:0:0:
270,307,79829,5,4,3:0:0:0:
157,204,80002,2,0,L|58:112,1,125.999996154785,0|0,3:0|0:0,0:0:0:0:
270,320,80349,5,4,3:0:0:0:
383,217,80522,2,0,L|481:125,1,125.999996154785,0|0,3:0|0:0,0:0:0:0:
270,334,80869,5,4,3:0:0:0:
267,180,81042,2,0,L|267:45,1,125.999996154785,0|0,3:0|3:0,3:0:0:0:
272,38,81303,5,0,3:0:0:0:
288,32,81390,1,0,3:0:0:0:
306,40,81476,1,0,3:0:0:0:
284,60,81563,1,0,3:0:0:0:
251,73,81650,1,0,3:0:0:0:
196,66,81737,1,0,3:0:0:0:
139,41,81823,1,0,3:0:0:0:
68,42,81910,6,0,P|49:44|33:47,7,31.4999990386963,4|0|0|0|0|0|0|0,0:0|0:0|0:0|0:0|1:0|0:0|0:0|0:0,0:0:0:0:
52,117,82257,6,0,L|37:134,14,15.7499995193482,4|0|0|0|0|0|0|0|0|0|0|0|0|0|0,0:0|0:0|0:0|0:0|0:0|0:0|0:0|1:0|0:0|0:0|0:0|0:0|0:0|0:0|0:0,0:0:0:0:
128,174,82647,5,4,0:0:0:0:
242,116,82966,5,0,0:0:0:0:
317,190,83323,6,0,L|325:210,1,22.5
411,120,83649,5,0,0:0:0:0:
423,213,84024,6,0,L|417:239,1,22.5
248,252,84355,5,0,0:0:0:0:
360,293,84714,6,0,L|363:317,1,22.5
463,325,85040,5,0,0:0:0:0:
319,372,85370,6,0,P|292:382|265:386,1,45
203,55,86418,6,0,L|177:40,2,22.5
