osu file format v14

[General]
AudioFilename: audio.mp3
AudioLeadIn: 0
PreviewTime: 5958
Countdown: 0
SampleSet: Soft
StackLeniency: 0.7
Mode: 0
LetterboxInBreaks: 0
WidescreenStoryboard: 0

[Editor]
DistanceSpacing: 1
BeatDivisor: 6
GridSize: 16
TimelineZoom: 1.4

[Metadata]
Title:Changing point (TV Size)
TitleUnicode:Changing point (TV Size)
Artist:i*Ris
ArtistUnicode:i☆Ris
Creator:Hailie
Version:Normal
Source:魔法少女サイト
Tags:Magical Girl Site Opening OP
BeatmapID:1605121
BeatmapSetID:762883

[Difficulty]
HPDrainRate:4
CircleSize:2
OverallDifficulty:4
ApproachRate:5.5
SliderMultiplier:1.05
SliderTickRate:1

[Events]
//Background and Video events
Video,0,"p.avi"
0,0,"changing point bg.jpg",0,0
//Break Periods
//Storyboard Layer 0 (Background)
//Storyboard Layer 1 (Fail)
//Storyboard Layer 2 (Pass)
//Storyboard Layer 3 (Foreground)
//Storyboard Sound Samples

[TimingPoints]
409,346.820809248555,3,2,0,50,1,0
3183,346.820809248555,4,2,0,50,1,0
5958,-111.111111111111,4,2,0,30,0,0
16536,-111.111111111111,4,2,0,60,0,0
17056,-100,4,2,0,50,0,0
28154,346.820809248555,7,2,0,50,1,0
38038,-100,7,2,0,40,0,0
38211,346.820809248555,4,2,0,40,1,0
43760,-100,4,2,0,50,0,0
49309,-100,4,2,0,70,0,1
82647,319.148936170213,4,2,0,40,1,0
82966,357.142857142857,4,2,0,40,1,0
83323,326.086956521739,4,2,0,40,1,0
83649,375,4,2,0,40,1,0
84024,331.491712707182,4,2,0,40,1,0
84355,359.281437125748,4,2,0,40,1,0
84714,326.086956521739,4,2,0,40,1,0
85040,441.176470588235,4,2,0,40,1,0
85481,535.714285714286,4,2,0,40,1,0
86686,-100,4,2,0,5,0,0

[Colours]
Combo1 : 255,255,0
Combo2 : 128,0,0
Combo3 : 255,0,255
Combo4 : 0,255,0

[HitObjects]
24,54,409,6,0,P|80:66|142:47,1,105,4|4,1:0|3:0,0:0:0:0:
176,41,929,1,4,1:2:0:0:
333,34,1449,2,0,P|388:50|452:50,1,105,4|4,1:2|0:3,0:0:0:0:
483,72,1969,2,0,P|503:118|472:177,1,105,4|4,1:2|3:0,0:0:0:0:
453,209,2489,1,4,1:0:0:0:
347,221,2836,1,4,0:3:0:0:
296,235,3010,2,0,P|185:202|326:133,1,367.5,4|0,1:0|0:0,0:0:0:0:
454,187,5958,5,2,0:0:0:0:
336,39,6651,2,0,P|283:41|228:37,1,94.499997116089,0|2,0:0|0:0,0:0:0:0:
149,60,7345,1,0,3:0:0:0:
149,60,8039,6,0,P|130:113|136:151,1,94.499997116089,2|2,0:0|0:0,0:0:0:0:
155,242,8732,2,0,B|253:234|223:301|341:304,1,188.999994232178,2|0,0:0|0:0,0:0:0:0:
418,333,9773,1,2,0:0:0:0:
473,256,10119,6,0,P|510:188|446:92,1,188.999994232178,2|2,3:2|0:0,0:0:0:0:
367,121,11160,1,2,0:0:0:0:
278,86,11507,1,2,0:0:0:0:
45,247,12547,5,2,0:0:0:0:
120,304,12894,2,0,P|172:304|230:319,1,94.499997116089,2|0,3:2|0:0,0:0:0:0:
305,337,13588,1,2,0:0:0:0:
398,325,13935,1,2,0:0:0:0:
469,263,14281,6,0,P|479:228|477:170,2,94.499997116089,2|0|2,0:0|0:0|0:0,0:0:0:0:
286,211,15669,1,2,3:2:0:0:
136,96,16362,2,0,L|23:102,1,94.499997116089,2|12,0:0|1:0,0:0:0:0:
18,203,17056,6,0,P|23:261|29:311,1,105,4|0,1:0|1:3,0:0:0:0:
129,337,17750,2,0,P|189:318|239:317,1,105,4|0,3:0|1:3,0:0:0:0:
334,333,18443,2,0,P|381:339|443:332,1,105,4|0,1:3|1:3,0:0:0:0:
501,248,19137,1,4,3:0:0:0:
426,174,19484,1,0,1:3:0:0:
322,157,19830,6,0,L|320:36,2,105,4|0|4,1:3|1:3|3:0,0:0:0:0:
216,157,20870,1,0,1:3:0:0:
114,185,21218,2,0,P|92:232|99:302,1,105,4|0,1:3|1:3,0:0:0:0:
105,335,21738,2,0,P|164:326|227:335,1,105,2|0,0:0|0:0,0:0:0:0:
259,343,22258,1,0,1:3:0:0:
364,343,22605,6,0,L|374:215,1,105,4|0,1:3|1:3,0:0:0:0:
386,133,23299,1,4,3:0:0:0:
281,143,23645,2,0,P|243:145|209:142,1,52.5,0|2,1:3|0:0,0:0:0:0:
176,138,23992,2,0,L|135:25,2,105,4|0|4,1:3|1:3|3:0,0:0:0:0:
92,202,25033,1,0,1:3:0:0:
173,267,25380,6,0,P|220:273|289:312,1,105,4|0,1:3|1:3,0:0:0:0:
370,331,26073,2,0,P|417:303|450:244,1,105,4|0,3:0|1:3,0:0:0:0:
451,209,26593,2,0,B|459:165|433:146|442:87,1,105,2|2,0:0|3:2,0:0:0:0:
432,52,27114,1,4,1:3:0:0:
330,26,27461,1,4,3:0:0:0:
229,55,27807,1,0,1:3:0:0:
132,95,28154,6,0,P|117:126|122:209,1,105,4|4,1:0|0:3,0:0:0:0:
139,243,28674,1,2,1:2:0:0:
287,296,29194,1,2,1:2:0:0:
384,256,29541,1,4,0:3:0:0:
428,227,29714,2,0,P|456:170|404:79,1,157.5,2|4,1:2|0:3,0:0:0:0:
315,77,30581,6,0,L|314:197,1,105,4|4,1:0|0:3,0:0:0:0:
290,229,31101,1,0,1:0:0:0:
175,337,31622,2,0,P|124:329|61:341,1,105,2|4,1:2|0:3,0:0:0:0:
36,298,32142,1,2,1:2:0:0:
19,248,32315,1,4,0:3:0:0:
75,159,32662,1,4,0:3:0:0:
180,157,33009,6,0,P|218:152|284:104,1,105,4|4,1:2|0:3,0:0:0:0:
308,77,33529,2,0,P|348:62|381:63,1,52.5,2|4,1:2|0:3,0:0:0:0:
462,66,34049,1,2,1:2:0:0:
467,170,34396,2,0,L|468:236,1,52.5,4|2,0:3|1:2,0:0:0:0:
458,274,34743,1,4,0:3:0:0:
354,253,35090,1,4,1:3:0:0:
257,294,35437,6,0,P|172:294|134:301,1,105,0|4,1:0|0:3,0:0:0:0:
100,308,35957,1,2,1:2:0:0:
38,163,36477,2,0,L|62:48,1,105,2|2,1:2|3:2,0:0:0:0:
107,39,36997,1,2,0:2:0:0:
212,52,37344,2,0,L|226:-4,2,52.5,2|2|2,0:2|0:2|0:2,0:0:0:0:
243,152,38038,6,0,B|197:165|182:141|139:152,1,105,4|4,1:0|0:3,0:0:0:0:
93,178,38557,2,0,P|86:227|100:284,1,105,0|4,1:0|0:3,0:3:0:0:
202,332,39251,2,0,L|258:331,1,52.5,0|2,1:0|0:0,0:0:0:0:
312,324,39598,2,0,P|373:315|433:332,2,105,4|0|0,1:3|1:0|1:0,0:0:0:0:
276,223,40638,1,4,3:0:0:0:
171,213,40985,6,0,B|119:235|105:206|50:226,1,105,4|0,1:0|1:3,0:0:0:0:
112,125,41679,2,0,P|160:112|216:123,1,105,4|2,0:3|1:2,0:0:0:0:
264,134,42199,1,2,0:0:0:0:
312,112,42372,2,0,L|336:5,2,105,4|0|4,0:3|1:0|0:3,0:0:0:0:
400,168,43413,1,0,1:0:0:0:
457,255,43760,6,0,P|466:307|431:349,1,105,4|0,1:0|1:0,0:0:0:0:
385,338,44280,2,0,B|334:331|308:358|265:347,1,105,0|0,3:0|3:0,0:0:0:0:
228,348,44800,1,4,1:2:0:0:
125,324,45147,2,0,P|125:280|121:218,1,105,4|0,1:0|1:0,0:0:0:0:
88,177,45667,2,0,P|121:133|145:80,1,105,2|2,3:2|3:2,0:0:0:0:
136,35,46187,1,0,1:0:0:0:
240,29,46534,5,4,1:0:0:0:
342,60,46881,1,2,1:2:0:0:
415,134,47228,1,4,3:0:0:0:
424,238,47575,1,0,1:0:0:0:
392,279,47748,2,0,P|360:328|295:329,1,105,4|2,1:0|1:2,0:0:0:0:
270,311,48268,1,2,1:2:0:0:
218,324,48442,1,2,3:2:0:0:
332,153,49309,6,0,P|379:150|437:152,1,105,4|0,1:0|1:0,0:0:0:0:
444,115,49829,2,0,P|425:59|365:31,1,105,2|2,0:0|0:0,0:0:0:0:
335,31,50349,1,0,1:0:0:0:
245,86,50696,2,0,B|231:143|231:143|244:212,1,105,4|0,1:3|1:0,0:0:0:0:
225,293,51390,1,4,0:3:0:0:
294,371,51737,2,0,P|322:363|348:368,1,52.5,0|0,1:0|0:0,0:0:0:0:
397,365,52083,6,0,P|404:317|395:253,1,105,4|0,1:0|1:0,0:0:0:0:
392,208,52604,2,0,B|434:228|460:196|507:212,1,105,2|2,0:0|0:0,0:0:0:0:
507,157,53124,1,0,1:0:0:0:
421,95,53471,2,0,L|440:-18,2,105,4|0|4,1:3|1:0|0:3,0:0:0:0:
316,107,54511,1,0,1:0:0:0:
228,165,54858,2,0,P|217:217|241:277,1,105,4|0,1:0|1:0,0:0:0:0:
332,230,55552,6,0,P|348:279|336:340,1,105,4|0,0:3|1:0,0:0:0:0:
285,358,56072,1,2,3:0:0:0:
233,366,56245,2,0,P|179:360|118:366,1,105,4|0,1:3|1:0,0:0:0:0:
83,269,56939,2,0,P|64:246|96:186,1,105,4|0,0:3|1:0,0:0:0:0:
202,194,57632,6,0,L|203:78,1,105,4|4,1:0|1:3,0:0:0:0:
189,37,58153,1,4,1:2:0:0:
300,58,58500,2,0,P|346:61|371:54,1,52.5,4|4,1:0|0:3,0:0:0:0:
403,48,58846,2,0,P|440:111|427:158,1,105,4|4,1:2|3:3,0:0:0:0:
398,176,59367,1,4,1:3:0:0:
326,252,59713,1,4,3:0:0:0:
276,345,60060,6,0,P|228:347|199:349,1,52.5,4|4,1:3|3:0,0:0:0:0:
170,342,60407,2,0,P|119:322|95:273,2,105,4|0|4,1:0|1:0|0:3,0:0:0:0:
192,239,61447,1,0,1:0:0:0:
249,151,61794,2,0,P|280:117|344:93,1,105,4|0,1:3|1:0,0:0:0:0:
440,106,62488,2,0,P|462:151|476:226,1,105,4|0,0:3|1:0,0:0:0:0:
458,254,63008,1,2,0:0:0:0:
415,284,63182,2,0,L|476:376,2,105,4|0|4,1:0|1:0|0:3,0:0:0:0:
307,268,64222,5,0,1:0:0:0:
204,289,64569,2,0,P|158:281|81:294,1,105,4|0,1:3|1:0,0:0:0:0:
46,196,65263,2,0,L|53:74,1,105,4|0,0:3|1:0,0:0:0:0:
140,34,65956,2,0,P|189:61|244:34,1,105,4|0,1:0|1:0,0:0:0:0:
290,38,66476,2,0,B|273:93|304:109|290:160,1,105,2|2,0:0|0:0,0:0:0:0:
291,199,66997,1,0,1:0:0:0:
384,152,67343,1,4,1:3:0:0:
487,170,67690,6,0,P|494:222|472:274,1,105,0|4,1:0|0:3,0:0:0:0:
425,287,68211,2,0,P|400:285|359:288,1,52.5,2|4,0:0|1:3,0:0:0:0:
320,288,68557,2,0,L|321:343,2,52.5,2|4|2,3:0|1:0|3:2,0:0:0:0:
270,268,69078,2,0,B|282:229|254:206|271:157,1,105,2|4,1:2|1:3,0:0:0:0:
215,73,69771,5,0,1:0:0:0:
142,0,70118,2,0,P|115:36|108:103,1,105,4|4,1:3|1:3,0:0:0:0:
77,195,70812,2,0,P|117:199|147:188,1,52.5,4|2,1:3|0:0,0:0:0:0:
180,194,71158,1,2,1:2:0:0:
231,183,71332,2,0,B|283:203|345:157|394:186,1,157.5,2|0,3:0|1:0,0:0:0:0:
509,170,72199,5,4,0:3:0:0:
450,257,72546,1,0,1:0:0:0:
376,331,72893,1,4,1:3:0:0:
264,325,73239,2,0,P|249:276|262:201,1,105,0|4,1:0|0:3,0:0:0:0:
216,185,73760,2,0,L|150:187,1,52.5,2|0,0:0|1:0,0:0:0:0:
101,101,74280,2,0,B|57:95|38:126|-3:111,1,105,4|0,1:0|1:0,0:0:0:0:
0,216,74974,1,4,0:3:0:0:
74,290,75320,6,0,P|124:277|187:294,1,105,0|0,1:0|1:0,0:0:0:0:
280,285,76014,1,4,0:3:0:0:
280,179,76361,2,0,B|286:129|255:113|270:54,1,105,0|0,1:0|1:0,0:0:0:0:
297,30,76881,2,0,P|348:20|390:30,1,96.25,0|0,3:0|3:0,0:0:0:0:
437,53,77401,6,0,L|437:114,1,52.5,4|0,0:3|3:0,0:0:0:0:
505,180,77921,1,2,3:2:0:0:
455,268,78268,2,0,P|408:259|331:280,1,105,2|0,3:0|3:0,0:0:0:0:
337,320,78789,1,4,0:3:0:0:
237,353,79135,2,0,B|224:310|253:274|235:226,1,105,0|4,1:0|0:3,0:0:0:0:
137,228,79829,5,0,1:0:0:0:
93,198,80002,2,0,L|91:86,1,105,0|0,1:3|1:0,0:0:0:0:
134,62,80523,1,4,1:0:0:0:
238,74,80869,1,4,0:3:0:0:
287,91,81043,2,0,L|399:81,1,105,4|4,1:0|1:3,0:0:0:0:
440,100,81563,2,0,P|453:134|459:172,1,52.5,4|0,1:2|1:0,0:0:0:0:
457,202,81910,2,0,P|399:210|351:237,1,105,4|0,1:3|1:0,0:0:0:0:
305,348,82647,5,2,0:0:0:0:
219,310,82966,1,2,0:0:0:0:
108,341,83323,2,0,P|49:349|2:321,1,105,2|2,0:0|0:0,0:0:0:0:
69,226,84024,2,0,L|76:108,1,105,2|2,0:0|0:0,0:0:0:0:
175,63,84714,2,0,B|216:81|252:53|284:71,1,105,2|2,0:0|0:0,0:0:0:0:
370,77,85481,1,2,0:0:0:0:
370,77,86552,5,2,0:0:0:0:
256,192,86686,12,0,88293,0:0:0:0:
