osu file format v14

[General]
AudioFilename: audio.mp3
AudioLeadIn: 0
PreviewTime: 5958
Countdown: 0
SampleSet: Soft
StackLeniency: 0.7
Mode: 0
LetterboxInBreaks: 0
WidescreenStoryboard: 1

[Editor]
DistanceSpacing: 1
BeatDivisor: 4
GridSize: 16
TimelineZoom: 1.8

[Metadata]
Title:Changing point (TV Size)
TitleUnicode:Changing point (TV Size)
Artist:i*Ris
ArtistUnicode:i☆Ris
Creator:Hailie
Version:Hard
Source:魔法少女サイト
Tags:Magical Girl Site Opening OP
BeatmapID:1605171
BeatmapSetID:762883

[Difficulty]
HPDrainRate:5.5
CircleSize:3.5
OverallDifficulty:6.5
ApproachRate:8
SliderMultiplier:1.45
SliderTickRate:1

[Events]
//Background and Video events
Video,0,"p.avi"
0,0,"changing point bg.jpg",0,0
//Break Periods
//Storyboard Layer 0 (Background)
//Storyboard Layer 1 (Fail)
//Storyboard Layer 2 (Pass)
//Storyboard Layer 3 (Foreground)
//Storyboard Sound Samples

[TimingPoints]
409,346.820809248555,3,2,0,50,1,0
3010,-153.846153846153,4,2,0,50,0,0
3183,346.820809248555,4,2,0,50,1,0
3183,-153.846153846153,4,2,0,50,0,0
5958,-133.333333333333,4,2,0,30,0,0
16536,-133.333333333333,4,2,0,60,0,0
17056,-100,4,2,0,50,0,0
28154,346.820809248555,7,2,0,50,1,0
28154,-100,4,2,0,50,0,0
38038,-100,4,2,0,40,0,0
38211,346.820809248555,4,2,0,40,1,0
43760,-100,4,2,0,50,0,0
49309,-90.9090909090909,4,2,0,70,0,1
82604,-133.333333333333,4,2,0,40,0,0
82647,319.148936170213,4,2,0,40,1,0
82966,357.142857142857,4,2,0,40,1,0
83323,326.086956521739,4,2,0,40,1,0
83649,375,4,2,0,40,1,0
84024,331.491712707182,4,2,0,40,1,0
84355,359.281437125748,4,2,0,40,1,0
84714,326.086956521739,4,2,0,40,1,0
85040,441.176470588235,4,2,0,40,1,0
85481,535.714285714286,4,2,0,40,1,0
86686,-100,4,2,0,5,0,0

[Colours]
Combo1 : 255,255,0
Combo2 : 128,0,0
Combo3 : 255,0,255
Combo4 : 0,255,0

[HitObjects]
44,121,409,6,0,P|114:143|149:84,1,145,4|4,1:0|3:0,0:0:0:0:
348,18,929,2,0,B|258:14|296:47|198:37,1,145,4|4,1:2|0:3,0:0:0:0:
358,119,1449,1,4,1:2:0:0:
358,119,1622,1,2,0:0:0:0:
351,22,1796,1,4,0:3:0:0:
409,205,1969,2,0,L|408:354,1,145,4|4,1:2|3:0,0:0:0:0:
273,384,2489,1,4,1:0:0:0:
273,384,2663,1,2,0:0:0:0:
408,349,2836,1,4,0:3:0:0:
323,225,3010,6,0,B|258:245|202:325|202:325|166:304|93:273|44:190|76:126|123:103|169:101|196:154|196:154|230:94|283:99|333:141|304:210,1,706.874967641832,4|0,1:0|0:0,0:0:0:0:
326,237,5784,2,0,L|368:235,1,23.5624989213944
387,199,5958,5,2,0:0:0:0:
426,268,6651,6,0,L|432:379,2,108.750004148483,0|2|0,0:0|0:0|3:0,0:0:0:0:
455,166,7518,1,0,0:0:0:0:
423,160,8039,2,0,B|338:154|368:211|267:191,1,163.125006222725,2|0,0:0|0:0,0:0:0:0:
176,142,8732,2,0,P|149:188|161:258,1,108.750004148483,2|0,0:0|0:0,0:0:0:0:
182,339,9252,1,2,0:0:0:0:
348,271,9946,5,2,0:0:0:0:
316,362,10119,2,0,B|375:351|369:377|444:362,1,108.750004148483,2|2,0:0|0:0,0:0:0:0:
510,361,10639,1,0,0:0:0:0:
429,209,10987,1,2,0:0:0:0:
348,271,11160,1,0,0:0:0:0:
252,240,11333,2,0,B|220:217|143:218|156:312|85:315|40:292,1,217.500008296967,2|0,0:0|0:0,0:0:0:0:
24,175,12547,5,2,0:0:0:0:
29,148,12894,1,2,3:2:0:0:
42,133,13241,1,0,0:0:0:0:
58,134,13588,1,2,0:0:0:0:
73,143,13935,1,2,0:0:0:0:
73,189,14281,2,0,P|77:245|121:298,1,108.750004148483,2|0,0:0|0:0,0:0:0:0:
202,282,14802,1,0,0:0:0:0:
202,282,14975,2,0,P|232:211|234:168,1,108.750004148483,2|2,0:0|3:2,0:0:0:0:
206,76,15669,2,0,P|230:133|232:199,1,108.750004148483,2|0,3:2|0:0,0:0:0:0:
125,40,16362,1,2,0:0:0:0:
111,66,16535,2,0,L|111:97,3,18.1250006914139,2|2|2|4,3:0|3:0|3:0|1:0,0:0:0:0:
68,257,17056,6,0,L|66:168,1,72.5,4|0,1:0|0:0,0:0:0:0:
157,57,17403,2,0,L|161:161,1,72.5,0|2,1:3|0:0,0:0:0:0:
68,257,17750,6,0,L|156:269,1,72.5,4|0,3:0|0:0,0:0:0:0:
268,280,18096,1,0,1:3:0:0:
268,280,18270,1,2,0:0:0:0:
94,305,18443,2,0,L|0:291,1,72.5,4|0,1:3|0:0,0:0:0:0:
26,144,18790,1,0,1:3:0:0:
26,144,18963,1,2,0:0:0:0:
139,266,19137,2,0,L|141:355,2,72.5,4|0|0,3:0|0:0|1:3,0:0:0:0:
214,164,19657,1,2,0:0:0:0:
283,352,19830,2,0,B|219:337|219:337|128:338,1,145,4|0,1:3|1:3,0:0:0:0:
9,339,20351,1,2,0:0:0:0:
145,246,20524,2,0,L|237:245,2,72.5,4|0|0,3:0|0:0|1:3,0:0:0:0:
65,164,21044,5,2,0:0:0:0:
234,195,21218,2,0,L|269:291,1,72.5,4|0,1:3|0:0,0:0:0:0:
156,120,21565,1,0,1:3:0:0:
237,196,21738,1,2,0:0:0:0:
171,345,21911,2,0,L|85:365,2,72.5,4|0|0,3:0|0:0|1:3,0:0:0:0:
319,346,22432,2,0,B|370:325|399:345|463:319,1,145,2|0,0:0|0:0,0:0:0:0:
388,220,22952,1,0,1:3:0:0:
318,346,23125,2,0,L|239:358,2,72.5,2|4|0,0:0|3:0|0:0,0:0:0:0:
238,232,23645,5,0,1:3:0:0:
87,361,23819,1,2,0:0:0:0:
87,361,23906,1,0,0:0:0:0:
87,361,23992,2,0,P|99:282|39:222,2,145,4|0|4,1:3|1:3|3:0,0:0:0:0:
115,165,25033,1,0,1:3:0:0:
48,36,25206,1,2,0:0:0:0:
48,36,25293,1,0,0:0:0:0:
48,36,25380,2,0,L|54:202,1,145,4|0,1:3|1:3,0:0:0:0:
189,292,25900,2,0,L|177:121,1,145,2|0,0:0|0:0,0:0:0:0:
264,60,26420,1,0,1:3:0:0:
189,292,26593,2,0,B|124:275|115:317|32:304,1,145,2|2,0:0|3:2,0:0:0:0:
189,292,27114,5,4,1:3:0:0:
291,346,27287,1,2,0:0:0:0:
381,287,27461,1,4,3:0:0:0:
377,147,27634,1,2,0:0:0:0:
224,148,27807,1,0,1:3:0:0:
278,324,27981,1,2,3:2:0:0:
278,324,28067,1,0,0:0:0:0:
244,318,28154,6,0,L|146:299,1,72.5,4|0,1:0|0:0,0:0:0:0:
48,370,28500,1,4,0:3:0:0:
49,199,28674,2,0,L|48:305,1,72.5,2|4,1:2|0:3,0:0:0:0:
182,114,29194,2,0,L|261:109,1,72.5,2|0,1:2|0:0,0:0:0:0:
317,2,29541,1,4,0:3:0:0:
436,118,29714,2,0,P|401:121|353:214,1,145,2|2,1:2|0:0,0:0:0:0:
436,118,30234,1,4,0:3:0:0:
369,18,30408,1,2,0:0:0:0:
351,207,30581,6,0,P|283:229|260:237,1,72.5,4|0,1:0|0:0,0:0:0:0:
124,219,30928,1,4,0:3:0:0:
285,331,31101,2,0,P|247:305|299:228,1,145,2|0,1:2|0:0,0:0:0:0:
124,219,31622,1,2,1:2:0:0:
390,208,31969,1,4,0:3:0:0:
285,331,32142,2,0,B|235:333|205:306|205:306|179:331|133:329,1,145,2|2,1:2|0:0,0:0:0:0:
49,312,32662,1,4,0:3:0:0:
151,328,32836,1,2,0:0:0:0:
63,179,33009,6,0,B|39:155|35:151|24:139|24:139|14:57,1,72.5,4|0,1:2|0:0,0:0:0:0:
201,52,33356,1,4,0:3:0:0:
63,179,33529,2,0,L|-22:183,1,72.5,2|4,1:2|0:3,0:0:0:0:
265,222,34049,2,0,L|186:216,1,72.5,2|0,1:2|0:0,0:0:0:0:
331,163,34396,1,4,0:3:0:0:
199,308,34570,2,0,B|119:294|128:326|41:309,1,145,2|2,1:2|0:0,0:0:0:0:
281,362,35090,1,4,1:3:0:0:
199,308,35263,1,2,0:0:0:0:
331,163,35437,6,0,L|301:242,1,72.5,0|0,1:0|0:0,0:0:0:0:
255,101,35784,1,4,0:3:0:0:
311,302,35957,2,0,L|303:211,1,72.5,2|4,1:2|0:3,0:0:0:0:
403,384,36477,1,2,1:2:0:0:
245,308,36824,1,2,3:2:0:0:
78,345,36997,2,0,L|60:298,4,36.25,2|2|2|2|2,0:2|0:2|0:2|0:2|0:2,0:0:0:0:
49,265,37518,5,2,0:2:0:0:
132,194,37691,1,2,0:2:0:0:
213,131,37864,1,2,0:2:0:0:
341,97,38038,6,0,P|247:152|210:180,1,145,4|4,1:0|0:3,0:0:0:0:
327,222,38557,1,0,1:0:0:0:
93,280,38904,2,0,L|95:194,1,72.5,4|2,0:3|0:0,0:0:0:0:
18,362,39251,1,0,1:0:0:0:
93,280,39424,5,2,0:0:0:0:
275,280,39598,2,0,L|117:249,2,145,4|0|0,1:3|1:0|1:0,0:0:0:0:
86,139,40638,1,4,3:0:0:0:
222,42,40812,1,2,3:2:0:0:
222,42,40898,1,0,0:0:0:0:
222,42,40985,2,0,B|203:102|242:119|225:188,1,145,4|0,1:0|1:3,0:0:0:0:
143,339,41505,1,2,3:2:0:0:
319,299,41679,2,0,L|232:290,2,72.5,4|0|2,0:3|0:0|1:2,0:0:0:0:
481,344,42199,5,2,0:0:0:0:
476,214,42372,2,0,L|466:310,1,72.5,4|0,0:3|0:0,0:0:0:0:
433,100,42719,2,0,L|411:174,1,72.5,0|2,1:0|3:2,0:0:0:0:
352,44,43066,1,4,0:3:0:0:
433,100,43239,1,0,0:0:0:0:
236,120,43413,2,0,L|145:102,1,72.5,0|2,1:0|3:2,0:0:0:0:
144,102,43673,1,0,0:0:0:0:
99,86,43760,6,0,L|81:178,1,72.5,4|2,1:0|3:0,0:0:0:0:
144,292,44106,2,0,L|160:209,2,72.5,0|0|4,1:0|3:0|0:3,0:0:0:0:
265,188,44627,1,0,3:0:0:0:
157,220,44800,1,4,1:2:0:0:
392,289,45147,2,0,L|321:272,1,72.5,4|0,1:0|3:0,0:0:0:0:
440,210,45494,1,0,1:0:0:0:
315,349,45667,2,0,L|326:271,1,72.5,2|4,3:2|0:3,0:0:0:0:
223,384,46014,1,2,3:2:0:0:
315,349,46187,1,0,1:0:0:0:
141,348,46361,2,0,L|55:353,1,72.5,2|4,3:2|1:0,0:0:0:0:
17,173,46708,5,2,3:2:0:0:
17,173,46881,2,0,L|27:257,1,72.5,2|2,1:2|3:2,0:0:0:0:
74,55,47228,2,0,L|79:117,3,36.25,4|0|2|0,3:0|3:0|3:2|3:0,0:0:0:0:
187,40,47575,1,0,1:0:0:0:
188,75,47661,1,0,0:0:0:0:
191,118,47748,5,4,1:0:0:0:
378,82,48095,5,2,1:2:0:0:
191,118,48268,1,2,1:2:0:0:
426,74,48442,1,2,3:2:0:0:
320,197,48615,5,2,0:0:0:0:
320,197,48962,1,2,0:0:0:0:
191,118,49309,6,0,L|181:279,1,159.500004867554,4|0,1:0|1:0,0:0:0:0:
100,178,49829,2,0,L|77:156|72:150|74:79,1,79.7500024337769,2|4,0:0|0:3,0:0:0:0:
221,52,50176,1,2,0:0:0:0:
100,178,50349,2,0,L|-9:178,1,79.7500024337769,0|2,1:0|3:0,0:0:0:0:
117,281,50696,2,0,B|149:313|149:313|261:313,1,119.625003650665,4|0,1:3|0:0,0:0:0:0:
352,319,51043,2,0,L|347:225,1,79.7500024337769,0|2,1:0|3:2,0:0:0:0:
443,126,51390,2,0,L|437:207,1,79.7500024337769,4|0,0:3|0:0,0:0:0:0:
387,23,51737,1,0,1:0:0:0:
482,125,51910,1,0,0:0:0:0:
268,23,52083,6,0,L|144:43,1,119.625003650665,4|0,1:0|0:0,0:0:0:0:
15,32,52430,1,0,1:0:0:0:
164,120,52604,2,0,L|171:226,1,79.7500024337769,2|4,0:0|0:3,0:0:0:0:
73,204,52950,1,2,0:0:0:0:
251,266,53124,2,0,L|246:182,1,79.7500024337769,0|2,1:0|3:0,0:0:0:0:
325,350,53471,2,0,P|263:323|173:368,1,159.500004867554,4|0,1:3|1:0,0:0:0:0:
354,249,53991,1,2,3:2:0:0:
354,249,54078,1,0,0:0:0:0:
354,249,54164,1,4,0:3:0:0:
325,350,54338,1,0,0:0:0:0:
435,196,54511,2,0,L|435:296,1,79.7500024337769,0|0,1:0|0:0,0:0:0:0:
502,111,54858,2,0,B|461:147|461:147|381:147,1,119.625003650665,4|0,1:0|0:0,0:0:0:0:
279,75,55205,2,0,L|368:74,1,79.7500024337769,0|2,1:0|0:0,0:0:0:0:
169,95,55552,6,0,P|177:148|141:228,1,119.625003650665,4|0,0:3|0:0,0:0:0:0:
44,286,55898,2,0,L|46:188,1,79.7500024337769,0|2,1:0|3:0,0:0:0:0:
93,61,56245,2,0,L|179:52,1,79.7500024337769,4|0,1:3|0:0,0:0:0:0:
297,6,56592,1,0,1:0:0:0:
172,52,56765,1,2,3:2:0:0:
310,153,56939,2,0,P|253:163|221:258,1,159.500004867554,4|0,0:3|1:0,0:0:0:0:
343,282,57459,1,0,0:0:0:0:
310,153,57632,6,0,B|301:97|301:97|308:32,1,119.625003650665,4|0,1:0|0:0,0:0:0:0:
181,63,57979,1,4,1:3:0:0:
401,23,58153,1,4,1:2:0:0:
271,272,58500,1,4,1:0:0:0:
271,272,58586,1,0,0:0:0:0:
271,272,58673,1,4,0:3:0:0:
309,152,58846,2,0,L|230:166,1,79.7500024337769,4|0,1:2|0:0,0:0:0:0:
390,95,59193,1,4,3:3:0:0:
230,165,59367,2,0,L|226:80,1,79.7500024337769,4|4,1:3|3:0,0:0:0:0:
136,193,59713,2,0,L|138:259,3,39.8750012168885,4|0|4|0,3:0|3:0|3:0|3:0,0:0:0:0:
60,157,60060,5,4,1:3:0:0:
61,197,60147,1,0,3:0:0:0:
62,237,60234,1,4,3:0:0:0:
169,360,60407,2,0,P|111:352|21:357,1,119.625003650665,4|0,1:0|0:0,0:0:0:0:
136,193,60754,1,0,1:0:0:0:
280,288,60927,2,0,L|174:289,1,79.7500024337769,2|4,0:0|0:3,0:0:0:0:
307,216,61274,1,2,0:0:0:0:
422,111,61447,6,0,L|418:228,1,79.7500024337769,0|2,1:0|3:0,0:0:0:0:
340,41,61794,2,0,L|336:191,1,119.625003650665,4|0,1:3|0:0,0:0:0:0:
269,295,62141,2,0,L|272:206,1,79.7500024337769,0|2,1:0|3:2,0:0:0:0:
205,51,62488,2,0,L|201:139,1,79.7500024337769,4|0,0:3|0:0,0:0:0:0:
98,36,62835,1,0,1:0:0:0:
205,51,63008,1,2,0:0:0:0:
59,217,63182,2,0,L|183:200,1,119.625003650665,4|0,1:0|0:0,0:0:0:0:
297,120,63528,1,0,1:0:0:0:
194,255,63702,2,0,P|120:233|45:276,1,159.500004867554,2|2,0:0|0:0,0:0:0:0:
231,363,64222,5,0,1:0:0:0:
194,255,64395,1,2,3:0:0:0:
330,241,64569,2,0,L|198:242,1,119.625003650665,4|0,1:3|0:0,0:0:0:0:
112,156,64916,2,0,L|207:154,1,79.7500024337769,0|2,1:0|3:2,0:0:0:0:
329,43,65263,2,0,L|219:47,1,79.7500024337769,4|0,0:3|0:0,0:0:0:0:
110,21,65609,1,0,1:0:0:0:
121,163,65783,5,0,0:0:0:0:
121,163,65869,1,0,0:0:0:0:
121,163,65956,2,0,P|140:249|92:320,1,159.500004867554,4|0,1:0|1:0,0:0:0:0:
4,142,66476,2,0,B|72:142|72:142|139:124,1,119.625003650665,2|0,0:0|0:0,0:0:0:0:
197,58,66823,1,2,0:0:0:0:
344,104,66997,1,0,1:0:0:0:
344,104,67170,1,2,3:0:0:0:
237,206,67343,2,0,B|206:190|184:195|172:209|155:213|117:206,1,119.625003650665,4|0,1:3|0:0,0:0:0:0:
237,206,67690,6,0,P|207:105|239:86,1,159.500004867554,0|4,1:0|0:3,0:0:0:0:
344,104,68211,1,2,0:0:0:0:
234,87,68384,1,0,1:0:0:0:
344,104,68557,1,2,3:0:0:0:
458,140,68731,2,0,L|357:133,1,79.7500024337769,4|2,1:0|3:2,0:0:0:0:
286,216,69078,2,0,L|380:223,1,79.7500024337769,2|2,1:2|0:0,0:0:0:0:
215,284,69424,2,0,L|133:280,1,79.7500024337769,4|2,1:3|0:0,0:0:0:0:
18,192,69771,5,0,1:0:0:0:
147,292,69945,1,2,3:0:0:0:
147,292,70031,1,0,3:0:0:0:
147,292,70118,2,0,L|137:159,1,119.625003650665,4|0,1:3|3:0,0:0:0:0:
103,50,70465,2,0,L|161:48,3,39.8750012168885,4|0|0|0,1:3|0:0|3:0|3:0,0:0:0:0:
180,59,70812,2,0,L|218:90,3,39.8750012168885,4|0|2|2,1:3|0:0|0:0|0:0,0:0:0:0:
249,94,71158,1,2,1:2:0:0:
288,101,71245,1,2,0:0:0:0:
327,93,71332,1,2,3:0:0:0:
361,69,71419,1,2,0:0:0:0:
392,42,71505,6,0,L|439:139,1,79.7500024337769,4|2,1:0|3:2,0:0:0:0:
462,253,71852,2,0,L|478:161,1,79.7500024337769,0|2,1:0|0:0,0:0:0:0:
364,248,72199,2,0,L|380:356,1,79.7500024337769,4|2,0:3|0:0,0:0:0:0:
263,258,72546,2,0,L|247:178,1,79.7500024337769,0|0,1:0|3:0,0:0:0:0:
122,121,72893,2,0,L|300:87,2,159.500004867554,4|0|4,1:3|1:0|0:3,0:0:0:0:
149,22,73760,5,2,0:0:0:0:
48,180,73933,1,0,1:0:0:0:
122,121,74106,1,2,3:0:0:0:
201,228,74280,2,0,L|44:179,1,159.500004867554,4|0,1:0|1:0,0:0:0:0:
111,241,74800,1,0,3:0:0:0:
252,323,74974,2,0,L|156:297,1,79.7500024337769,4|0,0:3|3:0,0:0:0:0:
330,237,75320,6,0,L|346:370,1,119.625003650665,0|0,1:0|0:0,0:0:0:0:
415,237,75667,2,0,B|395:148|440:158|411:52,1,159.500004867554,0|4,1:0|0:3,0:0:0:0:
512,118,76187,1,2,0:0:0:0:
331,44,76361,2,0,B|307:20|303:16|257:-1|244:45|171:-5,1,119.625003650665,0|0,1:0|0:0,0:0:0:0:
124,41,76708,1,4,1:3:0:0:
331,44,76881,2,0,L|301:157,1,79.7500024337769,0|0,3:0|1:0,0:0:0:0:
415,240,77228,1,0,3:0:0:0:
245,182,77401,2,0,L|158:191,2,79.7500024337769,4|0|0,0:3|3:0|1:0,0:0:0:0:
415,240,77921,6,0,L|427:319,1,79.7500024337769,2|4,3:2|0:3,0:0:0:0:
319,197,78268,2,0,P|342:108|323:26,1,159.500004867554,2|0,3:0|3:0,0:0:0:0:
119,47,78789,2,0,L|255:51,1,119.625003650665,4|0,0:3|0:0,0:0:0:0:
98,138,79135,2,0,P|140:82|89:37,1,119.625003650665,0|0,1:0|0:0,0:0:0:0:
15,189,79482,1,4,0:3:0:0:
98,138,79656,1,2,3:0:0:0:
118,46,79829,1,0,1:0:0:0:
175,234,80002,6,0,L|178:331,1,79.7500024337769,0|0,1:3|0:0,0:0:0:0:
81,243,80349,1,0,1:0:0:0:
268,122,80523,2,0,L|267:224,1,79.7500024337769,4|0,1:0|0:0,0:0:0:0:
360,103,80869,1,4,0:3:0:0:
267,201,81043,2,0,L|167:202,1,79.7500024337769,4|0,1:0|1:0,0:0:0:0:
63,135,81390,1,4,1:3:0:0:
102,284,81563,2,0,L|191:283,1,79.7500024337769,4|0,1:2|1:0,0:0:0:0:
246,378,81910,2,0,L|313:378,3,39.8750012168885,4|0|0|0,1:3|1:0|1:0|1:0,0:0:0:0:
325,371,82257,1,4,1:3:0:0:
352,343,82343,1,0,1:0:0:0:
361,304,82430,1,0,1:0:0:0:
356,263,82517,2,0,P|346:227|336:211,1,39.8750012168885,2|2,0:0|0:0,0:0:0:0:
333,208,82647,5,2,0:0:0:0:
200,113,82966,1,2,0:0:0:0:
89,216,83263,2,0,L|108:216,2,12.0833333333333,2|0|2,0:0|0:0|0:0,0:0:0:0:
214,307,83649,1,2,0:0:0:0:
200,113,84024,5,2,0:0:0:0:
89,216,84355,1,2,0:0:0:0:
232,246,84714,1,2,0:0:0:0:
91,115,85040,1,2,0:0:0:0:
232,246,85407,2,0,L|216:230,2,12.0833333333333,2|0|2,0:0|0:0|0:0,0:0:0:0:
232,246,86463,6,0,L|222:238,2,12.0833333333333,2|2|2,0:0|0:0|0:0,0:0:0:0:
256,192,86686,12,0,88293,0:0:0:0:
