osu file format v14

[General]
AudioFilename: audio.mp3
AudioLeadIn: 0
PreviewTime: 5958
Countdown: 0
SampleSet: Soft
StackLeniency: 0.8
Mode: 0
LetterboxInBreaks: 0
WidescreenStoryboard: 0

[Editor]
Bookmarks: 47644
DistanceSpacing: 0.1
BeatDivisor: 8
GridSize: 8
TimelineZoom: 1.699999

[Metadata]
Title:Changing Point (TV Size)
TitleUnicode:Changing Point (TV Size)
Artist:i*Ris
ArtistUnicode:i☆Ris
Creator:DendyHere
Version:Insane
Source:魔法少女サイト
Tags:opening op djulus hocok mahou shoujo magical girl
BeatmapID:1612691
BeatmapSetID:767253

[Difficulty]
HPDrainRate:5.5
CircleSize:4.5
OverallDifficulty:8
ApproachRate:9
SliderMultiplier:1.6
SliderTickRate:1

[Events]
//Background and Video events
0,0,"914289.jpg",0,0
//Break Periods
//Storyboard Layer 0 (Background)
//Storyboard Layer 1 (Fail)
//Storyboard Layer 2 (Pass)
//Storyboard Layer 3 (Foreground)
//Storyboard Sound Samples

[TimingPoints]
409,346.820809248555,4,2,1,65,1,0
3009,-333.333333333333,4,2,1,85,0,0
3183,346.820809248555,4,2,0,50,1,0
3355,-333.333333333333,4,2,1,75,0,0
3702,-333.333333333333,4,2,1,65,0,0
4049,-333.333333333333,4,2,1,55,0,0
4396,-333.333333333333,4,2,1,45,0,0
4743,-333.333333333333,4,2,1,35,0,0
5090,-333.333333333333,4,2,1,25,0,0
5436,-333.333333333333,4,2,1,15,0,0
5783,-333.333333333333,4,2,1,10,0,0
5958,-100,4,2,1,65,0,0
6130,-100,4,2,0,65,0,0
6650,-200,4,2,0,45,0,0
8731,-100,4,2,1,45,0,0
8818,-100,4,2,0,45,0,0
9251,-142.857142857143,4,2,0,45,0,0
10118,-125,4,2,0,45,0,0
11507,-100,4,2,1,45,0,0
11593,-100,4,2,0,45,0,0
12027,-125,4,2,0,45,0,0
14280,-166.666666666667,4,2,1,45,0,0
14367,-166.666666666667,4,2,0,45,0,0
16362,-166.666666666667,4,2,0,45,0,0
16708,-333.333333333334,4,2,1,65,0,0
17055,-83.3333333333334,4,2,1,55,0,0
17402,-100,4,2,1,55,0,0
28153,-100,4,2,1,55,0,0
28154,346.820809248555,7,2,0,55,1,0
28154,-100,4,2,1,55,0,0
37518,-100,4,2,1,30,0,0
37605,-100,4,2,1,32,0,0
37692,-100,4,2,1,34,0,0
37778,-100,4,2,1,36,0,0
37865,-100,4,2,1,38,0,0
38038,-83.3333333333333,4,2,1,50,0,0
38211,346.820809248555,4,2,1,50,1,0
38904,-100,4,2,1,50,0,0
40638,-181.818181818182,4,2,1,50,0,0
40985,-100,4,2,1,50,0,0
43760,-76.9230769230769,4,2,1,60,0,0
48615,-125,4,2,1,30,0,0
48962,-76.9230769230769,4,2,1,40,0,0
49309,-80,4,2,1,75,0,1
54511,-133.333333333333,4,2,1,75,0,1
54858,-68.9655172413793,4,2,1,75,0,1
55205,-80,4,2,1,75,0,1
57632,-153.846153846154,4,2,1,75,0,1
57979,-76.9230769230769,4,2,1,75,0,1
58500,-100,4,2,1,75,0,1
58846,-68.9655172413793,4,2,1,75,0,1
59713,-100,4,2,1,75,0,1
60060,-166.666666666667,4,2,1,75,0,1
60407,-68.9655172413793,4,2,1,75,0,1
60754,-80,4,2,1,75,0,1
67690,-133.333333333333,4,2,1,75,0,1
68211,-68.9655172413793,4,2,1,75,0,1
68557,-166.666666666667,4,2,1,75,0,1
68731,-71.4285714285714,4,2,1,75,0,1
69078,-80,4,2,1,75,0,1
70118,-76.9230769230769,4,2,1,75,0,1
70465,-71.4285714285714,4,2,1,75,0,1
70812,-66.6666666666667,4,2,1,75,0,1
71158,-62.5,4,2,1,75,0,1
71505,-68.9655172413793,4,2,1,60,0,0
71852,-83.3333333333333,4,2,1,60,0,0
80002,-71.4285714285714,4,2,1,60,0,0
81216,-83.3333333333333,4,2,1,60,0,0
81563,-76.9230769230769,4,2,1,60,0,0
81910,-71.4285714285714,4,2,1,60,0,0
82257,-66.6666666666667,4,2,1,60,0,0
82604,-133.333333333333,4,2,1,30,0,0
82647,319.148936170213,4,2,0,40,1,0
82966,357.142857142857,4,2,0,40,1,0
83323,326.086956521739,4,2,1,40,1,0
83649,375,4,2,0,40,1,0
84024,331.491712707182,4,2,1,40,1,0
84355,359.281437125748,4,2,0,40,1,0
84714,326.086956521739,4,2,1,40,1,0
85040,441.176470588235,4,2,0,40,1,0
85481,535.714285714286,4,2,1,40,1,0
86421,-76.9230769230769,4,2,1,30,0,0

[Colours]
Combo1 : 255,85,85
Combo2 : 196,0,98
Combo3 : 255,255,255

[HitObjects]
156,121,409,6,0,P|185:95|241:100,1,80,4|0,0:0|0:0,0:0:0:0:
180,201,755,1,0,3:0:0:0:
235,21,929,2,0,P|269:34|275:145,1,160,4|0,0:0|3:0,0:0:0:0:
178,357,1449,6,0,P|160:323|168:270,1,80,4|0,0:0|0:0,0:0:0:0:
266,355,1796,1,0,3:0:0:0:
95,252,1969,2,0,P|154:209|234:267,1,160,4|0,0:0|3:0,0:0:0:0:
445,175,2489,6,0,P|404:185|362:166,1,80,4|0,0:0|0:0,0:0:0:0:
413,96,2836,1,0,3:0:0:0:
401,271,3010,6,0,B|435:336|395:412|294:415|208:364|195:283|302:188|380:288|348:337|317:353,1,407.999987548828,12|2,0:0|0:0,0:0:0:0:
161,298,6304,5,2,0:0:0:0:
206,229,6478,1,2,0:0:0:0:
80,296,6651,2,2,P|67:259|73:215,1,80
104,156,7172,1,2,0:0:0:0:
196,75,7345,2,2,P|215:83|278:73,1,80
382,7,8039,2,2,L|369:92,1,80
247,187,8732,6,2,P|266:176|332:175,1,80
393,211,9079,1,2,0:0:0:0:
445,340,9252,2,2,B|400:369|348:350|372:327|321:306|276:325,1,167.999994873047
225,374,9946,1,2,0:0:0:0:
155,251,10119,6,2,P|171:287|159:334,1,64,2|2,0:0|0:0,0:0:0:0:
91,299,10466,1,2,0:0:0:0:
214,198,10640,2,2,P|198:162|210:115,1,64,2|2,0:0|0:0,0:0:0:0:
238,72,10987,1,2,0:0:0:0:
310,52,11160,1,2,0:0:0:0:
394,155,11507,6,2,L|384:248,1,80,2|2,0:0|0:0,0:0:0:0:
368,312,11854,1,2,0:0:0:0:
304,169,12027,2,2,L|167:184,1,128,2|2,0:0|0:0,0:0:0:0:
90,85,12547,6,2,P|104:112|97:163,1,64
176,182,12894,2,2,P|159:207|111:227,1,64,2|2,0:0|0:0,0:0:0:0:
133,304,13241,2,2,P|102:301|61:270,1,64,2|2,0:0|0:0,0:0:0:0:
205,271,13588,2,2,P|232:255|264:252,1,64,2|2,0:0|0:0,0:0:0:0:
292,177,13935,2,2,P|319:192|337:218,1,64,2|2,0:0|0:0,0:0:0:0:
325,320,14281,6,2,P|367:319|434:236,1,143.999995605469,2|2,0:0|0:0,0:0:0:0:
356,61,14975,2,2,B|337:130|386:136|364:210,1,143.999995605469
206,184,15669,2,2,P|269:220|263:132,1,191.999994140625
130,81,16536,5,0,2:0:0:0:
109,78,16593,1,0,0:0:0:0:
88,82,16651,1,0,0:0:0:0:
74,91,16709,2,0,L|80:133,1,35.9999989013672,8|0,2:0|0:0,0:0:0:0:
124,196,17056,6,0,B|88:256|105:322|105:322|122:288|158:280,1,191.999994140625,4|8,3:2|0:0,0:0:0:0:
173,358,17576,1,0,0:0:0:0:
202,223,17750,2,0,P|224:256|224:304,1,80,0|0,3:0|0:0,0:0:0:0:
306,375,18096,2,0,P|308:335|330:302,1,80,8|0,0:0|0:0,0:0:0:0:
485,270,18443,6,0,P|451:275|383:247,1,80,0|0,3:0|0:0,0:0:0:0:
365,179,18790,2,0,P|343:152|333:79,1,80,8|0,0:0|0:0,0:0:0:0:
222,11,19137,6,0,P|227:45|199:113,1,80,0|0,3:0|0:0,0:0:0:0:
148,166,19484,2,0,P|143:200|171:268,1,80,8|0,0:0|0:0,0:0:0:0:
261,316,19830,5,2,3:2:0:0:
170,334,20004,1,2,0:0:0:0:
249,227,20177,1,8,0:0:0:0:
261,236,20351,1,2,0:0:0:0:
182,343,20525,1,2,3:2:0:0:
273,325,20698,1,2,0:0:0:0:
170,254,20871,2,0,P|167:209|188:167,1,80,8|0,0:0|0:0,0:0:0:0:
327,115,21218,6,0,P|289:140|242:142,1,80,0|0,3:0|0:0,0:0:0:0:
115,129,21565,1,8,0:0:0:0:
198,96,21738,2,0,P|232:109|257:159,1,80,0|0,0:0|3:0,0:0:0:0:
236,355,22085,1,0,0:0:0:0:
246,251,22258,1,8,0:0:0:0:
255,142,22432,1,0,0:0:0:0:
256,122,22518,1,0,0:0:0:0:
257,101,22605,5,2,3:2:0:0:
245,265,22778,1,2,0:0:0:0:
156,190,22952,1,8,0:0:0:0:
345,206,23125,1,2,0:0:0:0:
245,277,23299,1,2,3:2:0:0:
156,190,23472,1,2,0:0:0:0:
361,207,23645,6,0,L|454:216,1,80,8|0,0:0|0:0,0:0:0:0:
456,360,23992,2,0,P|476:317|465:270,1,80,0|0,3:0|0:0,0:0:0:0:
416,136,24339,2,0,P|413:96|432:61,1,80,8|0,0:0|0:0,0:0:0:0:
280,104,24686,2,0,P|184:88|192:64,1,160,0|8,3:0|0:0,0:0:0:0:
128,8,25206,1,0,0:0:0:0:
108,168,25380,6,0,P|91:135|86:72,1,80,2|2,3:2|0:0,0:0:0:0:
177,220,25726,2,0,P|171:259|153:295,1,80,8|2,0:0|0:0,0:0:0:0:
233,350,26073,2,0,L|312:339,1,80,2|2,3:2|0:0,0:0:0:0:
471,289,26420,2,0,L|391:278,1,80,8|0,0:0|0:0,0:0:0:0:
309,121,26767,5,0,3:0:0:0:
309,121,26940,1,0,0:0:0:0:
321,216,27114,1,8,0:0:0:0:
400,162,27287,1,0,0:0:0:0:
389,66,27461,5,0,3:0:0:0:
315,227,27634,1,0,0:0:0:0:
472,208,27807,1,8,0:0:0:0:
304,32,27981,1,0,0:0:0:0:
69,202,28154,6,0,P|130:216|186:161,1,120,4|0,3:2|0:0,0:0:0:0:
179,108,28500,2,0,P|171:69|184:32,2,80,0|0|0,3:0|0:0|3:0,0:0:0:0:
199,261,29195,2,0,P|156:264|112:235,1,80,0|0,3:0|0:0,0:0:0:0:
274,225,29541,2,0,P|317:222|361:251,1,80,0|0,3:0|0:0,0:0:0:0:
366,329,29888,5,2,3:2:0:0:
349,238,30062,1,2,0:0:0:0:
405,170,30235,1,2,3:2:0:0:
390,86,30409,1,2,0:0:0:0:
133,55,30582,6,0,P|175:56|195:133,1,120,0|0,3:0|0:0,0:0:0:0:
166,188,30929,2,0,P|198:165|256:174,2,80,0|0|0,3:0|0:0|3:0,0:0:0:0:
215,241,31449,1,0,0:0:0:0:
289,111,31622,2,0,P|307:144|300:194,1,80,0|0,3:0|0:0,0:0:0:0:
369,328,31969,2,0,P|351:295|358:245,1,80,0|0,3:0|0:0,0:0:0:0:
439,278,32316,5,2,3:2:0:0:
353,253,32489,1,2,0:0:0:0:
285,308,32663,1,2,3:2:0:0:
199,283,32836,1,2,0:0:0:0:
103,205,33010,6,0,P|119:246|81:323,1,120,0|0,3:0|0:0,0:0:0:0:
41,255,33356,2,0,P|26:215|39:162,2,80,0|0|0,3:0|0:0|3:0,0:0:0:0:
103,205,33877,1,0,0:0:0:0:
3,112,34050,2,0,P|40:105|92:139,1,80,0|0,3:0|0:0,0:0:0:0:
236,132,34397,2,0,P|200:148|161:141,1,80,0|0,3:0|0:0,0:0:0:0:
193,61,34744,5,2,3:2:0:0:
161,141,34917,1,2,0:0:0:0:
236,132,35091,1,2,3:2:0:0:
120,80,35264,1,2,0:0:0:0:
206,205,35437,6,0,P|248:210|311:158,1,120,0|0,3:0|0:0,0:0:0:0:
357,107,35784,2,0,P|385:156|371:202,2,80,0|0|0,3:0|0:0|3:0,0:0:0:0:
236,132,36304,1,0,0:0:0:0:
380,255,36478,2,0,P|426:246|455:196,1,80,0|0,3:0|0:0,0:0:0:0:
362,68,36825,5,2,0:0:0:0:
367,95,36911,1,0,0:0:0:0:
372,122,36998,1,0,0:0:0:0:
377,150,37085,1,0,0:0:0:0:
383,177,37172,5,2,0:0:0:0:
361,166,37258,1,0,0:0:0:0:
336,166,37345,1,0,0:0:0:0:
313,173,37432,1,0,0:0:0:0:
279,196,37518,5,2,0:0:0:0:
263,198,37604,1,0,0:0:0:0:
247,195,37691,1,2,0:0:0:0:
233,186,37778,1,0,0:0:0:0:
225,172,37865,1,2,0:0:0:0:
112,27,38038,6,0,B|81:71|81:71|95:193,1,143.999995605469,12|0,0:0|0:0,0:0:0:0:
104,235,38384,1,0,3:0:0:0:
165,93,38557,2,0,P|193:83|259:94,1,80,0|0,3:0|0:0,0:0:0:0:
309,218,38904,2,0,P|299:197|310:134,1,80,0|0,3:0|0:0,0:0:0:0:
392,64,39251,1,0,3:0:0:0:
362,299,39424,1,0,0:0:0:0:
309,218,39598,6,0,P|254:213|221:233,1,80,0|0,3:0|0:0,0:0:0:0:
154,365,39945,2,0,P|185:319|185:281,1,80,0|0,3:0|0:0,0:0:0:0:
104,157,40291,2,0,P|127:207|160:225,1,80,0|0,3:0|0:0,0:0:0:0:
281,49,40638,2,0,B|252:48|252:48|231:40|231:40|201:39,1,66.0000020141602,0|0,3:0|0:0,0:0:0:0:
182,110,40985,6,0,B|215:110|215:110|242:120|242:120|289:120,1,80,0|0,3:0|0:0,0:0:0:0:
403,70,41332,2,0,P|415:107|398:162,1,80,0|0,3:0|0:0,0:0:0:0:
435,258,41679,2,0,P|409:287|352:299,1,80,0|0,3:0|0:0,0:0:0:0:
136,251,42026,1,0,3:0:0:0:
360,214,42199,1,0,0:0:0:0:
297,269,42372,6,0,P|290:303|317:362,1,80,0|0,3:0|0:0,0:0:0:0:
360,214,42719,2,0,P|367:180|340:121,1,80,0|0,3:0|0:0,0:0:0:0:
199,68,43066,2,0,P|225:97|262:111,1,80,0|0,3:0|0:0,0:0:0:0:
405,1,43413,2,0,P|366:8|335:34,1,80,0|0,3:0|0:0,0:0:0:0:
424,206,43760,5,8,0:0:0:0:
319,297,43933,1,0,0:0:0:0:
182,258,44106,1,0,3:0:0:0:
75,339,44280,2,0,B|138:392|203:327|203:327|168:337|136:315,1,207.999990478516,4|0,0:0|0:0,0:0:0:0:
138,126,44800,2,0,P|191:192|177:268,1,155.999992858887,0|0,3:0|0:0,0:0:0:0:
101,213,45147,6,0,L|-7:189,1,103.999995239258,12|0,0:0|0:0,0:0:0:0:
95,41,45494,1,0,3:0:0:0:
250,111,45667,2,0,P|289:123|403:68,1,155.999992858887,4|0,0:0|0:0,0:0:0:0:
453,0,46014,1,0,0:0:0:0:
496,92,46187,1,0,3:0:0:0:
436,173,46361,1,0,0:0:0:0:
316,254,46534,6,0,P|313:228|320:203,3,51.999997619629,8|0|0|0,0:0|0:0|0:0|0:0,0:0:0:0:
232,311,46881,2,0,P|238:335|236:361,3,51.999997619629,8|0|0|0,0:0|0:0|0:0|0:0,0:0:0:0:
131,277,47228,2,0,P|128:251|135:226,3,51.999997619629,8|0|0|0,0:0|0:0|0:0|0:0,0:0:0:0:
238,176,47575,1,8,0:0:0:0:
16,190,47748,1,4,0:0:0:0:
16,190,48095,5,0,3:0:0:0:
131,277,48268,1,0,3:0:0:0:
120,85,48442,1,0,3:0:0:0:
120,85,48615,6,0,P|165:62|226:84,1,96,0|0,1:0|0:0,0:0:0:0:
270,134,48962,2,0,P|332:158|392:100,1,155.999992858887,0|0,1:0|0:0,0:0:0:0:
379,3,49309,6,0,L|392:112,1,100,4|0,3:2|0:0,0:0:0:0:
413,271,49656,1,8,0:0:0:0:
401,181,49829,2,0,P|336:230|356:338,1,200
243,324,50349,2,0,B|191:334|191:334|126:303,1,100,8|0,0:0|0:0,0:0:0:0:
49,92,50696,6,0,P|65:122|66:194,1,100,0|0,3:0|0:0,0:0:0:0:
149,314,51043,2,0,P|147:264|168:219,1,100,8|0,0:0|0:0,0:0:0:0:
243,49,51390,2,0,P|194:58|146:46,1,100,0|0,3:0|0:0,0:0:0:0:
353,158,51737,2,0,P|401:148|449:160,1,100,8|0,0:0|0:0,0:0:0:0:
357,297,52083,6,0,P|372:238|426:316,1,200,0|8,3:0|0:0,0:0:0:0:
393,370,52604,1,0,0:0:0:0:
273,266,52777,2,0,L|165:282,1,100,0|0,3:0|0:0,0:0:0:0:
110,339,53124,2,0,P|90:296|101:237,1,100,8|0,0:0|0:0,0:0:0:0:
159,89,53471,6,0,P|87:78|90:51,1,100,0|0,3:0|0:0,0:0:0:0:
272,37,53817,2,0,P|344:48|341:75,1,100,8|0,0:0|0:0,0:0:0:0:
492,163,54164,2,0,P|420:152|423:125,1,100,0|0,3:0|0:0,0:0:0:0:
338,242,54511,2,0,B|329:276|329:276|332:306|332:306|326:341,1,90.0000034332277,8|0,0:0|0:0,0:0:0:0:
246,375,54858,6,2,B|258:307|258:307|255:277|255:277|273:176,1,174.000005310059,2|0,3:2|0:0,0:0:0:0:
292,46,55205,1,10,0:0:0:0:
185,115,55378,1,0,0:0:0:0:
371,145,55552,6,0,P|419:138|475:176,1,100,0|0,3:0|0:0,0:0:0:0:
484,237,55898,1,8,0:0:0:0:
464,242,55984,1,0,0:0:0:0:
444,240,56071,1,0,0:0:0:0:
425,232,56158,1,0,0:0:0:0:
409,218,56245,6,0,L|391:321,1,100,4|0,3:2|0:0,0:0:0:0:
231,372,56592,2,0,L|213:273,1,100,8|0,0:0|0:0,0:0:0:0:
95,192,56939,2,0,P|54:200|-22:163,1,100,0|0,3:0|0:0,0:0:0:0:
207,84,57286,2,0,P|248:76|324:113,1,100,8|0,0:0|0:0,0:0:0:0:
369,216,57632,6,0,P|353:249|359:295,1,77.9999964294435,0|0,3:2|0:0,0:0:0:0:
405,346,57979,2,0,P|430:318|428:278,1,51.999997619629,8|0,0:0|0:0,0:0:0:0:
321,154,58153,2,0,P|296:182|298:222,1,51.999997619629,8|0,0:0|0:0,0:0:0:0:
400,143,58500,6,0,P|343:76|289:81,1,120,4|0,0:0|0:0,0:0:0:0:
248,120,58846,2,0,B|198:103|163:136|163:136|123:98|55:123,1,174.000005310059,12|0,0:0|0:0,0:0:0:0:
11,155,59193,1,0,3:0:0:0:
106,197,59367,6,0,P|95:223|101:271,3,58.0000017700196,8|0|0|0,0:0|0:0|0:0|0:0,0:0:0:0:
185,348,59713,2,0,P|185:325|181:303,3,40,0|0|0|0,3:0|0:0|0:0|0:0,0:0:0:0:
282,269,60060,2,0,L|283:251,6,11.9999996337891,8|0|0|0|0|0|0,0:0|0:0|0:0|0:0|0:0|0:0|0:0,0:0:0:0:
362,272,60407,6,0,P|356:221|252:179,1,174.000005310059,4|0,0:0|0:0,0:0:0:0:
199,241,60754,1,8,0:0:0:0:
151,77,60927,2,0,P|108:43|109:140,1,200,0|0,0:0|0:0,0:0:0:0:
24,271,61447,2,0,B|15:328|38:374|38:374|39:339|64:314,1,150,8|0,0:0|0:0,0:0:0:0:
161,279,61794,6,0,P|194:273|250:327,1,100,0|0,3:0|0:0,0:0:0:0:
414,334,62141,2,0,P|381:328|325:382,1,100,8|0,0:0|0:0,0:0:0:0:
254,212,62488,2,0,P|232:169|186:155,1,100,0|0,3:0|0:0,0:0:0:0:
383,165,62835,2,0,P|405:122|452:108,1,100,8|0,0:0|0:0,0:0:0:0:
267,31,63182,6,0,L|137:27,1,100,0|0,3:0|0:0,0:0:0:0:
36,26,63528,1,8,0:0:0:0:
122,129,63702,2,0,P|155:221|86:320,1,200,0|0,0:0|0:0,0:0:0:0:
50,216,64222,2,0,B|101:231|101:231|163:215,1,100,8|0,0:0|0:0,0:0:0:0:
291,49,64569,6,0,P|315:86|287:156,1,100,0|0,3:0|0:0,0:0:0:0:
260,360,64916,2,0,P|236:323|264:253,1,100,8|0,0:0|0:0,0:0:0:0:
431,220,65263,2,0,P|394:244|324:216,1,100,0|0,3:0|0:0,0:0:0:0:
120,189,65609,2,0,P|157:165|227:193,1,100,8|0,0:0|0:0,0:0:0:0:
74,262,65956,6,0,B|21:225|40:155|40:155|80:128|73:81,1,200,0|8,1:0|0:0,0:0:0:0:
137,34,66476,2,0,B|163:86|143:143|143:143|172:96|243:110,1,200,0|0,0:0|0:0,0:0:0:0:
306,185,66997,2,0,P|255:195|194:170,1,100,8|0,0:0|0:0,0:0:0:0:
22,241,67343,2,0,P|73:231|134:256,1,100,0|0,3:0|0:0,0:0:0:0:
192,384,67690,6,0,B|191:340|191:340|204:310|204:310|202:258,1,120.000004577637,8|0,0:0|3:0,0:0:0:0:
282,252,68211,2,0,L|284:313,1,58.0000017700196,0|0,0:0|0:0,0:0:0:0:
119,377,68384,2,0,L|117:316,1,58.0000017700196,8|0,0:0|0:0,0:0:0:0:
231,155,68557,2,0,L|232:198,1,23.9999992675781,0|0,0:0|0:0,0:0:0:0:
159,141,68731,6,0,P|183:99|291:110,1,167.999994873047,0|0,3:0|0:0,0:0:0:0:
302,183,69078,2,0,P|324:176|364:102,1,100,8|0,0:0|0:0,0:0:0:0:
332,44,69338,1,0,0:0:0:0:
340,36,69424,2,0,P|367:31|394:37,3,50,0|0|0|0,3:0|0:0|0:0|0:0,0:0:0:0:
505,96,69771,2,0,P|478:101|451:95,3,50,8|0|0|0,0:0|0:0|0:0|0:0,0:0:0:0:
424,186,70118,6,0,P|425:210|411:237,3,51.999997619629,0|0|0|0,3:0|0:0|0:0|0:0,0:0:0:0:
401,332,70465,2,0,P|377:346|343:347,3,55.9999982910157,8|0|0|0,0:0|0:0|0:0|0:0,0:0:0:0:
244,365,70812,2,0,P|225:357|207:329,6,30.0000011444092,0|0|0|0|0|0|0,3:0|0:0|0:0|0:0|0:0|0:0|0:0,0:0:0:0:
156,294,71158,2,0,P|137:302|117:327,6,32,8|0|0|0|0|0|0,0:0|0:0|0:0|0:0|0:0|0:0|0:0,0:0:0:0:
66,257,71505,6,0,B|45:296|45:296|66:377,1,116.000003540039,4|0,3:2|0:0,0:0:0:0:
137,192,71852,2,0,P|104:154|41:148,1,95.9999970703126,8|0,0:0|0:0,0:0:0:0:
233,225,72199,2,0,P|282:215|319:163,1,95.9999970703126,0|0,3:0|0:0,0:0:0:0:
156,294,72546,2,0,P|139:341|165:399,1,95.9999970703126,8|0,0:0|0:0,0:0:0:0:
281,335,72893,6,0,P|313:343|393:319,1,95.9999970703126,0|0,3:0|0:0,0:0:0:0:
512,262,73239,2,0,P|480:270|400:246,1,95.9999970703126,8|0,0:0|0:0,0:0:0:0:
256,204,73586,2,0,P|288:212|368:188,1,95.9999970703126,0|0,3:0|0:0,0:0:0:0:
487,131,73932,2,0,P|455:139|375:115,1,95.9999970703126,8|0,0:0|0:0,0:0:0:0:
243,30,74280,6,0,P|253:60|250:141,1,95.9999970703126,0|0,3:0|0:0,0:0:0:0:
262,299,74627,2,0,P|251:272|255:188,1,95.9999970703126,8|0,0:0|0:0,0:0:0:0:
402,173,74974,2,0,P|379:164|291:180,1,95.9999970703126,0|0,3:0|0:0,0:0:0:0:
94,162,75321,2,0,P|121:171|205:155,1,95.9999970703126,8|0,0:0|0:0,0:0:0:0:
31,213,75667,6,0,P|12:172|34:112,1,95.9999970703126,0|0,3:0|0:0,0:0:0:0:
102,243,76014,2,0,P|121:284|99:344,1,95.9999970703126,8|0,0:0|0:0,0:0:0:0:
234,311,76361,2,0,P|278:288|341:312,1,95.9999970703126,0|0,3:0|0:0,0:0:0:0:
472,330,76708,2,0,P|423:350|369:320,1,95.9999970703126,8|0,0:0|0:0,0:0:0:0:
383,260,77054,6,0,P|389:236|383:206,1,47.9999985351563,2|0,3:2|0:0,0:0:0:0:
351,143,77228,2,0,P|347:119|353:96,1,47.9999985351563,2|0,0:0|0:0,0:0:0:0:
422,59,77401,2,0,P|444:68|461:84,1,47.9999985351563,10|0,0:0|0:0,0:0:0:0:
459,162,77575,2,0,P|440:176|417:182,1,47.9999985351563,2|0,0:0|0:0,0:0:0:0:
272,107,77748,6,0,P|226:82|166:98,2,95.9999970703126,0|0|8,3:0|0:0|0:0,0:0:0:0:
280,192,78268,2,2,B|224:227|218:328|286:382|286:382|358:329|329:247|329:247|300:269|321:311,1,431.999986816407,2|0,0:0|0:0,0:0:0:0:
402,324,79135,2,0,B|416:249|374:190|374:190|471:227|534:136|475:59|402:90|410:139,1,383.99998828125,2|0,0:0|3:0,0:0:0:0:
285,91,80002,6,0,B|275:143|275:143|207:129|207:129|227:29,1,223.999993164063,12|0,0:0|3:0,0:0:0:0:
73,101,80523,2,0,B|83:49|83:49|151:63|151:63|131:163,1,223.999993164063,12|0,0:0|3:0,0:0:0:0:
112,244,81043,1,4,3:2:0:0:
192,220,81216,6,0,P|218:214|247:221,3,47.9999985351563,0|0|0|0,3:0|0:0|3:0|0:0,0:0:0:0:
321,192,81563,2,0,P|337:209|348:244,3,51.999997619629,8|0|0|0,0:0|0:0|3:0|0:0,0:0:0:0:
406,321,81910,2,0,P|394:336|391:367,6,27.9999991455078,0|0|0|0|0|0|0,3:0|0:0|0:0|3:0|0:0|0:0|0:0,0:0:0:0:
482,277,82257,2,0,P|490:258|490:241,6,30.0000011444092,8|0|0|0|0|0|0,0:0|0:0|0:0|0:0|3:0|0:0|0:0,0:0:0:0:
451,148,82647,5,2,0:0:0:0:
451,148,82966,1,2,0:0:0:0:
328,32,83278,6,2,L|326:64,1,20.0000007629395,2|2,0:0|0:0,0:0:0:0:
320,137,83649,1,2,0:0:0:0:
167,75,83977,6,2,L|137:72,1,20.0000007629395,2|2,0:0|0:0,0:0:0:0:
72,65,84355,1,2,0:0:0:0:
131,206,84669,5,2,0:0:0:0:
131,206,84714,2,2,P|149:258|116:358,1,160,2|2,0:0|0:0,0:0:0:0:
40,274,85370,2,2,L|37:244,2,20,2|2|2,0:0|0:0|0:0,0:0:0:0:
259,347,86552,6,2,B|324:330|367:275|357:212|279:185|252:249|252:249|216:188|154:219|153:279|206:305,1,415.999980957032,2|2,0:0|0:0,0:0:0:0:
